osu file format v12

[General]
AudioFilename: LAMENT (TV Size).mp3
AudioLeadIn: 2000
PreviewTime: 55405
Countdown: 0
SampleSet: Soft
StackLeniency: 0.4
Mode: 0
LetterboxInBreaks: 0
WidescreenStoryboard: 0

[Editor]
DistanceSpacing: 1.2
BeatDivisor: 4
GridSize: 8

[Metadata]
Title:LAMENT ~Yagate Yorokobi wo~ (TV Size)
TitleUnicode:LAMENT~やがて喜びを~ (TV Size)
Artist:Yuuki Aira
ArtistUnicode:結城アイラ
Creator:Chloe
Version:LAMENT
Source:伝説の勇者の伝説
Tags:The Legend of the Legendary Heroes Densetsu no Yuusha no Densetsu
BeatmapID:290309
BeatmapSetID:106208

[Difficulty]
HPDrainRate:6
CircleSize:4
OverallDifficulty:7
ApproachRate:8
SliderMultiplier:1.8
SliderTickRate:2

[Events]
//Background and Video events
0,0,"Densetsu no Yuusha no Densetsu.png",0,0
//Break Periods
//Storyboard Layer 0 (Background)
//Storyboard Layer 1 (Fail)
//Storyboard Layer 2 (Pass)
//Storyboard Layer 3 (Foreground)
//Storyboard Sound Samples
//Background Colour Transformations
3,100,255,255,255

[TimingPoints]
585,431.654676258993,4,2,1,70,1,0
12671,-100,4,2,1,20,0,0
14182,-100,4,2,1,70,0,0
25189,-100,4,2,1,48,0,0
25405,-100,4,2,1,24,0,0
25620,-100,4,2,1,55,0,0
26052,-100,4,2,1,60,0,0
26484,-100,4,2,1,80,0,0
26592,-100,4,2,1,70,0,0
26915,-100,4,2,1,60,0,0
27131,-100,4,2,1,70,0,0
27347,-100,4,2,1,80,0,0
27455,-100,4,2,1,70,0,0
27779,-100,4,2,1,65,0,0
27995,-100,4,2,1,70,0,0
33822,-100,4,2,1,65,0,0
34254,-100,4,2,1,70,0,0
42023,-200,4,2,1,70,0,0
48498,-200,4,2,1,80,0,0
48822,-200,4,2,1,70,0,0
50009,-200,4,2,1,60,0,0
50441,-200,4,2,1,70,0,0
51520,-100,4,2,1,70,0,0
52383,-100,4,2,1,80,0,0
52491,-100,4,2,1,70,0,0
53570,-100,4,2,1,60,0,0
53894,-100,4,2,1,80,0,0
54541,-100,4,2,1,70,0,0
55405,-100,4,2,1,80,0,0
55513,-100,4,2,1,70,0,0
55836,-100,4,2,1,90,0,1
62527,-100,4,2,1,90,0,0
66196,-100,4,2,1,70,0,0
66520,-100,4,2,1,50,0,0
66628,-100,4,2,1,70,0,0
66843,-100,4,2,1,60,0,0
67059,-100,4,2,1,80,0,0
67383,-100,4,2,1,60,0,0
67707,-100,4,2,1,75,0,0
67923,-100,4,2,1,70,0,0
69218,-100,4,2,1,80,0,0
69326,-100,4,2,1,70,0,0
69649,-100,4,2,1,90,0,1
76556,-100,4,2,1,70,0,0
78498,-100,4,2,1,60,0,0
78714,-100,4,2,1,70,0,0
80764,-200,4,2,1,80,0,0
81736,-100,4,2,1,80,0,0
86268,-50,4,2,1,80,0,0
86915,-100,4,2,0,40,0,0
87347,-100,4,2,0,30,0,0
87779,-100,4,2,0,20,0,0
88210,-100,4,2,0,10,0,0
88642,-100,4,2,0,5,0,0

[Colours]
Combo1 : 219,48,233
Combo2 : 97,128,250
Combo3 : 0,213,213
Combo4 : 213,43,43

[HitObjects]
172,205,585,1,4,0:0:0:0:
172,205,800,1,0,0:0:0:0:
252,246,1016,2,0,P|303:264|380:266,1,90,2|0,0:0|0:0,0:0:0:0:
398,200,1448,2,0,P|347:182|270:180,2,90,0|0|2,0:0|0:0|0:0,0:0:0:0:
271,58,2311,6,0,L|205:79,2,45,4|0|0,0:0|0:0|0:0,0:0:0:0:
361,60,2743,1,2,0:0:0:0:
430,117,2959,1,0,0:0:0:0:
398,200,3174,2,0,P|363:254|365:297,1,90
363,323,3498,2,0,L|296:321,1,45,0|2,0:0|0:0,0:0:0:0:
173,309,3822,1,0,0:0:0:0:
256,192,4038,5,4,0:0:0:0:
256,192,4577,5,0,0:0:0:0:
256,192,4685,1,2,0:0:0:0:
319,104,4901,1,0,0:0:0:0:
211,94,5117,1,0,0:0:0:0:
148,181,5333,1,2,0:0:0:0:
193,279,5549,2,0,P|238:298|295:293,1,90,8|12,0:0|0:0,0:0:0:0:
278,297,5872,1,0,0:0:0:0:
278,297,5980,1,2,0:0:0:0:
256,192,6196,5,2,0:0:0:0:
86,270,6412,2,0,L|19:265,1,45
107,40,6843,5,0,0:0:0:0:
100,62,6951,1,0,0:0:0:0:
107,84,7059,1,8,0:0:0:0:
127,96,7167,1,0,0:0:0:0:
150,97,7275,1,0,0:0:0:0:
169,85,7383,1,0,0:0:0:0:
180,65,7491,2,8,P|257:27|331:71,1,180,4|8,0:0|0:0,0:0:0:0:
356,197,8138,5,0,0:0:0:0:
349,213,8246,1,0,0:0:0:0:
342,229,8354,1,2,0:0:0:0:
119,287,8678,1,2,0:0:0:0:
119,287,8786,1,8,0:0:0:0:
180,66,9002,1,0,0:0:0:0:
234,169,9218,2,0,B|277:164|277:164|315:84|421:126,1,180,2|8,0:0|0:0,0:0:0:0:
457,254,9865,5,0,0:0:0:0:
356,197,10081,1,2,0:0:0:0:
179,343,10405,1,2,0:0:0:0:
179,343,10513,1,8,0:0:0:0:
140,118,10728,1,0,0:0:0:0:
53,53,10944,2,0,B|31:120|31:120|40:188|103:219,1,180,4|8,0:0|0:0,0:0:0:0:
234,169,11592,1,0,0:0:0:0:
260,173,11700,1,0,0:0:0:0:
286,177,11808,2,0,L|412:200,1,90,2|0,0:0|0:0,0:0:0:0:
497,249,12239,5,8,0:0:0:0:
497,249,12455,1,0,0:0:0:0:
256,192,12671,12,0,13966,3:0:0:0:
155,280,14182,6,0,L|126:323,2,45,2|0|4,0:0|0:0|0:0,0:0:0:0:
216,213,14613,2,0,P|275:179|335:172,1,90,0|8,0:0|0:0,0:0:0:0:
500,265,15261,1,2,0:0:0:0:
327,298,15585,1,2,0:0:0:0:
327,298,15692,1,0,0:0:0:0:
383,160,15908,1,2,0:0:0:0:
302,102,16124,5,2,0:0:0:0:
302,102,16232,1,0,0:0:0:0:
302,102,16340,1,0,0:0:0:0:
237,177,16556,1,0,2:0:0:0:
139,159,16772,1,0,0:0:0:0:
139,159,16987,1,2,0:0:0:0:
204,85,17203,1,0,0:0:0:0:
173,252,17419,1,8,0:0:0:0:
78,286,17635,1,2,2:0:0:0:
51,282,17743,1,0,2:0:0:0:
25,274,17851,5,0,2:0:0:0:
14,148,18067,1,0,2:0:0:0:
139,159,18282,2,0,P|230:140|290:50,1,180,2|0,0:0|0:0,0:0:0:0:
388,49,18930,1,2,0:0:0:0:
291,129,19146,2,0,P|302:188|338:223,1,90,2|0,0:0|0:0,0:0:0:0:
511,181,19577,5,0,0:0:0:0:
389,139,19793,1,2,0:0:0:0:
487,55,20009,1,2,0:0:0:0:
426,210,20225,1,0,0:0:0:0:
494,268,20441,2,0,P|438:301|344:239,1,180,0|8,0:0|0:0,0:0:0:0:
426,210,21088,1,2,0:0:0:0:
275,193,21304,5,2,0:0:0:0:
275,193,21628,1,2,0:0:0:0:
275,193,21951,1,2,0:0:0:0:
275,193,22167,2,0,P|257:244|230:265,1,90,2|0,0:0|0:0,0:0:0:0:
194,237,22491,2,0,P|129:252|87:317,1,135,2|0,0:0|0:0,0:0:0:0:
184,341,23031,5,2,0:0:0:0:
184,341,23138,1,0,0:0:0:0:
184,341,23246,1,0,0:0:0:0:
296,308,23462,1,0,0:0:0:0:
275,193,23678,1,2,0:0:0:0:
387,160,23894,1,2,0:0:0:0:
399,183,24002,1,0,0:0:0:0:
406,208,24110,2,0,P|399:267|360:313,1,90,0|8,0:0|0:0,0:0:0:0:
340,317,24433,2,0,L|296:308,1,45,0|2,0:0|0:0,0:0:0:0:
195,246,24757,6,0,L|150:236,2,45,2|0|0,0:0|0:0|0:0,0:0:0:0:
275,193,25189,1,8,0:0:0:0:
275,193,25405,1,0,0:0:0:0:
265,99,25620,2,0,P|317:106|358:152,1,90,12|0,0:0|0:0,0:0:0:0:
275,193,26052,1,8,0:0:0:0:
30,24,26484,6,0,P|20:66|30:111,1,90,8|0,0:0|0:0,0:0:0:0:
39,126,26808,1,0,0:0:0:0:
52,137,26915,1,4,0:0:0:0:
124,250,27131,1,0,0:0:0:0:
215,210,27347,2,0,P|238:163|227:88,1,90,8|0,0:0|0:0,0:0:0:0:
117,70,27779,1,4,0:0:0:0:
215,210,27995,1,0,0:0:0:0:
215,210,28102,1,0,0:0:0:0:
215,210,28210,5,12,0:0:0:0:
313,201,28426,1,0,0:0:0:0:
331,104,28642,1,8,0:0:0:0:
331,104,29074,1,2,0:0:0:0:
452,265,29397,1,2,0:0:0:0:
452,265,29505,1,8,0:0:0:0:
276,276,29721,1,0,0:0:0:0:
215,210,29937,2,0,P|294:190|361:251,1,180,2|8,0:0|0:0,0:0:0:0:
315,367,30585,5,0,0:0:0:0:
285,375,30692,1,0,0:0:0:0:
253,372,30800,2,0,P|211:350|177:286,1,90,2|0,0:0|0:0,0:0:0:0:
276,276,31232,2,0,P|326:254|395:256,1,90,8|0,0:0|0:0,0:0:0:0:
459,304,31664,1,2,0:0:0:0:
304,99,31987,1,2,0:0:0:0:
304,99,32095,1,8,0:0:0:0:
131,175,32311,1,0,0:0:0:0:
100,259,32527,2,0,L|225:247,1,90,2|0,0:0|0:0,0:0:0:0:
297,189,32959,2,0,L|403:233,2,90,8|0|0,0:0|0:0|0:0,0:0:0:0:
100,259,33822,5,2,0:0:0:0:
294,333,34254,5,2,0:0:0:0:
349,262,34469,1,0,0:0:0:0:
297,189,34685,1,8,0:0:0:0:
363,262,34901,1,0,0:0:0:0:
294,332,35117,2,2,P|250:261|297:189,1,180
354,118,35764,1,0,0:0:0:0:
302,45,35980,5,0,0:0:0:0:
277,71,36088,1,0,0:0:0:0:
264,105,36196,1,2,0:0:0:0:
322,250,36412,1,8,0:0:0:0:
396,198,36628,1,0,0:0:0:0:
319,341,36843,2,0,P|241:292|239:212,1,180,2|0,0:0|0:0,0:0:0:0:
314,161,37491,1,2,0:0:0:0:
322,250,37707,6,0,B|282:307|227:300|227:300|124:278,1,180,2|8,0:0|0:0,0:0:0:0:
84,174,38354,1,0,0:0:0:0:
196,98,38570,1,2,0:0:0:0:
196,98,38678,1,0,0:0:0:0:
196,98,38786,1,0,0:0:0:0:
314,161,39002,1,0,0:0:0:0:
322,250,39218,2,0,P|352:288|401:320,1,90,2|0,0:0|0:0,0:0:0:0:
314,161,39865,5,8,0:0:0:0:
314,161,40081,1,0,0:0:0:0:
402,146,40297,1,2,0:0:0:0:
326,195,40513,1,2,0:0:0:0:
237,179,40728,1,0,0:0:0:0:
196,98,40944,1,2,0:0:0:0:
131,162,41160,1,8,0:0:0:0:
364,85,41376,1,8,0:0:0:0:
296,254,41592,5,2,0:0:0:0:
296,254,41700,1,0,0:0:0:0:
296,254,41808,1,0,0:0:0:0:
296,254,41915,1,0,0:0:0:0:
296,254,42023,2,0,P|272:278|223:305,1,90,4|2,0:0|0:0,0:0:0:0:
143,315,42671,1,0,0:0:0:0:
143,315,42887,1,0,0:0:0:0:
96,184,43534,5,0,3:0:0:0:
81,263,43750,1,2,0:0:0:0:
32,133,44074,1,2,0:0:0:0:
158,236,44397,1,0,0:0:0:0:
172,156,44613,2,0,L|273:119,1,90,2|0,0:0|0:0,0:0:0:0:
443,144,45261,5,8,0:0:0:0:
448,155,45369,1,0,0:0:0:0:
453,166,45477,2,0,L|368:196,1,90,4|0,0:0|0:0,0:0:0:0:
247,295,46124,5,2,0:0:0:0:
247,295,46340,2,0,L|331:264,1,90
322,143,46987,1,2,0:0:0:0:
237,178,47203,2,0,P|305:234|398:195,1,180,2|0,0:0|0:0,0:0:0:0:
470,130,48282,1,0,0:0:0:0:
473,142,48390,1,0,0:0:0:0:
476,154,48498,1,8,0:0:0:0:
356,134,48714,1,8,0:0:0:0:
353,122,48822,1,0,0:0:0:0:
350,110,48930,6,0,B|342:59|319:21,1,90,4|2,0:0|0:0,0:0:0:0:
241,17,49577,1,0,0:0:0:0:
241,17,49793,2,0,L|182:27,1,45,2|0,0:0|0:0,0:0:0:0:
77,197,50441,1,8,0:0:0:0:
77,197,50549,1,0,0:0:0:0:
77,197,50656,1,8,0:0:0:0:
161,291,50980,1,2,0:0:0:0:
161,291,51088,1,0,0:0:0:0:
328,168,51304,1,0,0:0:0:0:
287,287,51520,5,2,0:0:0:0:
453,180,51843,1,2,0:0:0:0:
161,291,52167,1,8,0:0:0:0:
61,75,52383,5,4,0:0:0:0:
401,65,52707,1,2,0:0:0:0:
203,180,53031,1,0,0:0:0:0:
287,287,53246,5,12,0:0:0:0:
287,287,53354,1,2,0:0:0:0:
347,166,53570,1,8,0:0:0:0:
128,67,53894,1,8,0:0:0:0:
161,286,54110,1,4,0:0:0:0:
161,286,54541,5,8,0:0:0:0:
161,286,55405,1,8,0:0:0:0:
161,286,55513,1,0,0:0:0:0:
161,286,55620,1,0,0:0:0:0:
161,286,55728,1,0,0:0:0:0:
161,286,55836,6,0,P|251:269|307:174,1,180,4|8,0:0|0:0,0:0:0:0:
186,167,56484,2,0,L|61:167,2,90
311,89,57131,1,8,0:0:0:0:
417,139,57347,1,0,0:0:0:0:
432,162,57455,1,0,0:0:0:0:
440,187,57563,6,0,P|442:232|425:274,1,90,0|0,0:0|0:0,0:0:0:0:
253,299,57995,2,0,P|282:261|320:246,1,90,8|0,0:0|0:0,0:0:0:0:
348,351,58426,1,2,0:0:0:0:
348,351,58642,5,2,0:0:0:0:
195,208,58858,1,8,0:0:0:0:
311,89,59074,1,0,0:0:0:0:
440,187,59290,1,2,0:0:0:0:
440,187,59613,6,0,P|411:243|332:283,1,135,2|0,0:0|0:0,0:0:0:0:
320,271,60045,1,0,0:0:0:0:
291,258,60153,2,0,P|244:256|192:213,1,90,2|0,0:0|0:0,0:0:0:0:
311,89,60585,2,0,P|280:128|271:166,1,90,8|0,0:0|0:0,0:0:0:0:
435,253,61016,6,0,B|406:271|406:271|360:255|360:255|348:211|366:160,1,180,0|8,0:0|0:0,0:0:0:0:
401,76,61664,1,0,0:0:0:0:
401,76,61879,2,0,L|495:76,2,90,0|0|8,0:0|0:0|0:0,0:0:0:0:
221,85,62527,5,0,0:0:0:0:
202,110,62635,1,0,0:0:0:0:
196,141,62743,1,4,0:0:0:0:
313,249,63067,1,2,0:0:0:0:
313,132,63390,1,0,0:0:0:0:
197,258,63606,1,2,0:0:0:0:
197,258,63714,1,0,0:0:0:0:
197,258,63822,2,0,P|212:315|263:347,1,90,0|2,0:0|0:0,0:0:0:0:
426,275,64254,5,0,0:0:0:0:
426,275,64361,1,0,0:0:0:0:
426,275,64469,2,0,P|471:224|479:151,1,135,4|2,0:0|0:0,0:0:0:0:
380,15,65117,1,2,0:0:0:0:
291,27,65333,1,0,0:0:0:0:
207,59,65549,2,0,P|231:103|227:145,2,90,0|0|0,0:0|0:0|0:0,0:0:0:0:
207,59,66088,1,0,0:0:0:0:
207,59,66196,5,6,0:0:0:0:
310,333,66520,1,10,0:0:0:0:
310,333,66628,1,10,0:0:0:0:
291,27,66843,5,8,0:0:0:0:
202,354,67059,1,14,0:0:0:0:
380,15,67383,5,10,0:0:0:0:
91,349,67707,1,8,0:0:0:0:
88,66,67923,5,6,0:0:0:0:
85,83,68031,1,0,0:0:0:0:
84,100,68138,1,0,0:0:0:0:
87,117,68246,1,0,0:0:0:0:
93,133,68354,1,4,0:0:0:0:
103,147,68462,1,0,0:0:0:0:
116,159,68570,1,0,0:0:0:0:
131,167,68678,1,0,0:0:0:0:
148,172,68786,2,0,P|202:179|260:155,1,90,12|0,0:0|0:0,0:0:0:0:
349,118,69218,5,8,0:0:0:0:
349,118,69326,1,0,0:0:0:0:
349,118,69433,1,0,0:0:0:0:
349,118,69541,1,0,0:0:0:0:
349,118,69649,2,0,P|418:133|468:178,1,135,4|0,0:0|0:0,0:0:0:0:
480,202,70081,1,8,0:0:0:0:
356,253,70297,2,0,P|376:297|370:343,2,90
235,192,70944,1,8,0:0:0:0:
100,175,71160,5,0,0:0:0:0:
100,175,71268,1,0,0:0:0:0:
100,175,71376,2,0,P|54:252|73:339,1,180,0|8,0:0|0:0,0:0:0:0:
171,376,72023,2,0,P|216:375|261:376,1,90,0|0,0:0|0:0,0:0:0:0:
157,270,72455,5,2,0:0:0:0:
356,253,72671,1,8,0:0:0:0:
272,72,72887,1,0,0:0:0:0:
171,113,73102,2,0,P|220:165|281:179,1,135,2|0,0:0|0:0,0:0:0:0:
317,171,73534,5,8,0:0:0:0:
380,83,73750,1,0,0:0:0:0:
431,177,73966,2,0,L|408:216,2,45,2|0|0,0:0|0:0|0:0,0:0:0:0:
322,272,74397,1,8,0:0:0:0:
286,279,74505,1,0,0:0:0:0:
250,276,74613,1,0,0:0:0:0:
140,196,74829,5,2,0:0:0:0:
204,76,75045,2,0,P|235:97|264:141,1,90,0|8,0:0|0:0,0:0:0:0:
250,276,75477,1,0,0:0:0:0:
127,330,75692,1,0,0:0:0:0:
16,251,75908,2,0,P|59:212|124:198,2,90,0|8|0,0:0|0:0|0:0,0:0:0:0:
16,251,76448,1,0,0:0:0:0:
16,251,76556,5,6,0:0:0:0:
168,71,76879,1,2,0:0:0:0:
168,71,76987,1,8,0:0:0:0:
354,264,77203,1,0,0:0:0:0:
181,316,77419,1,2,0:0:0:0:
399,62,77743,1,2,0:0:0:0:
421,85,77851,1,0,0:0:0:0:
434,114,77959,1,0,0:0:0:0:
438,146,78067,1,0,0:0:0:0:
435,178,78174,1,0,0:0:0:0:
422,206,78282,6,0,P|393:241|354:263,1,90,12|0,0:0|0:0,0:0:0:0:
256,192,78714,1,12,0:0:0:0:
256,192,79361,5,2,0:0:0:0:
174,154,79577,1,0,0:0:0:0:
84,163,79793,1,0,0:0:0:0:
14,220,80009,2,0,B|25:328|136:352,1,180,6|8,0:0|0:0,0:0:0:0:
211,358,80656,1,0,0:0:0:0:
300,349,80872,6,0,P|342:328|373:291,1,90,0|8,0:0|0:0,0:0:0:0:
396,128,81520,5,0,0:0:0:0:
306,188,81736,2,0,P|269:211|184:215,1,90
197,218,82059,1,0,0:0:0:0:
170,212,82167,1,8,0:0:0:0:
200,50,82383,5,0,0:0:0:0:
226,56,82491,1,0,0:0:0:0:
249,69,82599,1,2,0:0:0:0:
385,302,82923,5,2,0:0:0:0:
149,242,83246,1,0,0:0:0:0:
256,192,83462,1,6,0:0:0:0:
234,316,83786,5,2,0:0:0:0:
234,316,83894,1,8,0:0:0:0:
144,141,84110,6,0,L|237:146,1,90,2|0,0:0|0:0,0:0:0:0:
334,105,84541,1,0,0:0:0:0:
427,158,84757,2,0,P|455:206|447:261,1,90,8|0,0:0|0:0,0:0:0:0:
359,289,85189,5,4,0:0:0:0:
345,291,85297,1,0,0:0:0:0:
331,293,85405,1,0,0:0:0:0:
317,295,85513,1,0,0:0:0:0:
303,297,85620,1,2,0:0:0:0:
289,299,85728,1,0,0:0:0:0:
275,301,85836,1,0,0:0:0:0:
145,338,86052,5,8,0:0:0:0:
121,206,86268,2,0,B|150:150|220:146|220:146|255:191,1,180,8|0,0:0|0:0,0:0:0:0:
256,192,86700,21,12,0:0:0:0:
256,192,86808,12,0,88642,0:0:0:0:
