osu file format v12

[General]
AudioFilename: LAMENT (TV Size).mp3
AudioLeadIn: 2000
PreviewTime: 55405
Countdown: 0
SampleSet: Soft
StackLeniency: 0.4
Mode: 0
LetterboxInBreaks: 0
WidescreenStoryboard: 0

[Editor]
DistanceSpacing: 1
BeatDivisor: 4
GridSize: 8

[Metadata]
Title:LAMENT ~Yagate Yorokobi wo~ (TV Size)
TitleUnicode:LAMENT~やがて喜びを~ (TV Size)
Artist:Yuuki Aira
ArtistUnicode:結城アイラ
Creator:Chloe
Version:Easy
Source:伝説の勇者の伝説
Tags:The Legend of the Legendary Heroes Densetsu no Yuusha no Densetsu
BeatmapID:278462
BeatmapSetID:106208

[Difficulty]
HPDrainRate:2
CircleSize:3
OverallDifficulty:1
ApproachRate:3
SliderMultiplier:0.800000005960464
SliderTickRate:1

[Events]
//Background and Video events
0,0,"Densetsu no Yuusha no Densetsu.png",0,0
//Break Periods
//Storyboard Layer 0 (Background)
//Storyboard Layer 1 (Fail)
//Storyboard Layer 2 (Pass)
//Storyboard Layer 3 (Foreground)
//Storyboard Sound Samples
//Background Colour Transformations
3,100,255,255,255

[TimingPoints]
585,431.654676258993,4,2,1,70,1,0
5980,-100,4,2,1,5,0,0
7491,-100,4,2,1,70,0,0
12671,-100,4,2,1,5,0,0
14397,-100,4,2,1,60,0,0
26484,-100,4,2,1,80,0,0
27347,-100,4,2,1,90,0,0
27995,-100,4,2,1,70,0,0
40297,-100,4,2,1,5,0,0
42023,-100,4,2,1,70,0,0
48498,-100,4,2,1,80,0,0
48930,-100,4,2,1,70,0,0
52383,-100,4,2,1,80,0,0
52707,-100,4,2,1,70,0,0
54110,-100,4,2,1,80,0,0
54541,-100,4,2,1,70,0,0
55405,-100,4,2,1,80,0,0
55836,-100,4,2,1,90,0,1
62527,-100,4,2,1,90,0,0
66196,-100,4,2,1,70,0,0
66520,-100,4,2,1,50,0,0
66843,-100,4,2,1,60,0,0
67059,-100,4,2,1,80,0,0
67383,-100,4,2,1,60,0,0
67707,-100,4,2,1,75,0,0
67923,-100,4,2,1,70,0,0
69218,-100,4,2,1,80,0,0
69649,-100,4,2,1,90,0,1
76556,-100,4,2,1,70,0,0
80872,-100,4,2,1,80,0,0
81736,-100,4,2,1,80,0,0
86268,-100,4,2,1,80,0,0
87131,-100,4,2,0,40,0,0
87563,-100,4,2,0,30,0,0
87995,-100,4,2,0,20,0,0
88426,-100,4,2,0,10,0,0
88858,-100,4,2,0,5,0,0

[Colours]
Combo1 : 219,48,233
Combo2 : 97,128,250
Combo3 : 0,213,213
Combo4 : 213,43,43

[HitObjects]
141,195,585,1,4,0:0:0:0:
149,195,2311,5,4,0:0:0:0:
158,195,4038,5,4,0:0:0:0:
167,195,5764,5,4,0:0:0:0:
256,192,5980,12,12,7491,0:0:0:0:
256,192,8354,6,0,L|352:192,1,80.0000005960464,2|8,0:0|0:0,0:0:0:0:
416,192,9218,1,2,0:0:0:0:
315,316,10081,6,0,L|219:316,1,80.0000005960464,2|8,0:0|0:0,0:0:0:0:
155,316,10945,1,4,0:0:0:0:
155,316,11592,2,0,L|104:317,1,40.0000002980232,0|2,0:0|0:0,0:0:0:0:
256,192,12671,12,4,14397,0:0:0:0:
171,105,15261,6,0,P|245:131|276:217,1,160.000001192093,2|2,0:0|0:0,0:0:0:0:
298,279,16556,2,0,L|393:279,1,80.0000005960464,0|2,2:0|0:0,0:0:0:0:
454,255,17419,1,8,0:0:0:0:
504,193,17851,6,0,B|511:112|511:112|428:87,1,160.000001192093,0|0,2:0|0:0,0:0:0:0:
356,78,19146,2,0,L|356:173,2,80.0000005960464,2|0|2,0:0|0:0|0:0,0:0:0:0:
275,69,20441,2,0,P|200:93|157:158,1,160.000001192093,0|2,0:0|0:0,0:0:0:0:
173,237,21736,6,0,L|186:274,2,40.0000002980232,0|2|2,0:0|0:0|0:0,0:0:0:0:
234,185,22599,2,0,L|257:217,2,40.0000002980232,0|0|2,0:0|0:0|0:0,0:0:0:0:
157,158,23462,2,0,P|96:210|109:289,1,160.000001192093,0|8,0:0|0:0,0:0:0:0:
158,341,24757,6,0,L|248:331,1,80.0000005960464,2|0,0:0|0:0,0:0:0:0:
316,321,25620,1,12,0:0:0:0:
474,296,26484,1,8,0:0:0:0:
316,321,27347,1,8,0:0:0:0:
276,251,27779,6,0,L|259:214,2,40.0000002980232,8|0|12,0:0|0:0|0:0,0:0:0:0:
164,136,29074,6,0,P|226:94|313:101,1,160.000001192093,2|2,0:0|0:0,0:0:0:0:
373,145,30369,1,8,0:0:0:0:
390,222,30800,2,0,L|306:234,1,80.0000005960464,2|8,0:0|0:0,0:0:0:0:
232,217,31664,6,0,B|139:217|71:274,1,160.000001192093,2|2,0:0|0:0,0:0:0:0:
26,322,32959,2,0,B|59:354|116:345,1,80.0000005960464,8|0,0:0|0:0,0:0:0:0:
259,358,34254,1,2,0:0:0:0:
390,269,35117,6,0,P|407:189|379:105,1,160.000001192093,2|0,0:0|0:0,0:0:0:0:
311,84,36412,1,8,0:0:0:0:
237,116,36843,2,0,P|220:196|248:280,1,160.000001192093,2|2,0:0|0:0,0:0:0:0:
316,298,38138,1,8,0:0:0:0:
253,348,38570,6,0,L|170:340,2,80.0000005960464,2|0|0,0:0|0:0|0:0,0:0:0:0:
316,298,39865,1,8,0:0:0:0:
256,192,40297,12,4,42023,0:0:0:0:
256,192,42887,5,0,0:0:0:0:
256,192,43534,5,0,0:0:0:0:
215,187,43750,2,0,P|137:191|77:241,1,160.000001192093,2|2,0:0|0:0,0:0:0:0:
51,317,45045,2,0,L|1:316,2,40.0000002980232,0|8|4,0:0|0:0|0:0,0:0:0:0:
129,302,45908,6,0,L|225:302,1,80.0000005960464,0|0,0:0|0:0,0:0:0:0:
287,287,46772,2,0,L|338:287,2,40.0000002980232,0|2|2,0:0|0:0|0:0,0:0:0:0:
484,150,48498,6,0,L|431:150,1,40.0000002980232,8|8,0:0|0:0,0:0:0:0:
403,150,48930,2,0,L|277:150,1,120.00000089407,4|0,0:0|0:0,0:0:0:0:
186,277,50441,5,8,0:0:0:0:
225,278,50656,2,0,P|297:250|326:204,1,120.00000089407,8|2,0:0|0:0,0:0:0:0:
320,177,51520,2,0,P|283:130|213:110,1,120.00000089407,0|8,0:0|0:0,0:0:0:0:
193,130,52383,6,0,L|64:143,1,120.00000089407,8|8,0:0|0:0,0:0:0:0:
38,125,53246,2,0,P|31:211|84:275,1,160.000001192093,12|4,0:0|0:0,0:0:0:0:
150,287,54541,1,8,0:0:0:0:
150,287,55405,5,8,0:0:0:0:
223,256,55836,2,0,P|265:181|248:106,1,160.000001192093,4|0,0:0|0:0,0:0:0:0:
191,58,57131,1,8,0:0:0:0:
267,33,57563,2,0,P|342:55|402:111,1,160.000001192093,0|0,0:0|0:0,0:0:0:0:
438,180,58858,5,8,0:0:0:0:
416,257,59290,2,0,P|412:312|427:343,2,80.0000005960464,2|0|2,0:0|0:0|0:0,0:0:0:0:
360,200,60585,2,0,P|321:208|277:205,1,80.0000005960464,8|0,0:0|0:0,0:0:0:0:
204,182,61448,2,0,P|164:179|125:187,1,80.0000005960464,8|0,0:0|0:0,0:0:0:0:
55,226,62311,5,8,0:0:0:0:
122,269,62743,2,0,P|244:293|356:246,1,240.000001788139,6|2,0:0|0:0,0:0:0:0:
340,172,64469,2,0,P|218:148|106:195,1,240.000001788139,4|0,0:0|0:0,0:0:0:0:
80,262,66196,6,0,L|140:286,1,60.0000004470348,6|10,0:0|0:0,0:0:0:0:
195,274,66843,5,8,0:0:0:0:
195,274,67059,2,0,L|255:298,1,60.0000004470348,14|10,0:0|0:0,0:0:0:0:
309,284,67707,5,8,0:0:0:0:
309,284,67923,2,0,B|368:304|368:304|407:198,1,160.000001192093,6|12,0:0|0:0,0:0:0:0:
428,136,69218,5,8,0:0:0:0:
355,102,69649,2,0,P|269:113|220:172,1,160.000001192093,4|0,0:0|0:0,0:0:0:0:
199,242,70944,1,8,0:0:0:0:
253,300,71376,2,0,P|328:328|405:320,1,160.000001192093,0|0,0:0|0:0,0:0:0:0:
468,271,72671,5,8,0:0:0:0:
486,193,73103,2,0,P|469:140|443:117,2,80.0000005960464,2|0|2,0:0|0:0|0:0,0:0:0:0:
408,214,74398,2,0,P|374:236|336:248,1,80.0000005960464,8|0,0:0|0:0,0:0:0:0:
256,256,75261,2,0,P|218:268|184:290,1,80.0000005960464,8|0,0:0|0:0,0:0:0:0:
142,358,76124,1,8,0:0:0:0:
84,302,76556,6,0,P|52:225|60:138,1,160.000001192093,6|2,0:0|0:0,0:0:0:0:
98,81,77851,1,0,0:0:0:0:
136,150,78282,2,0,P|184:160|226:152,1,80.0000005960464,4|8,0:0|0:0,0:0:0:0:
438,68,80009,6,0,L|344:68,1,80.0000005960464,6|8,0:0|0:0,0:0:0:0:
283,96,80872,2,0,L|189:96,1,80.0000005960464,0|8,0:0|0:0,0:0:0:0:
135,143,81736,6,0,P|147:221|207:271,1,160.000001192093,0|2,0:0|0:0,0:0:0:0:
284,250,83031,1,0,0:0:0:0:
360,228,83462,2,0,P|414:236|439:263,1,80.0000005960464,6|8,0:0|0:0,0:0:0:0:
468,323,84326,5,0,0:0:0:0:
399,363,84757,1,8,0:0:0:0:
319,356,85189,2,0,P|269:330|247:301,1,80.0000005960464,4|2,0:0|0:0,0:0:0:0:
216,241,86052,2,0,L|216:189,1,40.0000002980232,8|8,0:0|0:0,0:0:0:0:
216,120,86700,5,12,0:0:0:0:
256,192,86915,12,0,88858,0:0:0:0:
