osu file format v12

[General]
AudioFilename: Double Bible.mp3
AudioLeadIn: 1250
PreviewTime: 50683
Countdown: 0
SampleSet: Normal
StackLeniency: 0.7
Mode: 0
LetterboxInBreaks: 1
WidescreenStoryboard: 1

[Editor]
DistanceSpacing: 1
BeatDivisor: 4
GridSize: 4

[Metadata]
Title:Double Bible
TitleUnicode:Double Bible
Artist:Yuuki Aira
ArtistUnicode:結城アイラ
Creator:Kitsuneko
Version:Insane
Source:Root Double: Before Crime * After Days
Tags:Yeti Visual novel opening short version
BeatmapID:316115
BeatmapSetID:123883

[Difficulty]
HPDrainRate:7
CircleSize:4
OverallDifficulty:7
ApproachRate:9
SliderMultiplier:1.9
SliderTickRate:1

[Events]
//Background and Video events
0,0,"bg.jpg",0,0
Video,-124,"Double bible.avi"
//Break Periods
//Storyboard Layer 0 (Background)
//Storyboard Layer 1 (Fail)
//Storyboard Layer 2 (Pass)
//Storyboard Layer 3 (Foreground)
//Storyboard Sound Samples
//Background Colour Transformations
3,100,163,162,255

[TimingPoints]
845,387.096774193548,4,2,1,40,1,0
8586,-100,4,1,1,50,0,0
8974,-100,4,1,1,55,0,0
9167,-100,4,2,1,55,0,0
9361,-100,4,1,1,55,0,0
10232,-100,4,1,1,50,0,0
48651,-100,4,1,1,55,0,0
50393,-100,4,2,1,10,0,0
50780,-100,4,1,1,70,0,1
75167,-100,4,1,1,70,0,0
75361,-100,4,1,1,60,0,0
77296,-133.333333333333,4,2,1,40,0,0
81361,-100,4,2,1,30,0,0

[Colours]
Combo1 : 216,61,61
Combo2 : 54,147,222
Combo3 : 220,103,191
Combo4 : 134,226,247

[HitObjects]
496,64,845,2,0,P|432:40|352:48,1,142.5,2|0,0:0|0:0,0:0:0:0:
296,72,1232,2,0,P|244:88|188:96,1,95,8|0,0:0|0:0,0:0:0:0:
40,40,1619,2,0,P|20:88|20:144,1,95
20,168,1909,1,0,0:0:0:0:
28,208,2006,2,0,L|48:304,1,95,8|0,0:0|0:0,0:0:0:0:
248,348,2393,6,0,P|272:284|248:164,1,190,2|8,0:0|0:0,0:0:0:0:
156,80,2974,1,0,0:0:0:0:
268,28,3167,2,0,L|356:52,1,47.5
372,80,3361,2,0,P|424:64|464:40,1,95,0|8,0:0|0:0,0:0:0:0:
268,28,3941,6,0,P|276:96|252:168,1,142.5,2|0,0:0|0:0,0:0:0:0:
208,220,4328,2,0,L|224:320,1,95,8|0,0:0|0:0,0:0:0:0:
500,256,4715,2,0,P|444:256|396:240,1,95,0|0,0:0|0:0,0:0:0:0:
368,224,5006,1,0,0:0:0:0:
336,200,5103,2,0,L|320:100,1,95,8|0,0:0|0:0,0:0:0:0:
472,80,5490,6,0,P|476:136|404:248,1,190,2|8,0:0|0:0,0:0:0:0:
272,252,6070,1,0,0:0:0:0:
209,116,6264,2,0,P|233:116|256:124,1,47.5,0|0,0:0|0:0,0:0:0:0:
155,71,6457,2,0,P|173:56|196:48,1,47.5
85,72,6651,2,0,P|89:48|101:28,1,47.5,8|0,0:0|0:0,0:0:0:0:
30,115,6844,2,0,P|18:95|14:72,1,47.5
14,183,7038,6,0,P|74:211|150:207,1,142.5,2|0,0:0|0:0,0:0:0:0:
216,185,7425,2,0,P|256:173|320:173,1,95,8|0,0:0|0:0,0:0:0:0:
472,80,7812,2,0,P|466:104|468:140,1,47.5
484,196,8006,2,0,P|480:252|460:300,2,95,0|8|0,0:0|0:0|0:0,0:0:0:0:
352,92,8586,6,0,L|320:80,6,23.75
300,112,8974,2,0,P|248:108|200:92,1,95,8|0,0:2|0:0,0:0:0:0:
56,48,9361,2,0,L|64:96,1,47.5
20,256,9651,2,0,B|32:320|32:320|24:348,2,95
52,192,10135,6,0,P|144:202|232:160,1,190,4|8,0:0|0:2,0:0:0:0:
368,36,10812,1,0,0:0:0:0:
400,20,10909,2,0,P|448:24|496:40,1,95
512,164,11296,1,8,0:2:0:0:
400,340,11490,6,0,P|364:296|372:160,1,190
480,96,12070,1,8,0:2:0:0:
332,52,12264,1,0,0:0:0:0:
368,36,12361,1,0,0:0:0:0:
180,128,12554,1,0,0:0:0:0:
220,136,12651,1,0,0:0:0:0:
332,52,12844,1,8,0:2:0:0:
332,52,13232,5,4,0:0:0:0:
480,96,13425,1,0,0:0:0:0:
364,192,13619,1,0,0:0:0:0:
332,52,13812,1,0,0:0:0:0:
332,52,13909,1,0,0:0:0:0:
332,52,14006,2,0,P|284:36|224:36,1,95
84,168,14393,2,0,P|128:165|180:145,1,95,8|0,0:2|0:0,0:0:0:0:
160,20,14780,6,0,P|80:44|20:48,2,142.5
200,28,15457,1,0,0:0:0:0:
240,36,15554,2,0,L|332:12,1,95
488,64,15941,1,8,0:2:0:0:
452,52,16038,1,0,0:0:0:0:
464,192,16232,6,0,P|480:256|464:336,1,142.5
284,276,16715,2,0,L|336:292,1,47.5
232,324,17006,2,0,P|164:352|84:356,1,142.5
12,196,17490,1,8,0:2:0:0:
12,196,17877,6,0,P|60:208|112:204,1,95
188,84,18264,1,0,0:0:0:0:
224,68,18361,2,0,L|336:88,1,95
380,48,18651,2,0,P|428:44|476:60,1,95
496,200,19038,1,8,0:2:0:0:
340,240,19232,5,0,0:0:0:0:
368,216,19328,1,0,0:0:0:0:
404,224,19425,2,0,P|408:288|376:368,1,142.5
96,344,20006,1,0,0:0:0:0:
124,320,20103,2,0,P|149:254|146:183,1,142.5
32,72,20586,1,8,0:2:0:0:
32,72,20974,6,0,P|102:75|168:49,1,142.5
321,158,21554,1,0,0:0:0:0:
344,128,21651,2,0,P|409:102|480:105,1,142.5
504,248,22135,1,8,0:2:0:0:
380,336,22328,5,0,0:0:0:0:
344,324,22425,1,0,0:0:0:0:
324,296,22522,2,0,P|308:224|324:152,1,142.5
512,76,23103,1,0,0:0:0:0:
501,109,23199,2,0,P|517:178|504:248,1,142.5
380,336,23683,1,8,0:2:0:0:
324,156,23877,5,0,0:0:0:0:
312,188,23974,1,0,0:0:0:0:
300,220,24070,1,0,0:0:0:0:
420,24,24264,1,0,0:0:0:0:
284,68,24457,1,8,0:2:0:0:
480,128,24651,1,0,0:2:0:0:
468,160,24748,2,0,P|476:204|468:260,1,95
448,284,25038,5,0,0:0:0:0:
416,300,25135,1,8,0:2:0:0:
382,308,25232,1,0,0:0:0:0:
347,307,25328,1,0,0:0:0:0:
314,296,25425,1,0,0:0:0:0:
284,278,25522,1,0,0:0:0:0:
261,252,25619,1,4,0:0:0:0:
128,200,25812,6,0,P|120:244|128:300,1,95,0|8,0:0|0:2,0:0:0:0:
292,232,26199,1,0,0:0:0:0:
324,212,26296,2,0,P|336:140|324:68,1,142.5
220,16,26780,2,0,B|172:28|132:56|132:56|92:40|36:36,1,190,8|0,0:2|0:0,0:0:0:0:
100,208,27361,6,0,P|60:192|-12:188,1,95,0|8,0:0|0:2,0:0:0:0:
20,344,27748,1,0,0:0:0:0:
56,356,27844,2,0,P|136:340|188:308,1,142.5
232,176,28328,1,8,0:2:0:0:
380,220,28522,1,0,0:0:0:0:
248,312,28715,6,0,P|223:245|232:176,1,142.5
256,108,29103,2,0,L|364:88,1,95,8|0,0:2|0:0,0:0:0:0:
364,160,29393,2,0,L|520:132,1,142.5
380,23,29877,1,8,0:2:0:0:
364,160,30070,6,0,L|352:224,2,47.5,0|0|0,0:0|0:0|0:0,0:0:0:0:
476,32,30457,1,0,0:0:0:0:
312,68,30651,1,8,0:2:0:0:
512,160,30844,1,0,0:0:0:0:
380,23,31038,5,2,0:2:0:0:
368,56,31135,1,0,0:0:0:0:
361,90,31232,1,0,0:0:0:0:
360,125,31328,1,0,0:0:0:0:
364,160,31425,5,10,0:2:0:0:
336,138,31522,1,0,0:0:0:0:
305,121,31619,1,0,0:0:0:0:
272,109,31715,1,0,0:0:0:0:
237,103,31812,6,0,P|144:104|44:132,1,190,4|8,0:0|0:2,0:0:0:0:
60,320,32393,1,0,0:0:0:0:
92,340,32490,2,0,P|163:340|231:320,1,142.5
332,216,32974,1,8,0:2:0:0:
332,216,33361,6,0,L|484:240,1,142.5
512,244,33748,1,8,0:2:0:0:
500,56,33941,1,0,0:0:0:0:
464,72,34038,1,0,0:0:0:0:
432,88,34135,2,0,L|336:72,1,95
229,139,34522,2,0,L|136:124,1,95,8|0,0:2|0:0,0:0:0:0:
300,232,34909,5,0,0:0:0:0:
332,216,35006,2,0,P|320:272|316:320,1,95,0|0,0:2|0:0,0:0:0:0:
400,244,35296,2,0,P|407:300|420:347,1,95,8|0,0:2|0:0,0:0:0:0:
460,204,35586,2,0,P|486:254|514:293,1,95,0|0,0:2|0:0,0:0:0:0:
476,132,35877,2,0,P|449:81|421:42,2,95,0|8|0,0:0|0:2|0:0,0:0:0:0:
332,216,36457,6,0,P|320:272|316:320,1,95
132,352,36844,1,8,0:2:0:0:
156,324,36941,2,0,P|168:268|172:220,1,95,0|0,0:0|0:0,0:0:0:0:
140,164,37232,1,0,0:0:0:0:
12,224,37425,1,0,0:0:0:0:
8,72,37619,1,8,0:2:0:0:
40,56,37715,1,0,0:0:0:0:
76,52,37812,1,0,0:0:0:0:
112,56,37909,1,0,0:0:0:0:
148,68,38006,6,0,B|212:76|284:68|336:40|336:40|356:80|408:108,1,285,4|0,0:0|0:0,0:0:0:0:
504,144,38780,2,0,P|512:224|472:328,1,190,0|8,0:0|0:2,0:0:0:0:
344,332,39361,1,0,0:0:0:0:
248,248,39554,6,0,P|180:268|108:268,2,142.5
348,220,40328,1,0,0:0:0:0:
320,120,40522,1,0,0:0:0:0:
220,148,40715,1,8,0:2:0:0:
180,136,40812,1,0,0:0:0:0:
160,100,40909,1,0,0:0:0:0:
172,60,41006,1,0,0:0:0:0:
204,40,41103,6,0,L|304:52,1,95
424,28,41490,1,8,0:2:0:0:
496,136,41683,1,0,0:0:0:0:
476,168,41780,2,0,P|472:232|500:312,1,142.5
308,272,42264,2,0,P|323:226|324:179,1,95,8|0,0:2|0:0,0:0:0:0:
184,136,42651,6,0,P|155:173|117:202,1,95,0|0,0:0|0:0,0:0:0:0:
12,160,43038,1,8,0:2:0:0:
180,60,43232,1,0,0:0:0:0:
144,76,43328,2,0,P|84:72|12:36,1,142.5,0|0,0:0|0:0,0:0:0:0:
12,160,43812,5,8,0:2:0:0:
20,228,43909,1,0,0:0:0:0:
28,296,44006,1,0,0:0:0:0:
84,256,44103,1,0,0:0:0:0:
140,216,44199,6,0,P|184:228|240:236,1,95,4|0,0:0|0:0,0:0:0:0:
256,128,44586,2,0,P|304:116|356:100,1,95,8|0,0:2|0:0,0:0:0:0:
376,76,44877,1,0,0:0:0:0:
400,48,44974,2,0,P|420:92|440:152,1,95
464,160,45264,1,0,0:0:0:0:
492,184,45361,2,0,P|488:240|480:296,1,95,8|0,0:2|0:0,0:0:0:0:
324,360,45748,6,0,P|312:312|300:252,1,95,0|0,0:0|0:0,0:0:0:0:
296,228,46038,1,0,0:0:0:0:
288,188,46135,2,0,P|248:240|220:276,1,95,8|0,0:2|0:0,0:0:0:0:
204,296,46425,1,0,0:0:0:0:
180,324,46522,2,0,P|132:304|88:292,1,95
12,172,46909,6,0,P|8:195|3:218,1,47.5,8|0,0:2|0:0,0:0:0:0:
64,120,47103,2,0,P|76:144|84:184,1,47.5
64,48,47296,2,0,L|100:60,6,23.75,0|0|0|0|0|0|0,0:0|0:0|0:0|0:0|0:0|0:0|0:0,0:0:0:0:
124,68,47683,2,0,P|218:62|307:29,1,190,4|0,0:0|0:2,0:0:0:0:
400,104,48264,6,0,P|442:84|489:76,1,95,0|8,0:0|0:2,0:0:0:0:
292,152,48651,2,0,P|286:246|253:335,1,190,0|8,0:0|0:2,0:0:0:0:
252,335,49232,1,8,0:2:0:0:
252,335,49425,2,0,P|191:262|112:209,1,190,0|8,0:0|0:2,0:0:0:0:
113,209,50006,2,0,P|197:167|291:151,1,190,0|0,0:0|0:2,0:0:0:0:
292,152,50780,6,0,P|356:176|436:176,1,142.5,4|0,0:0|0:0,0:0:0:0:
492,140,51167,2,0,P|468:180|460:227,1,95,0|0,0:0|0:0,0:2:0:0:
488,328,51554,1,8,0:2:0:0:
312,332,51748,6,0,P|335:291|343:244,1,95,0|0,0:0|0:0,0:2:0:0:
292,152,52135,1,0,0:0:0:0:
392,52,52328,2,0,L|328:68,1,47.5,8|0,0:2|0:0,0:0:0:0:
292,152,52619,2,0,P|228:128|148:128,1,142.5
12,152,53103,1,8,0:2:0:0:
104,76,53296,1,0,0:2:0:0:
56,208,53490,6,0,P|64:260|52:308,2,95,0|0|8,0:0|0:0|0:2,0:0:0:0:
32,84,54070,2,0,L|228:116,1,190
388,80,54651,1,8,0:2:0:0:
248,200,54844,1,0,0:0:0:0:
296,72,55038,5,2,0:2:0:0:
308,108,55135,1,0,0:0:0:0:
320,144,55232,1,0,0:0:0:0:
332,180,55328,1,0,0:0:0:0:
344,216,55425,2,0,L|452:236,1,95,10|0,0:2|0:0,0:0:0:0:
248,200,55812,2,0,P|224:156|212:96,1,95,2|0,0:2|0:0,0:0:0:0:
280,284,56199,2,0,P|253:326|207:367,1,95,10|0,0:2|0:0,0:0:0:0:
40,368,56586,6,0,P|56:284|32:180,1,190,4|8,0:0|0:2,0:2:0:0:
0,56,57167,1,0,0:2:0:0:
36,64,57264,1,0,0:0:0:0:
72,72,57361,2,0,L|264:40,1,190,0|8,0:0|0:2,0:0:0:0:
388,136,57941,5,0,0:2:0:0:
380,100,58038,1,0,0:2:0:0:
396,68,58135,2,0,P|436:52|504:48,1,95
388,136,58522,2,0,P|424:165|452:204,1,95,8|0,0:2|0:0,0:0:0:0:
319,158,58909,2,0,P|311:204|292:248,1,95
260,120,59296,1,8,0:2:0:0:
221,135,59393,1,0,0:0:0:0:
181,142,59490,1,0,0:0:0:0:
139,141,59586,1,0,0:0:0:0:
99,132,59683,6,0,B|16:172|8:264|8:264|24:288,1,190,0|8,0:0|0:2,0:0:0:0:
252,248,60264,1,0,0:0:0:0:
220,272,60361,1,0,0:0:0:0:
180,281,60457,2,0,B|96:241|88:149|88:149|100:132,1,190,0|8,0:0|0:2,0:0:0:0:
180,64,61038,1,0,0:2:0:0:
272,140,61232,6,0,P|317:152|365:156,1,95,2|0,0:2|0:0,0:0:0:0:
416,244,61619,2,0,P|463:239|509:227,1,95,10|0,0:2|0:0,0:0:0:0:
380,64,62006,2,0,P|367:109|363:157,1,95,2|0,0:2|0:0,0:0:0:0:
276,208,62393,2,0,P|280:255|292:301,1,95,10|0,0:2|0:0,0:0:0:0:
332,360,62683,2,0,L|360:368,2,23.75,0|0|4,0:0|0:0|0:0,0:0:0:0:
96,312,63167,6,0,P|120:245|121:174,1,142.5,8|0,0:2|0:0,0:0:0:0:
96,108,63554,2,0,P|52:124|4:132,2,95,0|0|8,0:0|0:0|0:2,0:0:0:0:
216,56,64135,2,0,B|204:80|204:80|224:140|296:160|340:152,1,190
476,128,64715,1,8,0:2:0:0:
361,88,64909,5,0,0:0:0:0:
341,118,65006,1,0,0:0:0:0:
338,154,65103,1,2,0:2:0:0:
453,194,65296,1,0,0:0:0:0:
430,75,65490,1,10,0:2:0:0:
384,207,65683,1,0,0:0:0:0:
372,240,65780,2,0,L|388:288,1,47.5,0|4,0:0|0:0,0:0:0:0:
92,352,66264,6,0,P|124:288|120:208,1,142.5,8|0,0:2|0:0,0:0:0:0:
72,168,66651,2,0,P|60:120|64:68,2,95,0|0|8,0:0|0:0|0:2,0:0:0:0:
40,272,67232,2,0,L|232:224,1,190
344,200,67812,1,8,0:2:0:0:
476,128,68006,5,0,1:2:0:0:
440,120,68103,1,0,0:2:0:0:
404,112,68199,1,2,0:2:0:0:
344,200,68393,1,0,0:2:0:0:
300,64,68586,1,10,0:2:0:0:
264,216,68780,1,0,0:2:0:0:
172,128,68974,6,0,B|124:116|92:76|92:76|72:128|35:149,1,190,4|8,0:0|0:2,0:0:0:0:
68,312,69554,1,0,0:2:0:0:
100,296,69651,1,0,0:0:0:0:
120,260,69748,2,0,P|128:212|88:68,1,190,0|8,0:0|0:2,0:0:0:0:
300,64,70328,5,0,0:2:0:0:
268,80,70425,1,0,0:0:0:0:
248,116,70522,2,0,P|240:164|248:224,1,95,0|0,0:0|0:2,0:0:0:0:
452,224,70909,2,0,P|414:193|358:170,1,95,8|0,0:2|0:2,0:0:0:0:
256,346,71296,2,0,P|301:328|349:292,1,95,0|0,0:0|0:2,0:0:0:0:
407,145,71683,1,8,0:2:0:0:
365,148,71780,1,0,0:0:0:0:
324,145,71877,1,0,0:0:0:0:
285,134,71974,1,0,0:0:0:0:
248,116,72070,6,0,B|232:108|232:108|160:152|88:136|88:136|68:120,1,190,0|8,0:0|0:2,0:0:0:0:
24,276,72651,1,0,0:0:0:0:
60,256,72748,1,0,0:0:0:0:
100,264,72844,2,0,P|96:316|80:364,2,95,0|0|8,0:0|0:0|0:2,0:0:0:0:
72,124,73425,5,0,0:0:0:0:
56,88,73522,1,0,0:0:0:0:
72,52,73619,2,0,B|104:40|104:40|168:80|260:68,1,190,2|8,0:2|0:2,0:0:0:0:
368,88,74199,1,2,0:2:0:0:
408,80,74296,1,0,0:0:0:0:
448,72,74393,2,0,P|440:120|448:172,1,95
420,280,74780,2,0,P|456:310|500:328,2,95,10|0|4,0:2|0:0|0:0,0:0:0:0:
340,212,75361,5,0,0:0:0:0:
320,312,75554,1,8,0:2:0:0:
220,292,75748,2,0,B|160:344|76:348|76:348|44:332,1,190
16,216,76328,2,0,P|62:208|106:189,1,95,8|4,0:2|0:0,0:0:0:0:
108,188,77296,6,0,B|140:176|140:176|256:200,1,142.500005435944,2|0,0:0|0:0,0:0:0:0:
308,272,77877,2,0,P|346:267|384:256,1,71.2500027179719,2|0,0:0|0:0,0:0:0:0:
456,208,78264,5,2,0:0:0:0:
396,72,78457,1,0,0:0:0:0:
484,144,78651,1,0,0:0:0:0:
372,184,78844,2,0,P|304:176|224:152,1,142.500005435944,2|2,0:0|0:0,0:0:0:0:
152,104,79425,5,0,0:0:0:0:
48,220,79619,1,0,0:0:0:0:
144,228,79812,1,0,0:0:0:0:
13,132,80006,2,0,P|83:123|152:104,1,142.500005435944,2|2,0:0|0:0,0:0:0:0:
312,116,80586,2,0,P|380:96|450:87,1,142.500005435944,0|0,0:0|0:0,0:0:0:0:
200,268,81361,5,2,0:0:0:0:
180,136,81554,1,0,0:0:0:0:
312,116,81748,1,0,0:0:0:0:
332,248,81941,1,0,0:0:0:0:
188,232,82135,5,2,0:0:0:0:
216,124,82328,1,0,0:0:0:0:
324,152,82522,1,0,0:0:0:0:
296,260,82715,1,0,0:0:0:0:
218,218,82909,5,2,2:0:0:0:
251,145,83103,1,0,2:0:0:0:
297,210,83296,1,0,2:0:0:0:
