osu file format v14

[General]
AudioFilename: The Gensokyo the Gods Loved.mp3
AudioLeadIn: 0
PreviewTime: 3201
Countdown: 0
SampleSet: Normal
StackLeniency: 0.7
Mode: 0
LetterboxInBreaks: 0
WidescreenStoryboard: 0

[Editor]
Bookmarks: 76797
DistanceSpacing: 2
BeatDivisor: 4
GridSize: 4
TimelineZoom: 1

[Metadata]
Title:Utage
TitleUnicode:宴
Artist:Yuuhei Satellite
ArtistUnicode:幽閉サテライト
Creator:smsh150
Version:Normal
Source:東方Project
Tags:touhou project manpuku jinja fantasy kaleidoscope instrumental nitori kawashiro 河城 にとり mountain faith 神々が恋した幻想郷 The Gensokyo the Gods Loved
BeatmapID:569010
BeatmapSetID:246183

[Difficulty]
HPDrainRate:4
CircleSize:3.5
OverallDifficulty:4
ApproachRate:4
SliderMultiplier:1.2
SliderTickRate:2

[Events]
//Background and Video events
0,0,"bg.jpg",0,0
//Break Periods
2,73801,74681
//Storyboard Layer 0 (Background)
//Storyboard Layer 1 (Fail)
//Storyboard Layer 2 (Pass)
//Storyboard Layer 3 (Foreground)
//Storyboard Sound Samples

[TimingPoints]
3201,800,4,1,1,40,1,0
41601,-100,4,1,1,50,0,1
73601,-100,4,1,1,40,0,0
102401,-100,4,1,1,50,0,1
134401,-100,4,1,1,40,0,0
135801,-100,4,2,1,40,0,0
136201,-100,4,1,1,40,0,0
143801,-100,4,1,1,10,0,0

[Colours]
Combo1 : 255,192,0
Combo2 : 255,128,0
Combo3 : 255,176,138
Combo4 : 255,98,98

[HitObjects]
88,176,3201,6,0,P|72:240|112:304,1,120
188,288,4401,2,0,P|296:224|384:296,1,240,8|0,0:0|0:0,0:0:0:0:
424,360,6401,2,0,P|468:300|416:200,1,180,0|8,0:0|0:0,0:0:0:0:
360,156,8001,2,0,P|296:124|172:140,1,180
112,176,9601,5,0,0:0:0:0:
176,344,10401,1,0,0:0:0:0:
266,344,10801,1,8,0:0:0:0:
356,344,11201,2,0,B|444:344|443:253|444:188,1,180
438,121,12801,6,0,P|364:76|283:107,1,180,0|8,0:0|0:0,0:0:0:0:
356,160,14401,2,0,P|332:216|268:256,1,120
196,260,15601,1,0,0:0:0:0:
116,220,16001,6,0,P|80:164|84:52,1,180,0|8,0:0|0:0,0:0:0:0:
172,60,17601,2,0,L|232:112,1,60
307,99,18401,2,0,L|352:59,1,60
441,53,19201,6,0,P|450:141|408:219,1,180,0|8,0:0|0:0,0:0:0:0:
380,304,20801,1,0,0:0:0:0:
208,260,21601,6,0,L|152:286,1,60
169,374,22401,2,0,P|68:329|90:220,1,240
180,219,24401,1,0,0:0:0:0:
132,144,24801,1,0,0:0:0:0:
42,144,25201,1,0,0:0:0:0:
88,68,25601,1,0,0:0:0:0:
178,55,26001,1,0,0:0:0:0:
244,116,26401,6,0,L|284:184,1,60,0|8,0:0|0:0,0:0:0:0:
345,111,27201,2,0,L|381:171,1,60
384,252,28001,1,0,0:0:0:0:
296,252,28401,1,0,0:0:0:0:
220,208,28801,6,0,P|144:192|100:272,1,180,0|8,0:0|0:0,0:0:0:0:
168,328,30401,2,0,P|208:332|228:324,1,60
296,268,31201,1,0,0:0:0:0:
240,196,31601,1,0,0:0:0:0:
152,196,32001,2,0,P|136:140|164:84,1,120
248,80,33201,1,8,0:0:0:0:
336,100,33601,1,0,0:0:0:0:
256,260,34401,6,0,L|312:304,1,60
388,328,35201,2,0,P|429:250|400:168,1,180,0|8,0:0|0:0,0:0:0:0:
332,108,36801,1,0,0:0:0:0:
256,60,37201,1,0,0:0:0:0:
192,124,37601,1,0,0:0:0:0:
192,212,38001,1,0,0:0:0:0:
272,172,38401,2,0,P|280:212|268:256,1,60
208,288,39201,2,0,P|212:320|232:356,1,60,0|8,0:0|0:0,0:0:0:0:
313,344,40001,1,0,0:0:0:0:
104,224,40801,6,0,L|64:156,1,60,0|0,0:0|0:0,0:0:0:0:
60,84,41601,2,0,B|100:40|100:40|184:40,1,120
200,120,42801,1,8,0:0:0:0:
260,52,43201,2,0,P|290:106|270:175,1,120
208,217,44401,1,0,0:0:0:0:
292,248,44801,6,0,P|352:256|412:236,1,120
420,148,46001,1,8,0:0:0:0:
340,112,46401,1,0,0:0:0:0:
424,272,47201,6,0,L|364:308,1,60
288,332,48001,1,0,0:0:0:0:
236,256,48401,1,0,0:0:0:0:
184,332,48801,1,0,0:0:0:0:
128,256,49201,1,8,0:0:0:0:
64,192,49601,2,0,L|120:132,1,60,0|0,0:0|0:0,0:0:0:0:
36,88,50401,2,0,L|84:36,1,60
168,52,51201,6,0,L|232:104,1,60
300,60,52001,2,0,L|312:138,1,60,0|8,0:0|0:0,0:0:0:0:
392,156,52801,2,0,L|378:234,1,60
464,252,53601,1,0,0:0:0:0:
416,328,54001,1,0,0:0:0:0:
324,332,54401,6,0,P|284:280|272:212,1,120
252,140,55601,1,8,0:0:0:0:
180,192,56001,2,0,L|196:264,1,60
284,240,56801,1,0,0:0:0:0:
352,180,57201,1,0,0:0:0:0:
317,94,57601,2,0,P|237:62|166:113,1,180,0|8,0:0|0:0,0:0:0:0:
248,152,59201,1,0,0:0:0:0:
68,176,60001,6,0,L|68:252,1,60,0|0,0:0|0:0,0:0:0:0:
156,224,60801,1,0,0:0:0:0:
240,256,61201,1,0,0:0:0:0:
268,172,61601,1,0,0:0:0:0:
241,85,62001,2,0,P|271:80|300:88,1,60,8|0,0:0|0:0,0:0:0:0:
384,120,62801,1,0,0:0:0:0:
340,196,63201,1,0,0:0:0:0:
428,208,63601,2,0,L|388:280,1,60
344,332,64401,1,0,0:0:0:0:
268,284,64801,6,0,L|196:240,1,60,0|8,0:0|0:0,0:0:0:0:
144,200,65601,1,0,0:0:0:0:
60,360,66401,6,0,P|44:304|52:232,1,120
100,168,67601,1,0,0:0:0:0:
176,216,68001,1,0,0:0:0:0:
176,216,68401,2,0,L|204:164,1,60,8|0,0:0|0:0,0:0:0:0:
280,116,69201,1,0,0:0:0:0:
280,116,69601,2,0,L|328:184,1,60
356,244,70401,6,0,L|296:296,1,60
201,283,71201,2,0,L|156:244,1,60,0|8,0:0|0:0,0:0:0:0:
156,140,72001,2,0,L|216:88,1,60
310,100,72801,2,0,L|356:140,1,60
256,192,73601,1,2,0:0:0:0:
140,260,76001,5,0,0:0:0:0:
100,180,76401,1,0,0:0:0:0:
180,140,76801,2,0,L|212:208,1,60
244,276,77601,1,0,0:0:0:0:
316,220,78001,1,8,0:0:0:0:
272,140,78401,2,0,L|312:68,1,60,2|0,0:0|0:0,0:0:0:0:
392,88,79201,2,0,L|424:144,1,60
424,228,80001,6,0,P|416:284|356:320,1,120
336,232,81201,1,8,0:0:0:0:
256,188,81601,1,2,0:0:0:0:
88,156,82401,6,0,P|112:108|136:104,1,60
164,32,83201,2,0,P|200:80|200:128,2,90,0|0|8,0:0|0:0|0:0,0:0:0:0:
116,108,84801,1,2,0:0:0:0:
160,188,85201,1,0,0:0:0:0:
248,188,85601,2,0,L|288:236,2,60,0|0|0,0:0|0:0|0:0,0:0:0:0:
304,116,86801,1,0,0:0:0:0:
392,128,87201,2,0,L|392:192,1,60,0|8,0:0|0:0,0:0:0:0:
344,264,88001,2,0,L|296:328,1,60,2|0,0:0|0:0,0:0:0:0:
228,276,88801,1,0,0:0:0:0:
152,228,89201,1,0,0:0:0:0:
84,168,89601,6,0,P|132:116|184:116,1,120
260,148,90801,1,8,0:0:0:0:
260,60,91201,1,2,0:0:0:0:
348,44,91601,2,0,L|388:112,1,60
368,184,92401,2,0,L|332:260,1,60
252,240,93201,1,0,0:0:0:0:
164,260,93601,2,0,L|164:324,1,60,0|8,0:0|0:0,0:0:0:0:
252,328,94401,1,2,0:0:0:0:
416,128,95201,5,0,0:0:0:0:
328,112,95601,1,0,0:0:0:0:
328,202,96001,2,0,P|251:162|245:76,1,180,0|8,0:0|0:0,0:0:0:0:
160,48,97601,6,0,P|144:76|112:100,1,60,2|0,0:0|0:0,0:0:0:0:
76,168,98401,2,0,P|81:197|93:224,1,60
168,172,99201,1,0,0:0:0:0:
168,262,99601,1,0,0:0:0:0:
258,262,100001,1,0,0:0:0:0:
321,325,100401,1,8,0:0:0:0:
411,325,100801,1,2,0:0:0:0:
288,96,101601,6,0,P|364:144|376:180,1,120
284,188,102801,1,0,0:0:0:0:
332,264,103201,2,0,P|400:308|408:336,2,60,0|8|0,0:0|0:0|0:0,0:0:0:0:
244,263,104401,2,0,P|222:284|194:296,2,60,0|0|0,0:0|0:0|0:0,0:0:0:0:
172,212,105601,2,0,P|119:164|140:93,1,120
188,60,106801,1,8,0:0:0:0:
276,40,107201,1,2,0:0:0:0:
124,136,108001,5,0,0:0:0:0:
180,208,108401,1,0,0:0:0:0:
115,271,108801,2,0,P|225:287|268:184,1,240,0|2,0:0|0:0,0:0:0:0:
212,112,110801,1,0,0:0:0:0:
296,76,111201,1,0,0:0:0:0:
352,144,111601,1,0,0:0:0:0:
352,232,112001,6,0,P|324:284|264:316,1,120,0|0,0:0|0:0,0:0:0:0:
184,320,113201,1,8,0:0:0:0:
184,232,113601,2,0,P|160:176|88:156,1,120,2|0,0:0|0:0,0:0:0:0:
112,64,114801,1,0,0:0:0:0:
200,76,115201,6,0,P|288:96|376:76,1,180,0|8,0:0|0:0,0:0:0:0:
416,156,116801,1,2,0:0:0:0:
328,179,117201,2,0,P|300:191|279:212,1,60
355,264,118001,2,0,P|385:265|411:280,1,60
360,356,118801,5,0,0:0:0:0:
276,320,119201,2,0,L|240:256,1,60,0|8,0:0|0:0,0:0:0:0:
246,177,120001,1,2,0:0:0:0:
96,320,120801,6,0,L|96:236,1,60
184,260,121601,2,0,B|184:181|184:181|128:172|108:105,1,180,0|8,0:0|0:0,0:0:0:0:
196,92,123201,2,0,B|312:40|312:204|452:88,1,240,2|0,0:0|0:0,0:0:0:0:
419,202,125201,1,0,0:0:0:0:
328,212,125601,2,0,L|260:276,1,60,0|8,0:0|0:0,0:0:0:0:
216,312,126401,1,2,0:0:0:0:
104,176,127201,5,0,0:0:0:0:
168,112,127601,1,0,0:0:0:0:
200,194,128001,2,0,P|247:160|256:102,2,120,0|0|2,0:0|0:0|0:0,0:0:0:0:
112,200,130001,1,0,0:0:0:0:
140,284,130401,2,0,L|140:348,1,60,0|0,0:0|0:0,0:0:0:0:
232,344,131201,6,0,L|328:344,1,60
372,300,132001,2,0,L|392:228,1,60,0|8,0:0|0:0,0:0:0:0:
300,220,132801,2,0,L|280:148,1,60
360,112,133601,2,0,L|343:54,1,60
254,48,134401,6,0,P|126:192|254:336,1,420
256,192,137601,12,2,144001,0:0:0:0:
