osu file format v14

[General]
AudioFilename: The Gensokyo the Gods Loved.mp3
AudioLeadIn: 0
PreviewTime: 3201
Countdown: 0
SampleSet: Normal
StackLeniency: 0.7
Mode: 0
LetterboxInBreaks: 0
WidescreenStoryboard: 0

[Editor]
Bookmarks: 76797
DistanceSpacing: 2
BeatDivisor: 4
GridSize: 4
TimelineZoom: 1

[Metadata]
Title:Utage
TitleUnicode:宴
Artist:Yuuhei Satellite
ArtistUnicode:幽閉サテライト
Creator:smsh150
Version:Easy
Source:東方Project
Tags:touhou project manpuku jinja fantasy kaleidoscope instrumental nitori kawashiro 河城 にとり mountain faith 神々が恋した幻想郷 The Gensokyo the Gods Loved
BeatmapID:567804
BeatmapSetID:246183

[Difficulty]
HPDrainRate:2
CircleSize:2.5
OverallDifficulty:2
ApproachRate:1.5
SliderMultiplier:1
SliderTickRate:2

[Events]
//Background and Video events
0,0,"bg.jpg",0,0
//Break Periods
//Storyboard Layer 0 (Background)
//Storyboard Layer 1 (Fail)
//Storyboard Layer 2 (Pass)
//Storyboard Layer 3 (Foreground)
//Storyboard Sound Samples

[TimingPoints]
3201,800,4,1,1,40,1,0
41601,-100,4,1,1,50,0,1
73601,-100,4,1,1,40,0,0
102401,-100,4,1,1,50,0,1
134401,-100,4,1,1,40,0,0
135801,-100,4,2,1,40,0,0
136201,-100,4,1,1,40,0,0
143801,-100,4,1,1,10,0,0

[Colours]
Combo1 : 255,192,0
Combo2 : 255,128,0
Combo3 : 255,176,138
Combo4 : 255,98,98

[HitObjects]
152,192,3201,6,0,P|80:140|80:64,2,150,0|8|0,0:0|0:0|0:0,0:0:0:0:
236,176,6001,1,0,0:0:0:0:
231,91,6401,2,0,P|298:119|320:189,1,150,0|8,0:0|0:0,0:0:0:0:
403,167,8001,2,0,P|372:256|277:263,1,200
136,252,10801,5,8,0:0:0:0:
92,324,11201,2,0,P|52:256|84:184,1,150
136,252,12801,2,0,P|148:156|100:112,1,150,0|8,0:0|0:0,0:0:0:0:
160,48,14401,1,0,0:0:0:0:
320,100,15201,2,0,L|352:140,1,50
419,87,16001,6,0,P|425:182|341:224,1,200
304,300,18001,1,0,0:0:0:0:
224,332,18401,2,0,P|172:312|140:272,1,100
416,76,20801,6,0,P|348:44|316:40,1,100
239,45,22001,1,0,0:0:0:0:
272,124,22401,2,0,P|259:198|201:279,1,150,0|8,0:0|0:0,0:0:0:0:
136,264,24001,2,0,B|88:236|88:236|88:132,1,150
164,104,25601,1,0,0:0:0:0:
196,184,26001,2,0,L|236:236,1,50
283,288,26801,2,0,L|352:300,1,50,8|0,0:0|0:0,0:0:0:0:
411,327,27601,6,0,P|416:302|414:277,1,50
358,215,28401,1,0,0:0:0:0:
332,296,28801,2,0,P|220:344|104:296,1,250
76,220,31201,1,0,0:0:0:0:
156,188,31601,1,0,0:0:0:0:
239,175,32001,2,0,P|179:104|90:134,1,200
96,296,34401,6,0,P|136:312|160:312,1,50
228,320,35201,2,0,P|328:319|424:268,1,200
445,195,37201,1,0,0:0:0:0:
420,113,37601,2,0,P|392:71|347:52,1,100
264,52,38801,1,0,0:0:0:0:
179,52,39201,2,0,P|133:71|106:112,1,100
135,280,40801,6,0,P|176:308|225:320,1,100
248,152,42401,1,0,0:0:0:0:
396,68,43201,2,0,P|425:107|438:156,1,100
366,200,44401,1,0,0:0:0:0:
284,180,44801,2,0,P|252:232|172:272,1,150,0|8,0:0|0:0,0:0:0:0:
88,272,46401,1,0,0:0:0:0:
96,104,47201,6,0,P|140:68|216:68,1,100
348,100,48801,1,0,0:0:0:0:
215,207,49601,2,0,P|195:251|215:299,1,100
292,328,50801,1,0,0:0:0:0:
372,300,51201,2,0,P|408:212|352:128,1,200,0|0,0:0|0:0,0:0:0:0:
284,84,53201,2,0,P|236:60|152:60,1,100
111,92,54401,6,0,P|95:164|109:237,1,150,0|8,0:0|0:0,0:0:0:0:
56,303,56001,1,0,0:0:0:0:
136,332,56401,2,0,B|224:308|208:196,1,150
352,124,58401,2,0,P|384:184|384:236,1,100
260,328,60001,2,0,P|188:328|156:316,1,100
124,152,61601,6,0,L|176:64,1,100
344,72,63201,2,0,L|294:159,1,100
424,268,64801,2,0,P|368:292|300:292,1,100
180,216,66401,6,0,L|100:116,1,100
256,40,68001,2,0,P|284:40|320:48,1,50,0|8,0:0|0:0,0:0:0:0:
384,76,68801,2,0,P|425:113|425:177,1,100
432,240,70001,1,0,0:0:0:0:
376,304,70401,2,0,P|264:351|132:244,1,300
134,166,73201,2,0,L|134:94,1,50,0|2,0:0|0:0,0:0:0:0:
376,224,76001,6,0,P|356:176|292:144,1,100,0|0,0:0|0:0,0:0:0:0:
160,88,77601,1,0,0:0:0:0:
84,240,78401,2,0,P|140:264|244:268,1,150,2|0,0:0|0:0,0:0:0:0:
284,334,80001,2,0,P|310:244|237:186,1,200,0|2,0:0|0:0,0:0:0:0:
88,108,82401,6,0,P|160:92|212:92,1,100
356,92,84001,1,0,0:0:0:0:
308,256,84801,2,0,L|216:312,1,100,2|0,0:0|0:0,0:0:0:0:
137,307,86001,1,0,0:0:0:0:
52,304,86401,2,0,P|28:197|28:100,1,200,0|2,0:0|0:0,0:0:0:0:
80,40,88401,2,0,P|100:54|108:77,1,50
116,164,89201,1,0,0:0:0:0:
192,200,89601,6,0,P|192:276|324:364,1,200,0|2,0:0|0:0,0:0:0:0:
360,352,91601,1,0,0:0:0:0:
428,304,92001,1,0,0:0:0:0:
456,224,92401,2,0,L|416:184,1,50
284,86,93601,2,0,P|236:74|184:88,1,100,0|2,0:0|0:0,0:0:0:0:
104,232,95201,1,0,0:0:0:0:
100,316,95601,1,0,0:0:0:0:
176,276,96001,6,0,P|265:304|323:230,1,200,0|2,0:0|0:0,0:0:0:0:
240,220,98001,1,0,0:0:0:0:
168,176,98401,2,0,P|152:116|176:52,1,100
328,72,100001,1,0,0:0:0:0:
372,236,100801,1,2,0:0:0:0:
212,288,101601,6,0,L|132:252,1,50
88,232,102401,1,0,0:0:0:0:
192,100,103201,1,0,0:0:0:0:
360,72,104001,2,0,P|352:148|380:200,1,100,2|0,0:0|0:0,0:0:0:0:
440,196,105201,1,0,0:0:0:0:
464,276,105601,2,0,P|372:328|280:328,1,200,0|2,0:0|0:0,0:0:0:0:
128,260,108001,6,0,P|120:196|136:132,1,100
264,64,109601,1,0,0:0:0:0:
255,231,110401,2,0,P|305:228|342:196,1,100,2|0,0:0|0:0,0:0:0:0:
272,148,111601,1,0,0:0:0:0:
232,72,112001,2,0,B|184:96|168:160|168:296,1,200,0|2,0:0|0:0,0:0:0:0:
332,304,114401,1,0,0:0:0:0:
416,156,115201,6,0,P|384:112|272:88,1,150,0|8,0:0|0:0,0:0:0:0:
210,83,116801,1,2,0:0:0:0:
48,132,117601,1,0,0:0:0:0:
196,216,118401,2,0,P|226:306|320:320,1,200,0|2,0:0|0:0,0:0:0:0:
480,264,120801,1,0,0:0:0:0:
420,104,121601,6,0,P|352:120|292:252,1,200,0|2,0:0|0:0,0:0:0:0:
140,312,124001,1,0,0:0:0:0:
124,140,124801,2,0,P|212:132|252:12,1,200,0|2,0:0|0:0,0:0:0:0:
252,208,127201,1,0,0:0:0:0:
84,212,128001,6,0,P|128:304|256:328,1,200,0|2,0:0|0:0,0:0:0:0:
312,196,130401,1,0,0:0:0:0:
416,60,131201,2,0,P|456:176|432:268,1,200,0|2,0:0|0:0,0:0:0:0:
384,312,133201,2,0,P|348:336|276:320,1,100
212,304,134401,6,0,P|112:177|215:52,1,350
256,192,137601,12,2,144001,0:0:0:0:
