osu file format v14

[General]
AudioFilename: The Gensokyo the Gods Loved.mp3
AudioLeadIn: 0
PreviewTime: 3201
Countdown: 0
SampleSet: Normal
StackLeniency: 0.7
Mode: 0
LetterboxInBreaks: 0
WidescreenStoryboard: 0

[Editor]
Bookmarks: 76797
DistanceSpacing: 2
BeatDivisor: 4
GridSize: 4
TimelineZoom: 0.8

[Metadata]
Title:Utage
TitleUnicode:宴
Artist:Yuuhei Satellite
ArtistUnicode:幽閉サテライト
Creator:smsh150
Version:Hard
Source:東方Project
Tags:touhou project manpuku jinja fantasy kaleidoscope instrumental nitori kawashiro 河城 にとり mountain faith 神々が恋した幻想郷 The Gensokyo the Gods Loved
BeatmapID:567140
BeatmapSetID:246183

[Difficulty]
HPDrainRate:6
CircleSize:4.5
OverallDifficulty:6
ApproachRate:7
SliderMultiplier:1.5
SliderTickRate:2

[Events]
//Background and Video events
0,0,"bg.jpg",0,0
//Break Periods
//Storyboard Layer 0 (Background)
//Storyboard Layer 1 (Fail)
//Storyboard Layer 2 (Pass)
//Storyboard Layer 3 (Foreground)
//Storyboard Sound Samples

[TimingPoints]
3201,800,4,1,1,40,1,0
41601,-100,4,1,1,50,0,1
73601,-100,4,1,1,40,0,0
102401,-100,4,1,1,50,0,1
134401,-100,4,1,1,40,0,0
143801,-100,4,1,1,10,0,0

[Colours]
Combo1 : 255,192,0
Combo2 : 255,128,0
Combo3 : 255,176,138
Combo4 : 255,98,98

[HitObjects]
128,80,3201,6,0,P|84:128|84:160,1,75
76,192,3801,1,0,0:0:0:0:
124,308,4201,1,0,0:0:0:0:
164,348,4401,1,8,0:0:0:0:
236,224,4801,2,0,P|267:243|287:274,1,75
296,332,5401,1,0,0:0:0:0:
412,344,5801,1,0,0:0:0:0:
428,292,6001,2,0,P|431:219|422:196,1,75,0|0,0:0|0:0,0:0:0:0:
344,96,6801,5,0,0:0:0:0:
300,60,7001,1,0,0:0:0:0:
187,60,7401,1,0,0:0:0:0:
147,99,7601,2,0,P|180:151|208:171,1,75,8|0,0:0|0:0,0:0:0:0:
336,192,8401,1,0,0:0:0:0:
316,245,8601,1,0,0:0:0:0:
204,244,9001,1,0,0:0:0:0:
176,192,9201,1,0,0:0:0:0:
79,136,9601,6,0,P|56:238|148:289,1,225,0|8,0:0|0:0,0:0:0:0:
136,204,11201,2,0,P|200:148|344:140,1,225
380,68,12801,6,0,P|413:166|324:219,1,225,0|8,0:0|0:0,0:0:0:0:
332,324,14401,2,0,B|272:336|271:280|208:296,1,112.5
171,293,15201,1,0,0:0:0:0:
84,224,15601,1,0,0:0:0:0:
172,156,16001,6,0,P|228:76|264:64,1,112.5
388,52,17001,1,0,0:0:0:0:
388,108,17201,1,8,0:0:0:0:
344,252,17601,1,0,0:0:0:0:
168,252,18001,1,0,0:0:0:0:
256,116,18401,1,0,0:0:0:0:
384,192,18801,1,0,0:0:0:0:
320,328,19201,6,0,B|320:216|188:268|188:136,1,225,0|8,0:0|0:0,0:0:0:0:
339,160,20801,1,0,0:0:0:0:
72,192,21601,5,0,0:0:0:0:
144,88,22001,1,0,0:0:0:0:
271,88,22401,1,0,0:0:0:0:
270,214,22801,2,0,P|299:238|311:273,1,75
236,281,23401,2,0,L|192:309,1,37.5,0|8,0:0|0:0,0:0:0:0:
404,212,24001,6,0,P|408:280|400:300,1,75
292,288,24801,2,0,P|240:308|224:332,1,75
86,278,25601,1,0,0:0:0:0:
92,128,26001,1,0,0:0:0:0:
221,204,26401,1,0,0:0:0:0:
92,128,26801,1,8,0:0:0:0:
175,52,27201,2,0,P|204:27|240:20,1,75
256,132,28001,1,0,0:0:0:0:
352,74,28401,1,0,0:0:0:0:
356,224,28801,6,0,B|256:192|256:344|128:264,1,225,0|8,0:0|0:0,0:0:0:0:
55,331,30401,2,0,P|42:297|45:260,1,75
124,180,31201,1,0,0:0:0:0:
219,84,31601,1,0,0:0:0:0:
112,196,32001,5,0,0:0:0:0:
212,284,32401,2,0,P|252:256|252:220,1,75
255,157,33001,2,0,L|323:157,1,37.5,0|8,0:0|0:0,0:0:0:0:
416,300,33601,1,0,0:0:0:0:
468,80,34401,2,0,L|384:56,1,75
292,32,35201,6,0,B|252:152|376:152|366:189|368:240,1,225,0|8,0:0|0:0,0:0:0:0:
280,296,36801,2,0,P|262:263|256:227,1,75
340,100,37601,2,0,P|357:152|355:188,1,75
236,332,38401,6,0,P|216:264|140:240,1,150
64,164,39601,1,8,0:0:0:0:
136,31,40001,2,0,P|159:100|229:116,1,150
348,124,41201,1,0,0:0:0:0:
212,192,41601,6,0,P|229:225|258:247,1,75
348,124,42401,2,0,L|388:96,1,37.5
440,60,42801,1,8,0:0:0:0:
440,210,43201,2,0,L|360:264,1,75
268,232,44001,1,0,0:0:0:0:
212,132,44401,1,0,0:0:0:0:
126,60,44801,6,0,P|75:112|72:136,1,75
48,220,45601,2,0,L|48:264,1,37.5
108,344,46001,1,8,0:0:0:0:
216,293,46401,1,0,0:0:0:0:
266,184,46801,1,0,0:0:0:0:
79,60,47201,2,0,L|133:133,1,75
155,162,47801,1,0,0:0:0:0:
198,192,48001,5,0,0:0:0:0:
412,62,48401,1,0,0:0:0:0:
456,176,48801,2,0,L|404:200,1,37.5,0|0,0:0|0:0,0:0:0:0:
372,216,49201,1,8,0:0:0:0:
260,316,49601,1,0,0:0:0:0:
220,172,50001,2,0,L|152:112,1,75
352,296,50801,2,0,L|444:296,1,75
212,300,51601,6,0,L|212:356,1,37.5
148,240,52001,2,0,L|148:184,1,37.5
148,148,52401,1,8,0:0:0:0:
236,44,52801,1,0,0:0:0:0:
228,180,53201,2,0,L|296:256,1,75
384,342,54001,2,0,L|440:278,1,75
433,135,54801,5,0,0:0:0:0:
288,56,55201,2,0,L|224:124,1,75,0|8,0:0|0:0,0:0:0:0:
339,252,56001,2,0,P|304:263|268:256,1,75
224,224,56601,1,0,0:0:0:0:
180,188,56801,1,0,0:0:0:0:
140,152,57001,2,0,L|104:204,1,37.5
80,296,57601,5,0,0:0:0:0:
180,344,58001,1,0,0:0:0:0:
280,292,58401,1,0,0:0:0:0:
376,352,58801,1,8,0:0:0:0:
371,191,59201,2,0,P|425:240|440:313,1,150
332,292,60401,1,0,0:0:0:0:
332,112,60801,6,0,P|264:140|252:224,1,150
150,152,62001,1,8,0:0:0:0:
80,240,62401,2,0,P|116:324|188:336,1,150
188,228,63601,1,0,0:0:0:0:
312,176,64001,6,0,L|384:120,1,75
120,128,64801,2,0,L|120:36,1,75,0|8,0:0|0:0,0:0:0:0:
188,228,65601,1,0,0:0:0:0:
64,312,66401,5,0,0:0:0:0:
132,232,66801,1,0,0:0:0:0:
60,156,67201,2,0,P|60:76|140:60,1,150
256,116,68401,1,8,0:0:0:0:
395,52,68801,2,0,P|458:85|452:156,1,150
256,192,70001,1,0,0:0:0:0:
106,192,70401,5,0,0:0:0:0:
180,324,70801,1,0,0:0:0:0:
256,192,71201,1,0,0:0:0:0:
332,324,71601,1,8,0:0:0:0:
406,192,72001,1,0,0:0:0:0:
332,60,72401,1,0,0:0:0:0:
256,192,72801,1,0,0:0:0:0:
180,60,73201,1,8,0:0:0:0:
106,192,73601,1,2,0:0:0:0:
256,192,74001,12,0,75601,0:0:0:0:
120,164,76001,6,0,P|160:124|208:124,1,75
284,84,76801,6,0,P|320:140|328:196,1,112.5
268,228,77601,2,0,L|228:252,1,37.5
172,288,78001,1,8,0:0:0:0:
64,232,78401,1,2,0:0:0:0:
156,152,78801,2,0,P|200:128|240:128,1,75
314,246,79601,1,0,0:0:0:0:
396,120,80001,6,0,P|352:84|292:64,1,112.5
224,56,80801,2,0,L|188:96,1,37.5
124,92,81201,1,8,0:0:0:0:
136,240,81601,2,0,P|204:268|248:264,1,112.5
315,246,82401,2,0,L|315:186,1,37.5
315,133,82801,1,0,0:0:0:0:
444,72,83201,5,0,0:0:0:0:
445,198,83601,2,0,L|452:236,1,37.5
451,309,84001,1,0,0:0:0:0:
376,309,84201,2,0,L|335:269,1,37.5,0|8,0:0|0:0,0:0:0:0:
256,80,84801,1,2,0:0:0:0:
144,220,85201,2,0,L|144:136,1,75
52,220,86001,2,0,L|52:296,1,75
156,336,86801,5,0,0:0:0:0:
268,340,87201,1,0,0:0:0:0:
344,252,87601,2,0,L|400:192,1,75,8|2,0:0|0:0,0:0:0:0:
256,36,88401,1,0,0:0:0:0:
312,136,88801,1,0,0:0:0:0:
256,244,89201,1,0,0:0:0:0:
256,244,89601,6,0,L|164:200,1,75
124,120,90201,2,0,L|96:164,1,37.5
104,228,90601,1,0,0:0:0:0:
155,285,90801,2,0,L|195:285,1,37.5,8|0,0:0|0:0,0:0:0:0:
256,244,91201,1,2,0:0:0:0:
448,72,91601,1,0,0:0:0:0:
304,72,92001,2,0,L|304:160,1,75
452,192,92801,6,0,P|432:240|340:296,1,150
164,312,94001,2,0,L|212:276,1,37.5,8|0,0:0|0:0,0:0:0:0:
256,244,94401,1,2,0:0:0:0:
124,84,95201,2,0,L|108:136,1,37.5
84,192,95601,1,0,0:0:0:0:
92,304,96001,6,0,P|179:367|281:330,1,225,0|8,0:0|0:0,0:0:0:0:
206,180,97601,1,0,0:0:0:0:
206,29,98001,1,0,0:0:0:0:
324,123,98401,1,0,0:0:0:0:
436,48,98801,1,0,0:0:0:0:
324,123,99201,5,0,0:0:0:0:
431,229,99601,1,0,0:0:0:0:
324,123,100001,1,0,0:0:0:0:
217,230,100401,1,8,0:0:0:0:
206,29,100801,1,2,0:0:0:0:
60,264,101601,2,0,P|92:316|132:328,1,75
236,256,102401,5,0,0:0:0:0:
128,152,102801,2,0,L|152:112,1,37.5
231,90,103201,2,0,L|248:124,1,37.5
160,36,103601,1,8,0:0:0:0:
336,184,104001,2,0,P|392:160|404:132,2,75,0|0|0,0:0|0:0|0:0,0:0:0:0:
308,292,105201,1,0,0:0:0:0:
256,192,105601,6,0,P|176:208|164:228,1,75
143,259,106201,2,0,P|128:250|120:233,2,37.5
204,304,106801,2,0,L|252:332,1,37.5,8|0,0:0|0:0,0:0:0:0:
304,360,107201,1,2,0:0:0:0:
352,68,108001,2,0,L|352:128,1,37.5
324,176,108401,1,0,0:0:0:0:
236,276,108801,5,0,0:0:0:0:
104,248,109201,2,0,L|76:224,1,37.5,0|0,0:0|0:0,0:0:0:0:
75,148,109601,1,0,0:0:0:0:
216,148,110001,2,0,L|248:116,1,37.5,8|0,0:0|0:0,0:0:0:0:
242,46,110401,1,2,0:0:0:0:
92,64,110801,1,0,0:0:0:0:
216,148,111201,1,0,0:0:0:0:
76,224,111601,1,0,0:0:0:0:
216,148,112001,6,0,P|268:164|284:268,1,150
412,332,113201,2,0,L|412:272,1,37.5,8|0,0:0|0:0,0:0:0:0:
412,237,113601,1,2,0:0:0:0:
412,124,114001,2,0,P|360:104|348:80,1,75
144,44,114801,2,0,P|196:64|208:88,1,75
88,252,115601,6,0,L|144:208,1,37.5
188,200,116001,1,0,0:0:0:0:
444,240,116401,1,8,0:0:0:0:
340,336,116801,1,2,0:0:0:0:
194,331,117201,2,0,L|130:243,1,75
40,240,118001,2,0,L|120:184,1,75
105,84,118801,5,0,0:0:0:0:
224,32,119201,1,0,0:0:0:0:
351,32,119601,1,8,0:0:0:0:
351,159,120001,1,2,0:0:0:0:
168,296,120801,2,0,P|220:264|260:268,1,75
404,208,121601,6,0,B|312:240|312:240|272:184|232:184|184:200,1,225,0|8,0:0|0:0,0:0:0:0:
172,328,123201,2,0,B|192:248|100:236|100:236|137:157,1,225,2|0,0:0|0:0,0:0:0:0:
348,84,124801,5,0,0:0:0:0:
137,157,125201,1,0,0:0:0:0:
304,304,125601,1,0,0:0:0:0:
348,84,126001,1,8,0:0:0:0:
216,224,126401,1,2,0:0:0:0:
92,128,126801,2,0,P|112:88|144:68,1,75
188,44,127401,2,0,P|216:36|240:36,1,37.5
460,192,128001,6,0,P|392:176|308:192,1,150
132,228,129201,1,8,0:0:0:0:
55,327,129601,2,0,P|128:344|202:330,1,150,2|0,0:0|0:0,0:0:0:0:
340,268,130801,1,0,0:0:0:0:
212,192,131201,5,0,0:0:0:0:
384,104,131601,1,0,0:0:0:0:
128,104,132001,1,0,0:0:0:0:
128,256,132401,1,0,0:0:0:0:
384,256,132801,1,2,0:0:0:0:
128,256,133201,1,0,0:0:0:0:
128,104,133601,1,0,0:0:0:0:
384,104,134001,1,0,0:0:0:0:
384,256,134401,6,0,P|332:304|296:308,1,75
254,304,135001,1,0,0:0:0:0:
96,204,135401,2,0,L|128:148,1,37.5,0|8,0:0|0:0,0:0:0:0:
228,76,136001,1,0,0:0:0:0:
381,56,136401,2,0,L|381:116,1,37.5
284,208,137001,2,0,L|256:256,1,37.5
256,192,137601,12,0,144001,0:0:0:0:
