osu file format v14

[General]
AudioFilename: Yuudachi, Kimi to Kakureka .mp3
AudioLeadIn: 0
PreviewTime: 132182
Countdown: 0
SampleSet: Soft
StackLeniency: 0.7
Mode: 0
LetterboxInBreaks: 0
WidescreenStoryboard: 0

[Editor]
Bookmarks: 13771
DistanceSpacing: 0.9
BeatDivisor: 4
GridSize: 4
TimelineZoom: 1

[Metadata]
Title:Yuudachi, Kimi to Kakurega
TitleUnicode:夕立、君と隠れ処
Artist:Yuuhei Satellite (Arranged: Iceon) feat. senya
ArtistUnicode:幽閉サテライト (Arranged: Iceon) feat. senya
Creator:Dailycare
Version:Normal
Source:東方Project
Tags:Patchouli Knowledge パチュリー・ノーレッジ Iceon kamase-tora かませ虎 Touhou 魔法少女達の百年祭 The Centennial Festival for Magical Girls 東方紅魔郷 Embodiment of Scarlet Devil extra stage theme 上海アリス幻樂団 ZUN 例大祭 Reitaisai SDVX SOUND VOLTEX II -infinite infection- ULTIMATE TRACKS -東方紅魔郷REMIX-
BeatmapID:980102
BeatmapSetID:455092

[Difficulty]
HPDrainRate:3
CircleSize:3.3
OverallDifficulty:4
ApproachRate:4.5
SliderMultiplier:1.2
SliderTickRate:1

[Events]
//Background and Video events
0,0,"d.jpg",0,0
//Break Periods
2,79671,91011
2,196471,198611
//Storyboard Layer 0 (Background)
//Storyboard Layer 1 (Fail)
//Storyboard Layer 2 (Pass)
//Storyboard Layer 3 (Foreground)
//Storyboard Sound Samples

[TimingPoints]
1071,400,4,2,1,70,1,0
23471,-100,4,2,1,85,0,0
26671,-100,4,2,1,70,0,0
36271,-100,4,2,1,85,0,0
39471,-100,4,2,2,70,0,0
53871,-100,4,2,1,70,0,1
56271,-100,4,2,2,70,0,1
57071,-100,4,2,1,70,0,1
60271,-100,4,2,2,70,0,1
66671,-100,4,2,1,70,0,1
69071,-100,4,2,2,70,0,1
69871,-100,4,2,1,70,0,1
73071,-100,4,2,2,70,0,1
79471,-100,4,2,1,50,0,0
92271,-100,4,2,1,70,0,0
101871,-100,4,2,1,85,0,0
105071,-100,4,2,1,70,0,0
114671,-100,4,2,1,85,0,0
117871,-100,4,2,2,70,0,0
132271,-100,4,2,1,70,0,1
134671,-100,4,2,2,70,0,1
135471,-100,4,2,1,70,0,1
138671,-100,4,2,2,70,0,1
145071,-100,4,2,1,70,0,1
147471,-100,4,2,2,70,0,1
148271,-100,4,2,1,70,0,1
151471,-100,4,2,2,70,0,1
157871,-100,4,2,1,70,0,0
160671,-100,4,2,1,50,0,0
161071,-100,4,2,2,70,0,0
164271,-100,4,2,1,50,0,0
169871,-100,4,2,1,70,0,0
170871,-100,4,2,1,85,0,0
183471,-100,4,2,2,70,0,0
196271,-100,4,2,2,50,0,0
199871,-100,4,2,2,70,0,1
200071,-100,4,2,1,70,0,1
201871,-100,4,2,2,70,0,1
202671,-100,4,2,1,70,0,1
205871,-100,4,2,2,70,0,1
212271,-100,4,2,1,70,0,1
214671,-100,4,2,2,70,0,1
215471,-100,4,2,1,70,0,1
218671,-100,4,2,2,70,0,1
225071,-100,4,2,1,70,0,0
227871,-100,4,2,1,50,0,0
228271,-100,4,2,2,70,0,1
231471,-100,4,2,1,50,0,0

[Colours]
Combo1 : 226,192,114
Combo2 : 255,104,180
Combo3 : 217,220,71
Combo4 : 186,71,235

[HitObjects]
120,88,13871,6,0,P|129:147|140:220,1,120,4|0,0:0|0:0,0:0:0:0:
216,280,14671,2,0,P|178:312|139:316,2,90,2|0|0,0:0|0:0|0:0,0:0:0:0:
236,229,15471,2,0,P|281:232|371:239,1,120,2|2,0:0|0:0,0:0:0:0:
435,310,16271,2,0,P|458:277|458:199,1,120,2|2,0:0|0:0,0:0:0:0:
510,104,17071,6,0,P|443:89|381:126,1,120,2|0,0:0|0:0,0:0:0:0:
310,172,17871,2,0,P|298:229|288:268,2,90,2|0|0,0:0|0:0|0:0,0:0:0:0:
287,122,18671,2,0,P|228:112|172:92,1,120,2|2,0:0|0:0,0:0:0:0:
85,26,19471,1,2,0:0:0:0:
16,109,19871,1,2,0:0:0:0:
95,182,20271,6,0,P|96:228|87:311,1,120,2|0,0:0|0:0,0:0:0:0:
193,276,21071,2,0,P|197:230|195:166,2,90,2|0|0,0:0|0:0|0:0,0:0:0:0:
203,329,21871,2,0,P|236:350|318:343,1,120,2|2,0:0|0:0,0:0:0:0:
395,274,22671,2,0,L|464:280,2,60,2|2|2,0:0|0:0|0:0,0:0:0:0:
310,207,23471,6,0,P|302:155|299:130,1,60,4|2,1:2|0:1,0:0:0:0:
305,93,23871,2,0,P|333:69|428:82,1,120,2|2,0:0|1:2,0:0:0:0:
449,109,24471,1,2,0:1:0:0:
449,109,24671,2,0,L|447:170,1,60,2|2,0:0|0:1,0:0:0:0:
485,207,25071,2,0,P|479:262|526:339,2,120,2|2|4,1:2|0:0|3:0,0:0:0:0:
379,230,26271,1,2,1:0:0:0:
290,168,26671,6,0,P|245:170|156:184,1,120,4|0,0:0|0:0,0:0:0:0:
69,219,27471,2,0,P|89:255|104:311,2,90,2|0|0,0:0|0:0|0:0,0:0:0:0:
23,190,28271,2,0,P|13:149|54:73,1,120,2|2,0:0|0:0,0:0:0:0:
137,26,29071,2,0,P|196:35|256:38,1,120,2|2,0:0|0:0,0:0:0:0:
357,1,29871,6,0,P|364:33|328:116,1,120,2|0,0:0|0:0,0:0:0:0:
333,219,30671,2,0,P|281:208|245:173,2,90,2|0|0,0:0|0:0|0:0,0:0:0:0:
384,202,31471,2,0,P|442:195|503:237,1,120,2|2,0:0|0:0,0:0:0:0:
420,304,32271,1,2,0:0:0:0:
325,356,32671,1,2,0:0:0:0:
302,246,33071,6,0,P|256:216|171:231,1,120,2|0,0:0|0:0,0:0:0:0:
86,200,33871,2,0,P|92:149|98:103,2,90,2|0|0,0:0|0:0|0:0,0:0:0:0:
53,243,34671,2,0,P|25:287|28:363,1,120,2|2,0:0|0:0,0:0:0:0:
126,318,35471,2,0,P|139:287|157:247,2,60,2|2|2,0:0|0:0|0:0,0:0:0:0:
218,373,36271,6,0,P|256:360|287:351,1,60,4|2,1:2|0:1,0:0:0:0:
329,350,36671,2,0,L|313:219,1,120,2|2,0:0|1:2,0:0:0:0:
332,179,37271,1,2,0:1:0:0:
332,179,37471,2,0,L|261:172,1,60,2|2,0:0|0:1,0:0:0:0:
226,144,37871,6,0,P|241:199|213:274,2,120,2|2|4,1:2|0:0|3:0,0:0:0:0:
124,106,39071,1,2,1:0:0:0:
67,197,39471,6,0,P|29:162|20:89,1,120,12|0,0:0|1:0,0:0:0:0:
2,44,40071,2,0,P|31:35|146:20,1,120
172,21,40671,1,0,1:0:0:0:
266,74,41071,2,0,P|325:66|383:50,2,120,2|0|10,0:0|1:0|0:0,0:0:0:0:
175,133,42271,1,8,1:2:0:0:
262,196,42671,6,0,P|268:243|234:309,1,120,12|0,0:0|1:0,0:0:0:0:
185,323,43271,2,0,P|138:310|68:300,1,120,0|0,0:0|0:0,0:0:0:0:
15,285,43871,1,0,1:0:0:0:
70,192,44271,2,0,L|61:118,1,60,10|8,0:0|0:0,0:0:0:0:
103,97,44671,2,0,P|91:56|40:-3,2,120,8|10|0,1:2|0:0|1:0,0:0:0:0:
158,189,45871,6,0,P|193:182|277:169,1,120,14|0,0:0|1:0,0:0:0:0:
329,175,46471,2,0,L|359:52,1,120,0|0,0:0|0:0,0:0:0:0:
345,5,47071,1,0,1:0:0:0:
451,21,47471,2,0,P|472:65|500:139,2,120,2|0|10,0:0|1:0|0:0,0:0:0:0:
385,106,48671,1,8,1:2:0:0:
426,205,49071,6,0,P|422:249|393:318,1,120,12|2,1:2|1:2,0:0:0:0:
358,360,49671,2,0,P|328:319|253:299,1,120,2|0,0:0|0:0,0:0:0:0:
214,320,50271,1,2,1:2:0:0:
125,258,50671,2,0,L|131:188,1,60,14|8,1:2|0:0,0:0:0:0:
160,153,51071,2,0,L|36:158,2,120,8|12|0,1:2|1:2|1:0,0:0:0:0:
262,120,52271,5,6,0:0:0:0:
262,120,53871,6,0,P|323:115|391:162,1,120,6|8,0:0|0:0,0:0:0:0:
405,184,54471,2,0,L|428:42,1,120,2|0,0:0|0:0,0:0:0:0:
448,17,55071,1,8,0:0:0:0:
341,36,55471,2,0,P|279:29|206:23,1,120,2|8,0:0|0:0,0:0:0:0:
120,62,56271,2,0,L|131:188,1,120,8|8,0:0|1:2,0:0:0:0:
72,273,57071,6,0,L|144:295,1,60,2|0,0:0|0:0,0:0:0:0:
161,334,57471,2,0,P|193:309|293:315,2,120,8|2|8,0:0|0:0|0:0,0:0:0:0:
62,371,58671,2,0,P|48:338|26:302,1,60,2|0,0:0|0:0,0:0:0:0:
2,274,59071,2,0,L|16:137,1,120,8|2,0:0|0:1,0:0:0:0:
76,65,59871,1,8,0:0:0:0:
117,164,60271,6,0,P|169:192|252:170,1,120,14|8,0:0|1:2,0:0:0:0:
271,152,60871,2,0,L|405:184,1,120,8|8,0:0|0:0,0:0:0:0:
440,166,61471,2,0,L|451:239,1,60,8|8,1:2|0:0,0:0:0:0:
487,264,61871,1,2,0:0:0:0:
428,355,62271,1,0,1:0:0:0:
348,281,62671,2,0,P|291:271|219:262,1,120,2|0,0:0|1:0,0:0:0:0:
136,208,63471,6,0,L|145:130,1,60,4|0,0:0|0:0,0:0:0:0:
127,96,63871,1,0,1:0:0:0:
190,8,64271,2,0,P|220:38|230:120,1,120,4|0,0:0|1:0,0:0:0:0:
241,165,64871,1,8,0:0:0:0:
284,197,65071,2,0,P|346:178|416:158,1,120,4|0,0:0|1:0,0:0:0:0:
485,94,65871,2,0,P|437:49|385:0,1,120,4|0,0:0|1:0,0:0:0:0:
315,82,66671,6,0,P|248:95|194:56,1,120,6|8,0:0|0:0,0:0:0:0:
182,21,67271,2,0,P|116:48|68:72,1,120,2|0,0:0|0:0,0:0:0:0:
30,103,67871,1,8,0:0:0:0:
120,162,68271,2,0,P|125:226|92:277,1,120,2|8,0:0|0:0,0:0:0:0:
154,363,69071,2,0,L|289:339,1,120,8|8,0:0|1:2,0:0:0:0:
339,257,69871,6,0,L|334:185,1,60,2|0,0:0|0:0,0:0:0:0:
320,145,70271,2,0,P|372:180|449:167,2,120,8|2|8,0:0|0:0|0:0,0:0:0:0:
288,41,71471,2,0,P|254:42|220:48,1,60,2|0,0:0|0:0,0:0:0:0:
177,64,71871,2,0,P|127:63|62:6,1,120,8|2,0:0|0:1,0:0:0:0:
13,114,72671,1,8,0:0:0:0:
69,206,73071,6,0,P|115:169|174:165,1,120,10|8,0:0|1:2,0:0:0:0:
222,190,73671,2,0,L|219:68,1,120,8|8,0:0|0:0,0:0:0:0:
205,17,74271,2,0,L|284:23,1,60,8|8,1:2|0:0,0:0:0:0:
318,26,74671,1,2,0:0:0:0:
405,89,75071,1,0,1:0:0:0:
508,56,75471,2,0,P|514:107|468:177,1,120,2|0,0:0|1:0,0:0:0:0:
379,199,76271,6,0,L|390:259,2,60,4|0|0,0:0|0:0|1:0,0:0:0:0:
302,122,77071,2,0,P|248:126|180:145,1,120,4|0,0:0|1:0,0:0:0:0:
136,167,77671,1,8,0:0:0:0:
82,162,77871,2,0,P|69:193|85:278,1,120,4|0,0:0|1:0,0:0:0:0:
181,321,78671,2,0,L|317:312,1,120,4|0,0:0|1:0,0:0:0:0:
394,366,79471,5,6,0:0:0:0:
450,363,92271,6,0,P|442:301|435:227,1,120,4|0,0:0|0:0,0:0:0:0:
416,137,93071,2,0,P|472:137|513:174,2,90,2|0|0,0:0|0:0|0:0,0:0:0:0:
367,161,93871,2,0,P|320:139|257:109,1,120,2|2,0:0|0:0,0:0:0:0:
197,20,94671,2,0,P|123:12|72:60,1,120,2|2,0:0|0:0,0:0:0:0:
22,122,95471,6,0,P|40:163|75:259,1,120,2|0,0:0|0:0,0:0:0:0:
172,255,96271,2,0,P|154:300|122:327,2,90,2|0|0,0:0|0:0|0:0,0:0:0:0:
170,200,97071,2,0,P|223:177|303:208,1,120,2|2,0:0|0:0,0:0:0:0:
357,266,97871,1,2,0:0:0:0:
463,248,98271,1,2,0:0:0:0:
505,153,98671,6,0,P|487:94|423:55,1,120,2|0,0:0|0:0,0:0:0:0:
343,104,99471,2,0,P|330:52|343:8,2,90,2|0|0,0:0|0:0|0:0,0:0:0:0:
382,140,100271,2,0,P|378:178|366:261,1,120,2|2,0:0|0:0,0:0:0:0:
259,280,101071,2,0,P|268:309|287:333,2,60,2|2|2,0:0|0:0|0:0,0:0:0:0:
251,173,101871,6,0,P|221:175|179:182,1,60,4|2,1:2|0:1,0:0:0:0:
142,202,102271,2,0,P|145:150|101:94,1,120,2|2,0:0|1:2,0:0:0:0:
52,89,102871,1,2,0:1:0:0:
52,89,103071,2,0,P|40:128|31:170,1,60,2|2,0:0|0:1,0:0:0:0:
1,188,103471,2,0,P|-13:251|16:307,2,120,2|2|4,1:2|0:0|3:0,0:0:0:0:
98,236,104671,1,2,1:0:0:0:
168,154,105071,6,0,P|220:146|302:136,1,120,4|0,0:0|0:0,0:0:0:0:
383,89,105871,2,0,P|394:46|411:-7,2,90,2|0|0,0:0|0:0|0:0,0:0:0:0:
413,133,106671,2,0,P|422:194|387:256,1,120,2|2,0:0|0:0,0:0:0:0:
410,352,107471,2,0,P|366:339|292:325,1,120,2|2,0:0|0:0,0:0:0:0:
197,376,108271,6,0,P|182:318|219:249,1,120,2|0,0:0|0:0,0:0:0:0:
208,155,109071,2,0,P|163:164|118:203,2,90,2|0|0,0:0|0:0|0:0,0:0:0:0:
260,168,109871,2,0,P|286:116|273:48,1,120,2|2,0:0|0:0,0:0:0:0:
179,11,110671,1,2,0:0:0:0:
121,102,111071,1,2,0:0:0:0:
13,90,111471,6,0,P|21:154|73:199,1,120,2|0,0:0|0:0,0:0:0:0:
132,270,112271,2,0,L|166:177,2,90,2|0|0,0:0|0:0|0:0,0:0:0:0:
97,311,113071,2,0,P|134:305|217:360,1,120,2|2,0:0|0:0,0:0:0:0:
304,297,113871,2,0,P|296:261|294:231,2,60,2|2|2,0:0|0:0|0:0,0:0:0:0:
372,380,114671,6,0,P|399:349|407:308,1,60,4|2,1:2|0:1,0:0:0:0:
444,294,115071,2,0,L|431:167,1,120,2|2,0:0|1:2,0:0:0:0:
449,123,115671,1,2,0:1:0:0:
449,123,115871,2,0,L|376:109,1,60,2|2,0:0|0:1,0:0:0:0:
336,119,116271,2,0,P|335:48|385:5,2,120,2|2|4,1:2|0:0|3:0,0:0:0:0:
251,186,117471,1,2,1:0:0:0:
166,253,117871,6,0,P|125:236|39:208,1,120,12|0,0:0|1:0,0:0:0:0:
0,202,118471,2,0,P|32:163|37:86,1,120,0|0,0:0|0:0,0:0:0:0:
11,49,119071,1,0,1:0:0:0:
115,22,119471,2,0,P|198:34|259:49,2,120,2|0|10,0:0|1:0|0:0,0:0:0:0:
135,128,120671,1,8,1:2:0:0:
43,184,121071,6,0,P|20:225|29:301,1,120,12|0,0:0|1:0,0:0:0:0:
63,335,121671,2,0,P|99:323|200:304,1,120,0|0,0:0|0:0,0:0:0:0:
233,299,122271,1,0,1:0:0:0:
330,345,122671,2,0,P|342:312|337:274,1,60,10|8,0:0|0:0,0:0:0:0:
318,238,123071,2,0,P|312:177|309:117,2,120,8|8|0,1:2|0:0|1:0,0:0:0:0:
233,299,124271,6,0,P|211:253|235:178,1,120,12|0,0:0|1:0,0:0:0:0:
269,154,124871,2,0,P|360:140|395:137,1,120,0|0,0:0|0:0,0:0:0:0:
441,139,125471,1,0,1:0:0:0:
413,34,125871,2,0,P|479:33|528:80,2,120,2|0|10,0:0|1:0|0:0,0:0:0:0:
306,16,127071,1,8,1:2:0:0:
243,104,127471,6,0,P|249:165|256:223,1,120,12|2,1:2|1:2,0:0:0:0:
244,276,128071,2,0,P|289:314|369:309,1,120,0|0,0:0|0:0,0:0:0:0:
395,291,128671,1,2,1:2:0:0:
493,335,129071,2,0,P|498:299|502:268,1,60,14|8,1:2|0:0,0:0:0:0:
480,225,129471,2,0,P|472:180|508:108,2,120,8|12|0,1:2|1:2|1:0,0:0:0:0:
395,291,130671,5,6,0:0:0:0:
395,291,132271,6,8,P|325:288|247:285,1,120,6|8,0:0|0:0,0:0:0:0:
226,310,132871,2,0,P|184:278|100:273,1,120,2|0,0:0|0:0,0:0:0:0:
68,288,133471,1,8,0:0:0:0:
9,197,133871,2,0,P|22:153|38:79,1,120,2|8,0:0|0:0,0:0:0:0:
114,3,134671,2,0,P|146:65|138:121,1,120,10|8,0:0|1:2,0:0:0:0:
125,220,135471,6,0,L|210:209,1,60,2|0,0:0|0:0,0:0:0:0:
230,183,135871,2,0,P|224:245|218:324,2,120,8|2|8,0:0|0:0|0:0,0:0:0:0:
323,128,137071,2,0,P|326:92|329:59,1,60,2|0,0:0|0:0,0:0:0:0:
314,15,137471,2,0,P|359:32|441:45,1,120,8|2,0:0|0:1,0:0:0:0:
493,131,138271,1,8,0:0:0:0:
444,227,138671,6,0,P|407:200|389:110,1,120,10|8,0:0|1:2,0:0:0:0:
396,78,139271,2,0,P|324:91|252:108,1,120,8|8,0:0|0:0,0:0:0:0:
229,127,139871,2,0,L|187:70,1,60,8|8,1:2|0:0,0:0:0:0:
171,29,140271,1,2,0:0:0:0:
87,97,140671,1,0,1:0:0:0:
140,190,141071,2,0,P|148:236|158:309,1,120,2|0,0:0|1:0,0:0:0:0:
247,368,141871,6,0,P|262:335|265:300,1,60,4|0,0:0|0:0,0:0:0:0:
252,258,142271,1,0,1:0:0:0:
308,165,142671,2,0,P|357:224|353:279,1,120,4|0,0:0|1:0,0:0:0:0:
402,294,143271,1,8,0:0:0:0:
440,331,143471,2,0,P|488:285|501:214,1,120,4|0,0:0|1:0,0:0:0:0:
443,143,144271,2,0,P|434:76|427:8,1,120,4|0,0:0|1:0,1:1:0:0:
329,66,145071,6,0,P|338:133|345:201,1,120,6|8,0:0|0:0,0:0:0:0:
367,233,145671,2,0,P|313:225|220:216,1,120,2|0,0:0|0:0,0:0:0:0:
193,220,146271,1,8,0:0:0:0:
126,304,146671,2,0,P|87:254|91:185,1,120,2|8,0:0|0:0,0:0:0:0:
13,119,147471,2,0,P|67:109|138:100,1,120,10|8,0:0|1:2,0:0:0:0:
207,23,148271,6,0,P|246:26|291:33,1,60,2|0,0:0|0:0,0:0:0:0:
318,44,148671,2,0,P|314:105|313:191,2,120,8|2|8,0:0|0:0|0:0,0:0:0:0:
231,108,149871,2,0,P|191:111|147:118,1,60,2|0,0:0|0:0,0:0:0:0:
120,129,150271,2,0,P|123:190|125:276,1,120,8|2,0:0|0:1,0:0:0:0:
88,350,151071,1,8,0:0:0:0:
189,312,151471,6,0,P|243:316|325:333,1,120,10|8,0:0|1:2,0:0:0:0:
356,350,152071,2,0,P|366:286|371:215,1,120,8|8,0:0|0:0,0:0:0:0:
362,177,152671,2,0,P|415:184|447:190,1,60,8|8,1:2|0:0,0:0:0:0:
471,205,153071,1,2,0:0:0:0:
439,101,153471,1,0,1:0:0:0:
362,177,153871,2,0,P|300:161|264:110,1,120,2|0,0:0|1:0,0:0:0:0:
169,71,154671,6,0,P|163:111|159:151,2,60,12|0|0,0:0|0:0|1:0,0:0:0:0:
61,73,155471,2,0,P|29:126|7:193,1,120,4|0,0:0|0:0,0:0:0:0:
6,234,156071,1,8,0:0:0:0:
13,287,156271,2,0,P|71:276|143:266,1,120,4|0,0:0|1:0,0:0:0:0:
234,298,157071,2,0,P|293:289|352:278,1,120,4|0,0:0|1:0,0:0:0:0:
455,309,157871,6,0,B|444:256|483:226|483:226|467:177|498:143,2,180,4|0|2,0:0|0:0|0:0,0:0:0:0:
352,278,159471,2,0,P|343:219|338:143,1,120,0|2,0:0|0:0,0:0:0:0:
367,54,160271,1,0,0:0:0:0:
367,54,160471,2,2,L|223:60,1,120,0|0,0:0|0:0,0:1:0:0:
200,87,161071,5,4,0:0:0:0:
242,186,161471,1,0,1:0:0:0:
132,175,161871,2,0,P|100:217|98:285,1,120,4|0,0:0|1:0,0:0:0:0:
125,328,162471,1,8,0:0:0:0:
168,360,162671,2,0,P|220:366|280:334,1,120,4|0,0:0|1:0,0:0:0:0:
341,249,163471,2,0,P|337:201|333:116,1,120,4|0,0:0|1:0,0:0:0:0:
352,22,164271,5,4,0:0:0:0:
170,138,165071,2,0,L|60:122,2,90,2|2|2,0:0|0:0|0:0,0:0:0:0:
213,170,165871,2,0,P|243:160|397:137,2,180,4|2|2,0:0|0:0|0:0,0:0:0:0:
162,265,167471,5,4,0:0:0:0:
295,356,168071,1,2,0:0:0:0:
303,194,168671,1,2,0:0:0:0:
207,245,169071,6,0,L|84:236,1,120,2|2,0:1|0:0,0:0:0:0:
23,148,169871,1,4,3:0:0:0:
76,144,170071,2,2,L|202:138,1,120,2|2,0:1|0:1,0:0:0:0:
272,212,170871,6,0,P|303:155|290:93,1,120,2|2,0:1|0:1,0:0:0:0:
333,64,171471,2,2,P|289:28|238:2,2,90,2|2|2,0:0|0:1|0:1,0:1:0:0:
403,145,172471,2,0,L|388:276,1,120,2|2,0:1|0:1,0:0:0:0:
414,312,173071,2,2,P|353:317|303:325,2,90,2|2|2,0:0|0:1|0:1,0:1:0:0:
464,330,173871,6,0,L|473:266,1,60,2|2,0:0|0:1,0:0:0:0:
499,223,174271,2,0,B|457:229|457:229|388:194,1,120,2|2,0:0|0:0,0:0:0:0:
377,148,174871,1,2,0:1:0:0:
377,148,175071,2,0,L|294:161,1,60,2|2,0:0|0:1,0:0:0:0:
266,175,175471,2,2,P|259:126|255:82,2,90,4|2|2,0:0|0:1|0:1,0:1:0:0:
260,228,176271,1,4,0:0:0:0:
46,192,177071,6,0,P|58:158|60:129,1,60,4|2,0:0|0:1,0:0:0:0:
43,82,177471,2,0,L|173:90,1,120,2|2,0:0|0:0,0:0:0:0:
208,117,178071,1,2,0:1:0:0:
208,117,178271,2,0,P|224:90|239:57,1,60,2|2,0:0|0:1,0:0:0:0:
242,10,178671,2,0,P|334:6|377:6,2,120,2|2|2,0:0|0:0|0:0,0:0:0:0:
137,36,179871,1,2,0:0:0:0:
208,117,180271,6,0,P|220:176|225:201,1,60,12|2,0:0|0:1,0:0:0:0:
217,229,180671,2,0,P|199:256|101:263,1,120,2|2,0:0|0:0,0:0:0:0:
79,233,181271,1,2,0:1:0:0:
79,233,181471,2,0,L|9:258,1,60,2|2,0:0|0:1,0:0:0:0:
2,303,181871,2,0,P|47:333|95:378,1,120,12|8,0:0|0:0,0:0:0:0:
195,338,182671,2,0,P|198:284|213:219,1,120,12|2,0:0|1:0,0:0:0:0:
316,186,183471,6,0,P|330:127|334:67,1,120,12|0,0:0|1:0,0:0:0:0:
320,15,184071,2,0,P|386:31|450:48,1,120,0|0,0:0|0:0,0:0:0:0:
486,65,184671,1,0,1:0:0:0:
422,152,185071,2,0,P|419:208|424:281,2,120,2|0|2,0:0|1:0|0:0,0:0:0:0:
317,124,186271,1,0,1:0:0:0:
279,225,186671,6,0,P|236:249|159:236,1,120,0|0,0:0|1:0,0:0:0:0:
129,202,187271,2,0,P|121:153|159:85,1,120,0|0,0:0|0:0,0:0:0:0:
195,60,187871,1,0,1:0:0:0:
101,5,188271,2,0,P|81:39|62:78,1,60,2|2,0:0|0:0,0:0:0:0:
25,84,188671,2,0,P|32:119|0:203,2,120,0|2|0,1:0|0:0|1:0,0:0:0:0:
131,105,189871,6,0,P|182:126|245:157,1,120,12|0,0:0|1:0,0:0:0:0:
275,196,190471,2,0,P|311:204|403:154,1,120,0|0,0:0|0:0,0:0:0:0:
401,123,191071,1,0,1:0:0:0:
491,181,191471,2,0,P|484:245|478:314,2,120,2|0|2,0:0|1:0|0:0,0:0:0:0:
493,73,192671,1,0,1:0:0:0:
401,123,193071,6,0,P|347:130|284:84,1,120,2|0,0:0|1:0,0:0:0:0:
270,47,193671,2,0,L|261:180,1,120,0|0,0:0|0:0,0:0:0:0:
239,215,194271,1,0,1:0:0:0:
137,252,194671,2,0,L|134:192,1,60,2|2,0:0|0:0,0:0:0:0:
159,143,195071,2,0,P|114:125|29:164,2,120,0|6|0,1:0|0:0|1:0,0:0:0:0:
239,215,196271,5,12,0:0:0:0:
239,215,199871,5,12,1:2:0:0:
239,215,200071,2,0,L|243:74,1,120,0|0,0:0|0:0,0:0:0:0:
253,42,200671,1,8,0:0:0:0:
327,119,201071,2,0,P|376:139|455:155,1,120,2|8,0:0|0:0,0:0:0:0:
504,241,201871,2,0,P|465:254|417:328,1,120,10|8,0:0|1:2,0:0:0:0:
324,368,202671,6,0,L|314:298,1,60,2|0,0:0|0:0,0:0:0:0:
270,278,203071,2,0,P|239:314|148:312,2,120,8|2|8,0:0|0:0|0:0,0:0:0:0:
284,170,204271,2,0,P|327:183|351:204,1,60,2|0,0:0|0:0,0:0:0:0:
366,238,204671,2,0,P|402:220|483:199,1,120,8|2,0:0|0:1,0:0:0:0:
500,93,205471,1,8,0:0:0:0:
402,45,205871,6,0,P|343:31|289:6,1,120,12|8,0:0|1:2,0:0:0:0:
235,10,206471,2,0,P|194:43|180:124,1,120,8|8,0:0|0:0,0:0:0:0:
143,148,207071,2,0,P|154:184|161:217,1,60,8|8,1:2|0:0,0:0:0:0:
158,259,207471,1,2,0:0:0:0:
59,215,207871,1,0,1:0:0:0:
24,112,208271,2,0,P|48:60|123:31,1,120,2|0,0:0|1:0,0:0:0:0:
203,68,209071,6,0,L|277:75,1,60,4|0,0:0|0:0,0:0:0:0:
312,59,209471,1,0,1:0:0:0:
400,121,209871,2,0,P|387:170|376:250,1,120,4|0,0:0|1:0,0:0:0:0:
375,292,210471,1,8,0:0:0:0:
385,345,210671,2,0,P|328:314|252:333,1,120,4|0,0:0|1:0,0:0:0:0:
183,376,211471,2,0,P|124:380|73:350,1,120,4|0,0:0|1:0,0:0:0:0:
2,269,212271,6,0,P|37:242|55:149,1,120,6|8,0:0|0:0,0:0:0:0:
42,120,212871,2,0,P|78:135|177:178,1,120,0|0,0:0|0:0,0:0:0:0:
191,203,213471,1,8,0:0:0:0:
269,276,213871,2,0,P|289:248|289:156,1,120,2|8,0:0|0:0,0:0:0:0:
396,133,214671,2,0,P|373:87|298:59,1,120,10|8,0:0|1:2,0:0:0:0:
214,21,215471,6,0,P|179:28|140:34,1,60,2|0,0:0|0:0,0:0:0:0:
114,67,215871,2,0,P|77:37|-5:35,2,120,8|2|8,0:0|0:0|0:0,0:0:0:0:
139,172,217071,2,0,L|124:253,1,60,2|0,0:0|0:0,0:0:0:0:
127,285,217471,2,0,P|90:315|8:317,1,120,8|2,0:0|0:1,0:0:0:0:
41,214,218271,1,8,0:0:0:0:
139,172,218671,6,0,L|283:191,1,120,10|8,0:0|1:2,0:0:0:0:
303,216,219271,2,0,P|325:196|428:193,1,120,8|8,0:0|0:0,0:0:0:0:
460,208,219871,2,0,L|455:285,1,60,8|8,1:2|0:0,0:0:0:0:
479,316,220271,1,2,0:0:0:0:
390,378,220671,1,0,1:0:0:0:
290,335,221071,2,0,P|299:261|303:194,1,120,2|0,0:0|1:0,0:0:0:0:
248,121,221871,6,0,L|239:57,2,60,8|0|0,0:0|0:0|1:0,0:0:0:0:
354,136,222671,2,0,L|486:120,1,120,2|0,0:0|1:0,0:0:0:0:
486,69,223271,1,8,0:0:0:0:
501,17,223471,2,0,P|443:3|380:53,1,120,4|0,0:0|1:0,0:0:0:0:
354,136,224271,2,0,L|363:255,1,120,4|0,0:0|1:0,0:0:0:0:
321,355,225071,6,0,B|381:380|427:345|427:345|458:372|511:363,2,180,6|2|2,0:0|0:0|0:0,0:0:0:0:
232,292,226671,2,0,P|213:252|221:173,1,120,2|2,0:0|0:0,0:0:0:0:
289,96,227471,1,2,0:0:0:0:
289,96,227671,2,2,L|428:116,1,120,0|0,0:0|0:0,0:1:0:0:
461,109,228271,5,4,0:0:0:0:
444,217,228671,1,0,1:0:0:0:
336,230,229071,2,0,P|295:193|217:197,1,120,4|0,0:0|1:0,0:0:0:0:
191,225,229671,1,8,0:0:0:0:
149,260,229871,2,0,P|90:258|45:220,1,120,4|0,0:0|1:0,0:0:0:0:
129,151,230671,2,0,P|136:116|146:31,1,120,8|0,0:0|1:0,0:0:0:0:
48,78,231471,5,4,0:0:0:0:
