osu file format v14

[General]
AudioFilename: Yuudachi, Kimi to Kakureka .mp3
AudioLeadIn: 0
PreviewTime: 132182
Countdown: 0
SampleSet: Soft
StackLeniency: 0.7
Mode: 0
LetterboxInBreaks: 0
WidescreenStoryboard: 0

[Editor]
Bookmarks: 13771
DistanceSpacing: 0.9
BeatDivisor: 4
GridSize: 4
TimelineZoom: 1

[Metadata]
Title:Yuudachi, Kimi to Kakurega
TitleUnicode:夕立、君と隠れ処
Artist:Yuuhei Satellite (Arranged: Iceon) feat. senya
ArtistUnicode:幽閉サテライト (Arranged: Iceon) feat. senya
Creator:Dailycare
Version:Hard
Source:東方Project
Tags:Patchouli Knowledge パチュリー・ノーレッジ Iceon kamase-tora かませ虎 Touhou 魔法少女達の百年祭 The Centennial Festival for Magical Girls 東方紅魔郷 Embodiment of Scarlet Devil extra stage theme 上海アリス幻樂団 ZUN 例大祭 Reitaisai SDVX SOUND VOLTEX II -infinite infection- ULTIMATE TRACKS -東方紅魔郷REMIX-
BeatmapID:979668
BeatmapSetID:455092

[Difficulty]
HPDrainRate:5
CircleSize:3.8
OverallDifficulty:6
ApproachRate:7.2
SliderMultiplier:1.48
SliderTickRate:1

[Events]
//Background and Video events
0,0,"d.jpg",0,0
//Break Periods
2,86071,90601
2,196471,198601
//Storyboard Layer 0 (Background)
//Storyboard Layer 1 (Fail)
//Storyboard Layer 2 (Pass)
//Storyboard Layer 3 (Foreground)
//Storyboard Sound Samples

[TimingPoints]
1071,400,4,2,1,70,1,0
23471,-100,4,2,1,85,0,0
26671,-100,4,2,1,70,0,0
36271,-100,4,2,1,85,0,0
39471,-100,4,2,2,70,0,0
53871,-100,4,2,1,70,0,1
56271,-100,4,2,2,70,0,1
57071,-100,4,2,1,70,0,1
60271,-100,4,2,2,70,0,1
66671,-100,4,2,1,70,0,1
69071,-100,4,2,2,70,0,1
69871,-100,4,2,1,70,0,1
73071,-100,4,2,2,70,0,1
79471,-133.333333333333,4,2,1,50,0,0
85271,-100,4,2,1,70,0,0
101871,-100,4,2,1,85,0,0
105071,-100,4,2,1,70,0,0
114671,-100,4,2,1,85,0,0
117871,-100,4,2,2,70,0,0
132271,-100,4,2,1,70,0,1
134671,-100,4,2,2,70,0,1
135471,-100,4,2,1,70,0,1
138671,-100,4,2,2,70,0,1
145071,-100,4,2,1,70,0,1
147471,-100,4,2,2,70,0,1
148271,-100,4,2,1,70,0,1
151471,-100,4,2,2,70,0,1
157871,-111.111111111111,4,2,1,70,0,0
160471,-100,4,2,1,70,0,0
160671,-100,4,2,1,50,0,0
161071,-100,4,2,2,70,0,0
164271,-111.111111111111,4,2,1,50,0,0
169871,-76.9230769230769,4,2,1,70,0,0
170671,-86.9565217391304,4,2,1,85,0,0
176271,-76.9230769230769,4,2,1,85,0,0
177071,-86.9565217391304,4,2,1,85,0,0
183471,-100,4,2,2,70,0,0
196271,-100,4,2,2,50,0,0
199471,-133.333333333333,4,2,1,70,0,0
199871,-100,4,2,2,70,0,1
200071,-100,4,2,1,70,0,1
201871,-100,4,2,2,70,0,1
202671,-100,4,2,1,70,0,1
205871,-100,4,2,2,70,0,1
212271,-100,4,2,1,70,0,1
214671,-100,4,2,2,70,0,1
215471,-100,4,2,1,70,0,1
218671,-100,4,2,2,70,0,1
225071,-111.111111111111,4,2,1,70,0,0
227671,-100,4,2,1,70,0,0
228271,-100,4,2,2,70,0,1
231471,-100,4,2,1,50,0,0

[Colours]
Combo1 : 226,192,114
Combo2 : 255,104,180
Combo3 : 217,220,71
Combo4 : 186,71,235

[HitObjects]
160,104,13071,6,0,L|168:149,3,37,0|0|0|0,0:0|0:0|0:0|0:0,0:0:0:0:
160,172,13471,2,0,P|196:165|235:176,1,74,2|0,0:0|0:0,0:0:0:0:
292,240,13871,6,0,P|340:229|451:200,1,148,4|0,0:0|0:0,0:0:0:0:
504,144,14471,1,0,0:0:0:0:
504,144,14671,2,0,P|485:106|514:22,2,111,2|0|0,0:0|0:0|0:0,0:0:0:0:
435,204,15471,6,0,P|440:242|444:285,1,74,2|0,0:0|0:0,0:0:0:0:
372,336,15871,2,0,P|336:321|297:303,1,74,2|0,0:0|0:0,0:0:0:0:
289,215,16271,2,0,P|319:191|354:166,1,74,2|0,0:0|0:0,0:0:0:0:
308,92,16671,1,2,0:0:0:0:
308,92,17071,6,0,P|269:71|154:76,1,148,2|0,0:0|0:0,0:0:0:0:
96,120,17671,1,0,0:0:0:0:
96,120,17871,2,0,P|103:180|111:247,2,111,2|0|0,0:0|0:0|0:0,0:0:0:0:
167,70,18671,6,0,P|205:82|257:98,1,74,2|0,0:0|0:0,0:0:0:0:
320,132,19071,2,0,P|289:159|250:195,1,74,2|0,0:0|0:0,0:0:0:0:
189,233,19471,2,0,P|180:193|168:141,1,74,2|0,0:0|0:0,0:0:0:0:
96,208,19871,1,2,0:0:0:0:
96,208,20271,6,0,P|56:221|29:341,1,148,2|0,0:0|0:0,0:0:0:0:
88,376,20871,1,0,0:0:0:0:
88,376,21071,2,0,P|132:364|224:346,2,111,2|0|0,0:0|0:0|0:0,0:0:0:0:
17,312,21871,6,0,P|19:271|21:231,1,74,2|0,0:0|0:0,0:0:0:0:
96,192,22271,2,0,P|90:152|83:103,1,74,2|0,0:0|0:0,0:0:0:0:
32,48,22671,2,0,P|69:31|131:47,1,74,2|2,0:0|0:0,0:0:0:0:
132,48,22971,1,0,0:0:0:0:
132,48,23071,2,0,L|255:37,1,111,2|0,0:0|0:0,0:0:0:0:
272,16,23471,6,0,L|267:105,1,74,4|2,1:2|0:1,0:0:0:0:
312,176,23871,2,0,L|314:238,2,37,2|0|2,0:0|0:0|0:1,0:0:0:0:
392,120,24271,2,0,P|429:120|470:146,1,74,2|2,1:2|0:1,0:0:0:0:
512,220,24671,2,0,P|518:256|499:301,1,74,2|2,0:0|0:1,0:0:0:0:
428,344,25071,6,0,L|426:406,2,37,2|0|2,1:2|0:0|0:1,0:0:0:0:
356,280,25471,2,0,L|278:284,1,74,2|2,0:0|0:1,0:0:0:0:
188,312,25871,2,0,L|141:310,3,37,4|0|2|0,3:0|0:0|0:1|0:0,0:0:0:0:
120,320,26271,2,0,P|133:278|126:222,1,74,0|2,1:0|0:1,0:0:0:0:
80,176,26671,6,0,P|116:160|220:224,1,148,4|0,0:0|0:0,0:0:0:0:
280,268,27271,1,0,0:0:0:0:
280,268,27471,2,0,P|265:315|246:386,2,111,2|0|0,0:0|0:0|0:0,0:0:0:0:
352,208,28271,6,0,P|346:170|341:126,1,74,2|0,0:0|0:0,0:0:0:0:
320,44,28671,2,0,P|289:67|254:94,1,74,2|0,0:0|0:0,0:0:0:0:
193,153,29071,2,0,P|228:167|269:184,1,74,2|0,0:0|0:0,0:0:0:0:
352,208,29471,1,2,0:0:0:0:
352,208,29871,6,0,P|361:139|378:34,1,148,2|0,0:0|0:0,0:0:0:0:
440,0,30471,1,0,0:0:0:0:
440,0,30671,2,0,P|461:38|443:116,2,111,2|0|0,0:0|0:0|0:0,0:0:0:0:
373,61,31471,6,0,P|345:59|288:56,1,74,2|0,0:0|0:0,0:0:0:0:
216,96,31871,2,0,P|228:121|254:172,1,74,2|0,0:0|0:0,0:0:0:0:
324,214,32271,2,0,P|339:190|370:142,1,74,2|0,0:0|0:0,0:0:0:0:
452,180,32671,1,2,0:0:0:0:
452,180,33071,6,0,P|416:216|400:336,1,148,2|0,0:0|0:0,0:0:0:0:
304,300,33671,1,0,0:0:0:0:
304,300,33871,2,0,P|264:324|192:320,2,111,2|0|0,0:0|0:0|0:0,0:0:0:0:
356,224,34671,6,0,P|350:168|347:146,1,74,2|0,0:0|0:0,0:0:0:0:
396,72,35071,2,0,L|296:55,1,74,2|0,0:0|0:0,0:0:0:0:
247,6,35471,2,0,P|230:46|243:107,1,74,2|2,0:0|0:0,0:0:0:0:
240,104,35771,1,0,0:0:0:0:
240,104,35871,2,0,L|108:97,1,111,2|0,0:0|0:0,0:0:0:0:
96,84,36271,6,0,L|105:161,1,74,4|2,1:2|0:1,0:0:0:0:
164,232,36671,2,0,L|158:285,2,37,2|0|2,0:0|0:0|0:1,0:0:0:0:
68,248,37071,2,0,P|32:228|14:178,1,74,2|2,1:2|0:1,0:0:0:0:
0,104,37471,2,0,P|-2:57|23:18,1,74,2|2,0:0|0:1,0:0:0:0:
104,0,37871,6,0,L|110:53,2,37,2|0|2,1:2|0:0|0:1,0:0:0:0:
192,32,38271,2,0,L|185:130,1,74,2|2,0:0|0:1,0:0:0:0:
228,192,38671,2,0,L|282:188,3,37,4|0|2|0,3:0|0:0|0:1|0:0,0:0:0:0:
296,200,39071,2,0,P|299:164|306:120,1,74,0|2,1:0|3:1,0:0:0:0:
344,40,39471,5,12,0:0:0:0:
344,40,39671,1,0,0:0:0:0:
432,8,39871,2,0,P|435:63|410:108,1,74,0|0,1:0|0:0,0:0:0:0:
352,136,40271,2,0,P|357:173|365:218,1,74,2|0,0:0|0:0,0:0:0:0:
324,296,40671,2,0,L|409:305,1,74,0|0,1:0|0:0,0:0:0:0:
272,216,41071,6,0,L|198:208,1,74,2|2,0:0|0:0,0:0:0:0:
116,256,41471,2,0,P|86:235|38:228,1,74,0|2,1:0|0:0,0:0:0:0:
36,132,41871,1,10,0:0:0:0:
100,60,42071,1,8,0:0:0:0:
128,156,42271,1,8,1:2:0:0:
128,156,42671,6,0,L|212:146,1,74,12|0,0:0|0:0,0:0:0:0:
272,216,43071,2,0,L|345:224,1,74,0|0,1:0|0:0,0:0:0:0:
420,288,43471,2,0,P|441:257|441:208,1,74,2|0,0:0|0:0,0:0:0:0:
512,152,43871,2,0,P|477:128|423:130,1,74,0|0,1:0|0:0,0:0:0:0:
368,68,44271,5,10,0:0:0:0:
304,140,44471,1,8,0:0:0:0:
240,212,44671,2,0,L|167:220,1,74,8|8,1:2|0:0,0:0:0:0:
64,136,45071,2,0,L|211:120,1,148,10|0,0:0|1:0,0:0:0:0:
376,256,45871,5,14,0:0:0:0:
376,256,46071,1,0,0:0:0:0:
288,300,46271,2,0,P|249:283|208:269,1,74,0|0,1:0|0:0,0:0:0:0:
128,288,46671,2,0,L|125:208,1,74,2|0,0:0|0:0,0:0:0:0:
176,132,47071,2,0,P|128:116|93:125,1,74,0|0,1:0|0:0,0:0:0:0:
228,216,47471,6,0,P|259:227|310:212,1,74,2|2,0:0|0:0,0:0:0:0:
392,232,47871,2,0,P|397:190|404:147,1,74,0|2,1:0|0:0,0:0:0:0:
346,81,48271,1,10,0:0:0:0:
268,136,48471,1,8,0:0:0:0:
176,132,48671,1,8,1:2:0:0:
176,132,49071,6,0,L|91:126,1,74,12|2,1:2|0:0,0:0:0:0:
12,160,49471,2,0,P|33:197|39:239,1,74,2|2,1:2|0:0,0:0:0:0:
76,316,49871,2,0,P|113:289|130:249,1,74,2|0,1:2|0:0,0:0:0:0:
212,224,50271,2,0,L|207:117,1,74,2|0,1:2|0:0,0:0:0:0:
136,84,50671,5,14,1:2:0:0:
228,52,50871,1,8,0:0:0:0:
320,20,51071,2,0,L|407:33,1,74,8|8,1:2|0:0,0:0:0:0:
452,136,51471,2,0,L|305:114,1,148,12|0,1:2|1:0,0:0:0:0:
368,232,52071,5,0,0:0:0:0:
368,232,52171,1,0,0:0:0:0:
368,232,52271,1,6,0:0:0:0:
368,232,53871,6,0,P|312:264|234:320,1,148,6|8,0:0|0:0,0:0:0:0:
176,380,54471,2,0,P|154:345|180:243,1,148,2|0,0:0|0:0,0:0:0:0:
128,164,55071,2,0,P|165:154|229:136,1,74,8|0,0:0|0:0,0:0:0:0:
264,72,55471,6,0,P|308:64|389:129,2,148,2|8|8,0:0|0:0|0:0,0:0:0:0:
172,40,56471,1,8,0:0:0:0:
88,88,56671,2,0,L|30:83,2,49.3333333333333,8|2|0,1:2|0:0|0:0,0:0:0:0:
120,120,57071,6,0,P|120:164|105:201,1,74,2|0,0:0|0:0,0:0:0:0:
44,260,57471,2,0,P|87:281|131:307,1,74,8|0,0:0|0:0,0:0:0:0:
172,368,57871,2,0,B|204:335|202:296|202:296|212:262|256:245,1,148,2|8,0:0|0:0,0:0:0:0:
336,260,58471,1,0,0:0:0:0:
404,320,58671,6,0,P|425:274|423:242,1,74,2|0,0:0|0:0,0:0:0:0:
472,176,59071,2,0,L|460:102,1,74,8|0,0:0|0:0,0:0:0:0:
492,20,59471,2,2,B|408:-4|436:56|320:28,1,148,2|8,0:0|0:0,0:1:0:0:
264,0,60071,1,8,0:0:0:0:
264,0,60271,6,0,P|271:49|285:160,1,148,14|8,0:0|1:2,0:0:0:0:
248,236,60871,2,0,P|208:196|92:212,1,148,8|8,0:0|0:0,0:0:0:0:
56,264,61471,2,0,P|63:304|76:355,1,74,8|8,1:2|0:0,0:0:0:0:
120,192,61871,6,0,P|107:119|91:46,2,148,2|0|2,0:0|1:0|0:0,0:0:0:0:
164,276,62871,1,8,0:0:0:0:
260,256,63071,2,0,L|256:305,2,49.3333333333333,0|2|0,1:0|0:0|0:0,0:0:0:0:
284,220,63471,6,0,P|326:225|366:233,1,74,4|0,0:0|0:0,0:0:0:0:
440,280,63871,2,0,L|452:194,1,74,0|0,1:0|0:0,0:0:0:0:
512,132,64271,1,4,0:0:0:0:
420,112,64471,1,8,0:0:0:0:
328,144,64671,2,0,P|286:139|246:131,1,74,0|8,1:0|0:0,0:0:0:0:
171,88,65071,6,0,P|160:123|164:160,1,74,4|2,0:0|0:0,0:0:0:0:
236,224,65471,2,0,P|278:229|318:237,1,74,0|2,1:0|0:0,0:0:0:0:
400,208,65871,2,0,P|403:244|392:279,1,74,4|2,0:0|0:0,0:0:0:0:
312,332,66271,2,0,L|307:386,2,49.3333333333333,0|2|0,1:0|1:2|0:0,0:0:0:0:
316,288,66671,6,0,P|288:258|160:263,1,148,6|8,0:0|0:0,0:0:0:0:
120,316,67271,2,0,P|70:282|0:222,1,148,2|0,0:0|0:0,0:0:0:0:
56,144,67871,2,0,P|51:106|40:48,1,74,8|0,0:0|0:0,0:0:0:0:
120,8,68271,6,0,P|200:22|269:45,2,148,2|8|8,0:0|0:0|0:0,0:0:0:0:
148,104,69271,1,8,0:0:0:0:
56,144,69471,2,0,L|-4:149,2,49.3333333333333,8|2|0,1:2|0:0|0:0,0:0:0:0:
84,176,69871,6,0,P|76:213|68:260,1,74,2|0,0:0|0:0,0:0:0:0:
164,268,70271,2,0,P|172:231|180:184,1,74,8|0,0:0|0:0,0:0:0:0:
148,104,70671,2,0,P|181:68|298:84,1,148,2|8,0:0|0:0,0:0:0:0:
332,144,71271,1,0,0:0:0:0:
411,192,71471,6,0,P|423:160|419:109,1,74,2|0,0:0|0:0,0:0:0:0:
332,144,71871,2,0,P|320:176|324:227,1,74,8|0,0:0|0:0,0:0:0:0:
356,300,72271,2,2,P|298:313|209:344,1,148,2|8,0:0|0:0,0:1:0:0:
128,312,72871,1,8,0:0:0:0:
128,312,73071,6,0,P|162:265|167:170,1,148,10|8,0:0|1:2,0:0:0:0:
133,90,73671,2,0,P|185:84|261:158,1,148,8|8,0:0|0:0,0:0:0:0:
296,228,74271,2,0,P|275:263|249:309,1,74,8|8,1:2|0:0,0:0:0:0:
255,140,74671,6,0,L|291:75|327:10,2,148,2|0|2,0:0|1:0|0:0,0:0:0:0:
169,177,75671,1,8,0:0:0:0:
207,264,75871,2,0,L|134:280,2,49.3333333333333,0|2|0,1:0|0:0|0:0,0:0:0:0:
240,236,76271,6,0,P|275:249|326:276,1,74,4|0,0:0|0:0,0:0:0:0:
380,332,76671,2,0,P|402:291|398:242,1,74,0|0,1:0|0:0,0:0:0:0:
464,188,77071,1,4,0:0:0:0:
400,116,77271,1,8,0:0:0:0:
336,44,77471,2,0,L|428:16,1,74,0|8,1:0|0:0,0:0:0:0:
488,76,77871,6,0,P|483:118|482:162,1,74,4|0,0:0|0:0,0:0:0:0:
428,232,78271,2,0,L|330:227,1,74,0|0,1:0|0:0,0:0:0:0:
260,196,78671,2,0,P|264:238|266:282,1,74,4|0,0:0|0:0,0:0:0:0:
188,332,79071,2,0,L|192:392,2,49.3333333333333,0|2|0,1:0|1:2|1:0,0:0:0:0:
172,300,79471,6,0,P|173:245|178:127,1,166.500006351471,6|0,0:0|0:0,0:0:0:0:
192,52,80271,1,2,0:0:0:0:
192,52,80671,2,0,L|125:58,1,55.5000021171571,0|2,0:0|0:0,0:0:0:0:
65,6,81071,2,0,P|49:34|50:74,1,55.5000021171571,0|0,0:0|0:0,0:0:0:0:
84,140,81471,1,0,0:0:0:0:
84,140,81871,2,0,L|139:144,1,55.5000021171571,2|0,0:0|0:0,0:0:0:0:
220,176,82271,2,0,L|258:173,2,27.7500010585785,2|0|0,0:0|0:0|0:0,0:0:0:0:
108,228,82671,6,0,P|155:234|219:335,1,166.500006351471,2|0,0:0|0:0,0:0:0:0:
308,364,83471,1,2,0:0:0:0:
308,364,83871,2,0,L|316:298,1,55.5000021171571,0|2,0:0|0:0,0:0:0:0:
392,260,84271,2,0,L|384:194,1,55.5000021171571,0|2,0:0|0:0,0:0:0:0:
332,136,84671,1,0,0:0:0:0:
332,136,85071,2,0,L|405:104,1,55.5000021171571,2|0,0:0|0:0,0:0:0:0:
460,68,85471,6,2,L|452:212,1,111,0|0,0:0|0:0,0:1:0:0:
468,208,85871,1,6,0:0:0:0:
468,208,91471,6,0,L|477:149,3,37,0|0|0|0,0:0|0:0|0:0|0:0,0:0:0:0:
496,148,91871,2,0,L|406:141,1,74,2|0,0:0|0:0,0:0:0:0:
351,85,92271,6,0,P|335:121|378:224,1,148,4|0,0:0|0:0,0:0:0:0:
324,292,92871,1,0,0:0:0:0:
324,292,93071,2,0,P|377:309|458:339,2,111,2|0|0,0:0|0:0|0:0,0:0:0:0:
232,312,93871,6,0,L|220:231,1,74,2|0,0:0|0:0,0:0:0:0:
166,163,94271,2,0,P|202:146|253:153,1,74,2|0,0:0|0:0,0:0:0:0:
308,208,94671,2,0,P|354:209|399:211,1,74,2|0,0:0|0:0,0:0:0:0:
468,168,95071,1,2,0:0:0:0:
468,168,95471,6,0,P|484:131|446:17,1,148,2|0,0:0|0:0,0:0:0:0:
372,8,96071,1,0,0:0:0:0:
372,8,96271,2,0,P|359:59|341:142,2,111,2|0|0,0:0|0:0|0:0,0:0:0:0:
459,30,97071,6,0,P|446:82|435:129,1,74,2|0,0:0|0:0,0:0:0:0:
456,192,97471,2,0,P|447:227|438:263,1,74,2|0,0:0|0:0,0:0:0:0:
384,340,97871,2,0,P|352:304|348:251,1,74,2|0,0:0|0:0,0:0:0:0:
288,204,98271,1,2,0:0:0:0:
288,204,98671,6,0,L|135:213,1,148,2|0,0:0|0:0,0:0:0:0:
56,244,99271,1,0,0:0:0:0:
56,244,99471,2,0,P|25:201|-25:136,2,111,2|0|0,0:0|0:0|0:0,0:0:0:0:
124,308,100271,6,0,P|146:276|147:231,1,74,2|0,0:0|0:0,0:0:0:0:
96,164,100671,2,0,P|89:119|86:77,1,74,2|0,0:0|0:0,0:0:0:0:
172,48,101071,2,0,P|179:93|182:135,1,74,2|2,0:0|0:0,0:0:0:0:
204,144,101371,1,0,0:0:0:0:
204,144,101471,2,0,P|252:132|342:110,1,111,2|0,0:0|0:0,0:0:0:0:
344,100,101871,6,0,P|347:136|353:173,1,74,4|2,1:2|0:1,0:0:0:0:
396,260,102271,2,0,L|389:301,2,37,2|0|2,0:0|0:0|0:1,0:0:0:0:
492,244,102671,2,0,P|479:210|435:175,1,74,2|2,1:2|0:1,0:0:0:0:
354,163,103071,2,0,P|318:169|276:207,1,74,2|2,0:0|0:1,0:0:0:0:
248,284,103471,6,0,L|255:325,2,37,2|0|2,1:2|0:0|0:1,0:0:0:0:
184,204,103871,2,0,L|188:117,1,74,2|2,0:0|0:1,0:0:0:0:
220,40,104271,2,0,L|170:35,3,37,4|0|2|0,3:0|0:0|0:1|0:0,0:0:0:0:
160,12,104671,2,0,P|124:16|72:25,1,74,0|2,1:0|0:1,0:0:0:0:
8,72,105071,6,0,P|44:88|80:204,1,148,4|0,0:0|0:0,0:0:0:0:
44,264,105671,1,0,0:0:0:0:
44,264,105871,2,0,P|54:325|62:387,2,111,2|0|0,0:0|0:0|0:0,0:0:0:0:
85,182,106671,6,0,P|136:185|174:188,1,74,2|0,0:0|0:0,0:0:0:0:
248,164,107071,2,0,P|225:118|208:83,1,74,2|0,0:0|0:0,0:0:0:0:
150,31,107471,2,0,P|121:73|100:105,1,74,2|0,0:0|0:0,0:0:0:0:
85,182,107871,1,2,0:0:0:0:
85,182,108271,6,0,P|128:197|181:290,1,148,2|0,0:0|0:0,0:0:0:0:
248,344,108871,1,0,0:0:0:0:
248,344,109071,2,0,P|283:317|352:274,2,111,2|0|0,0:0|0:0|0:0,0:0:0:0:
180,280,109871,6,0,L|188:193,1,74,2|0,0:0|0:0,0:0:0:0:
129,134,110271,2,0,P|167:114|218:122,1,74,2|0,0:0|0:0,0:0:0:0:
272,172,110671,2,0,P|308:170|340:152,1,74,2|0,0:0|0:0,0:0:0:0:
372,64,111071,1,2,0:0:0:0:
372,64,111471,6,0,P|368:134|374:228,1,148,2|0,0:0|0:0,0:0:0:0:
397,303,112071,1,0,0:0:0:0:
397,303,112271,2,0,P|355:310|288:253,2,111,2|0|0,0:0|0:0|0:0,0:0:0:0:
480,344,113071,6,0,L|490:258,1,74,2|0,0:0|0:0,0:0:0:0:
456,184,113471,2,0,L|446:98,1,74,2|0,0:0|0:0,0:0:0:0:
496,32,113871,2,0,P|461:17|421:20,1,74,2|2,0:0|0:0,0:0:0:0:
396,36,114171,1,0,0:0:0:0:
396,36,114271,2,0,L|272:31,1,111,2|0,0:0|0:0,0:0:0:0:
252,16,114671,6,0,L|264:96,1,74,4|2,1:2|0:1,0:0:0:0:
208,168,115071,2,0,L|201:212,2,37,2|0|2,0:0|0:0|0:1,0:0:0:0:
164,84,115471,2,0,P|130:79|89:93,1,74,2|2,1:2|0:1,0:0:0:0:
24,156,115871,2,0,P|13:188|19:231,1,74,2|2,0:0|0:1,0:0:0:0:
72,308,116271,6,0,L|79:352,2,37,2|0|2,1:2|0:0|0:1,0:0:0:0:
156,260,116671,2,0,P|200:263|238:267,1,74,2|2,0:0|0:1,0:0:0:0:
308,324,117071,2,0,L|357:317,3,37,4|0|2|0,3:0|0:0|0:1|0:0,0:0:0:0:
376,336,117471,2,0,L|386:237,1,74,0|2,1:0|3:1,0:0:0:0:
456,196,117871,5,12,0:0:0:0:
456,196,118071,1,0,0:0:0:0:
472,100,118271,2,0,P|434:98|388:123,1,74,0|0,1:0|0:0,0:0:0:0:
348,192,118671,2,0,P|313:185|262:180,1,74,2|0,0:0|0:0,0:0:0:0:
184,208,119071,2,0,L|176:128,1,74,0|0,1:0|0:0,0:0:0:0:
252,280,119471,6,0,L|244:353,1,74,2|2,0:0|0:0,0:0:0:0:
144,360,119871,2,0,P|132:321|132:282,1,74,0|2,1:0|0:0,0:0:0:0:
184,208,120271,1,10,0:0:0:0:
84,180,120471,1,8,0:0:0:0:
8,244,120671,1,8,1:2:0:0:
8,244,121071,6,0,P|36:269|62:294,1,74,12|0,0:0|0:0,0:0:0:0:
144,360,121471,1,0,1:0:0:0:
144,360,121671,2,0,B|192:300|140:284|200:216,1,148,0|0,0:0|0:0,0:0:0:0:
148,140,122271,2,0,P|113:143|51:144,1,74,0|0,1:0|0:0,0:0:0:0:
108,52,122671,5,10,0:0:0:0:
204,64,122871,1,8,0:0:0:0:
300,76,123071,2,0,L|365:140,1,74,8|8,1:2|0:0,0:0:0:0:
348,264,123471,2,0,L|243:159,1,148,8|0,0:0|1:0,0:0:0:0:
408,12,124271,5,12,0:0:0:0:
408,12,124471,1,0,0:0:0:0:
472,84,124671,2,0,P|463:129|454:168,1,74,0|0,1:0|0:0,0:0:0:0:
384,220,125071,2,0,P|393:256|407:296,1,74,2|0,0:0|0:0,0:0:0:0:
352,372,125471,2,0,L|451:383,1,74,0|0,1:0|0:0,0:0:0:0:
308,284,125871,6,0,L|234:275,1,74,2|2,0:0|0:0,0:0:0:0:
143,307,126271,2,0,P|138:253|158:220,1,74,0|2,1:0|0:0,0:0:0:0:
228,188,126671,1,10,0:0:0:0:
252,96,126871,1,2,0:0:0:0:
168,56,127071,1,8,1:2:0:0:
168,56,127471,6,0,L|92:59,1,74,12|0,1:2|0:0,0:0:0:0:
48,144,127871,2,0,L|124:147,1,74,2|0,1:2|0:0,0:0:0:0:
184,224,128271,2,0,P|221:205|273:190,1,74,2|0,1:2|0:0,0:0:0:0:
328,136,128671,2,0,P|342:174|355:213,1,74,2|0,1:2|0:0,0:0:0:0:
316,300,129071,5,14,1:2:0:0:
412,276,129271,1,8,0:0:0:0:
508,252,129471,2,0,L|519:166,1,74,8|8,1:2|0:0,0:0:0:0:
444,48,129871,2,0,L|425:194,1,148,12|0,1:2|1:0,0:0:0:0:
448,336,130471,5,0,0:0:0:0:
448,336,130571,1,0,0:0:0:0:
448,336,130671,1,6,0:0:0:0:
488,364,132271,6,8,P|516:336|508:222,1,148,6|8,0:0|0:0,0:0:0:0:
440,176,132871,2,0,P|394:187|288:220,1,148,2|0,0:0|0:0,0:0:0:0:
212,260,133471,2,0,L|203:182,1,74,8|0,0:0|0:0,0:0:0:0:
248,100,133871,6,0,P|192:86|111:158,2,148,2|8|10,0:0|0:0|0:0,0:0:0:0:
288,192,134871,1,8,0:0:0:0:
212,260,135071,2,0,L|220:324,2,49.3333333333333,8|2|0,1:2|0:0|0:0,0:0:0:0:
192,224,135471,6,0,P|151:219|88:212,1,74,2|0,0:0|0:0,0:0:0:0:
28,248,135871,2,0,L|18:158,1,74,8|0,0:0|0:0,0:0:0:0:
0,80,136271,2,0,B|38:71|71:92|71:92|116:103|167:64,1,148,2|8,0:0|0:0,0:0:0:0:
196,4,136871,1,0,0:0:0:0:
268,56,137071,6,0,P|258:95|252:136,1,74,2|0,0:0|0:0,0:0:0:0:
328,172,137471,2,0,P|338:133|344:92,1,74,8|0,0:0|0:0,0:0:0:0:
388,24,137871,2,2,P|444:15|511:95,1,148,0|8,0:0|0:0,0:1:0:0:
427,106,138471,1,8,0:0:0:0:
427,106,138671,6,0,P|427:152|434:270,1,148,10|8,0:0|1:2,0:0:0:0:
348,300,139271,2,0,P|318:261|213:250,1,148,8|8,0:0|0:0,0:0:0:0:
160,176,139871,2,0,P|180:139|200:89,1,74,8|8,1:2|0:0,0:0:0:0:
225,245,140271,6,0,P|202:292|160:380,2,148,2|0|2,0:0|1:0|0:0,0:0:0:0:
160,176,141271,1,8,0:0:0:0:
68,200,141471,2,0,L|5:191,2,49.3333333333333,0|2|0,1:0|0:0|0:0,0:0:0:0:
136,268,141871,6,0,P|185:269|227:240,1,74,4|0,0:0|0:0,0:0:0:0:
256,176,142271,2,0,L|249:99,1,74,0|0,1:0|0:0,0:0:0:0:
208,16,142671,1,4,0:0:0:0:
304,32,142871,1,8,0:0:0:0:
400,48,143071,2,0,L|393:121,1,74,0|8,1:0|0:0,0:0:0:0:
452,196,143471,6,0,P|419:215|351:207,1,74,4|2,0:0|0:0,0:0:0:0:
308,164,143871,2,0,P|264:167|227:172,1,74,0|2,1:0|0:0,0:0:0:0:
151,217,144271,2,0,P|138:177|153:119,1,74,4|2,0:0|0:0,0:0:0:0:
76,72,144671,2,0,L|82:11,2,49.3333333333333,0|2|0,1:0|1:2|1:0,1:1:0:0:
40,100,145071,6,0,P|52:136|0:232,1,148,6|8,0:0|0:0,0:0:0:0:
20,324,145671,2,0,P|59:307|188:264,1,148,2|0,0:0|0:0,0:0:0:0:
232,212,146271,2,0,P|285:216|325:218,1,74,8|0,0:0|0:0,0:0:0:0:
388,164,146671,6,0,P|403:201|352:303,2,148,2|8|10,0:0|0:0|0:0,0:0:0:0:
304,116,147671,1,8,0:0:0:0:
208,104,147871,2,0,L|215:169,2,49.3333333333333,8|2|0,1:2|0:0|0:0,0:0:0:0:
184,68,148271,6,0,P|224:42|266:42,1,74,2|0,0:0|0:0,0:0:0:0:
348,40,148671,2,0,P|383:71|394:112,1,74,8|0,0:0|0:0,0:0:0:0:
448,176,149071,2,0,P|436:230|421:333,1,148,2|8,0:0|0:0,0:0:0:0:
336,280,149671,1,0,0:0:0:0:
272,344,149871,6,0,P|248:306|250:265,1,74,2|0,0:0|0:0,0:0:0:0:
188,208,150271,2,0,P|225:180|261:151,1,74,8|0,0:0|0:0,0:0:0:0:
336,152,150671,2,2,P|321:111|219:78,1,148,2|8,0:0|0:0,0:1:0:0:
156,24,151271,1,8,0:0:0:0:
156,24,151471,6,0,P|138:67|100:176,1,148,10|8,0:0|1:2,0:0:0:0:
8,184,152071,2,0,P|56:184|112:284,1,148,8|8,0:0|0:0,0:0:0:0:
92,348,152671,2,0,L|14:360,1,74,8|8,1:2|0:0,0:0:0:0:
114,256,153071,6,0,L|291:226,2,148,2|0|2,0:0|1:0|0:0,0:0:0:0:
32,208,154071,1,8,0:0:0:0:
84,128,154271,2,0,L|74:67,2,49.3333333333333,0|2|0,1:0|0:0|0:0,0:0:0:0:
112,156,154671,6,0,P|144:140|191:126,1,74,12|0,0:0|0:0,0:0:0:0:
264,80,155071,2,0,P|274:132|259:178,1,74,0|0,1:0|0:0,0:0:0:0:
196,220,155471,1,4,0:0:0:0:
277,273,155671,1,8,0:0:0:0:
358,327,155871,2,0,L|369:249,1,74,0|8,0:0|0:0,0:0:0:0:
432,184,156271,6,0,P|449:164|457:112,1,74,4|2,0:0|0:0,0:0:0:0:
420,28,156671,2,0,L|332:34,1,74,0|2,1:0|0:0,0:0:0:0:
264,80,157071,2,0,L|190:74,1,74,4|2,0:0|0:0,0:0:0:0:
100,112,157471,2,0,L|91:43,2,49.3333333333333,0|2|0,1:0|1:2|1:0,0:0:0:0:
124,144,157871,6,0,P|131:185|92:273,1,133.199995935059,4|2,0:0|0:0,0:0:0:0:
21,295,158471,2,0,L|168:337,1,133.199995935059,0|0,0:0|0:0,0:0:0:0:
221,379,159071,2,0,P|234:341|227:299,1,66.5999979675294,2|0,0:0|0:0,0:0:0:0:
284,248,159471,6,0,P|278:187|273:100,2,133.199995935059,0|2|0,0:0|0:0|0:0,0:0:0:0:
340,336,160471,1,0,0:0:0:0:
340,336,160571,1,0,0:0:0:0:
340,336,160671,2,2,P|370:296|441:292,1,111,2|0,0:1|0:0,0:1:0:0:
456,300,161071,6,0,P|449:242|445:208,1,74,4|0,0:0|0:0,0:0:0:0:
380,160,161471,2,0,P|411:136|465:134,1,74,0|0,1:0|0:0,0:0:0:0:
512,64,161871,1,4,0:0:0:0:
420,40,162071,1,8,0:0:0:0:
328,16,162271,2,0,L|323:110,1,74,0|8,1:0|0:0,0:0:0:0:
272,172,162671,6,0,P|269:211|285:258,1,74,4|2,0:0|0:0,0:0:0:0:
232,328,163071,2,0,L|150:297,1,74,0|2,1:0|0:0,0:0:0:0:
76,344,163471,2,0,P|66:308|70:271,1,74,4|2,0:0|0:0,0:0:0:0:
52,176,163871,2,0,L|-15:187,2,49.3333333333333,0|2|0,1:0|1:2|0:0,0:0:0:0:
80,148,164271,6,0,P|130:143|226:171,1,133.199995935059,4|0,0:0|0:0,0:0:0:0:
328,236,165071,2,0,P|330:179|336:113,2,99.899996951294,2|2|2,0:0|0:0|0:0,0:0:0:0:
272,304,165871,6,0,P|301:321|403:276,1,133.199995935059,4|0,0:0|0:0,0:0:0:0:
480,288,166471,2,0,P|474:256|454:136,1,133.199995935059,2|0,0:0|0:0,0:0:0:0:
464,68,167071,1,2,0:0:0:0:
464,68,167471,6,0,P|403:107|347:147,1,133.199995935059,4|0,0:0|0:0,0:0:0:0:
276,92,168071,2,0,P|261:132|313:224,1,133.199995935059,2|0,0:0|0:0,0:0:0:0:
376,244,168671,2,0,P|409:238|445:234,1,66.5999979675294,2|0,0:0|0:0,0:0:0:0:
293,211,169071,6,0,P|235:218|138:229,1,133.199995935059,2|2,0:1|0:0,0:0:0:0:
12,96,169871,5,4,3:0:0:0:
12,96,169971,1,0,0:0:0:0:
12,96,170071,1,2,0:1:0:0:
12,96,170171,1,0,0:0:0:0:
12,96,170271,2,2,L|124:100,1,96.1999955963137,8|2,0:0|0:1,0:1:0:0:
224,136,170671,5,4,0:0:0:0:
192,16,170871,1,2,0:1:0:0:
224,136,171071,2,0,B|230:180|230:180|217:233,1,85.1000016231537,8|2,0:0|0:1,0:0:0:0:
168,328,171471,2,2,L|277:321,1,85.1000016231537,2|2,0:0|0:1,0:1:0:0:
292,344,171771,2,2,L|437:334,1,127.650002434731,2|2,0:1|0:1,0:1:0:0:
512,256,172271,5,2,0:0:0:0:
400,208,172471,1,2,0:1:0:0:
512,256,172671,2,0,B|504:213|504:213|510:157,1,85.1000016231537,8|2,0:0|0:1,0:0:0:0:
424,84,173071,2,2,L|325:93,1,85.1000016231537,2|2,0:0|0:1,0:1:0:0:
304,120,173371,2,2,B|247:93|247:93|171:107,1,127.650002434731,2|2,0:1|0:1,0:1:0:0:
72,80,173871,6,0,L|83:164,1,85.1000016231537,2|2,0:0|0:1,0:0:0:0:
180,220,174271,2,0,L|171:274,2,42.5500008115769,2|0|2,0:0|0:0|0:1,0:0:0:0:
268,148,174671,2,0,P|310:147|346:167,1,85.1000016231537,2|2,0:0|0:1,0:0:0:0:
452,200,175071,2,0,L|440:284,1,85.1000016231537,2|2,0:0|0:1,0:0:0:0:
352,372,175471,6,2,L|340:287,1,85.1000016231537,4|2,0:0|0:1,0:1:0:0:
352,248,175771,2,2,P|307:286|211:265,1,127.650002434731,2|2,0:1|0:1,0:1:0:0:
126,182,176271,6,2,L|273:189,1,144.299993394471,4|0,0:0|0:0,0:1:0:0:
300,160,176671,1,10,0:0:0:0:
300,160,177071,6,0,L|290:59,1,85.1000016231537,4|2,0:0|0:1,0:0:0:0:
400,44,177471,2,0,L|408:2,2,42.5500008115769,2|0|2,0:0|0:0|0:1,0:0:0:0:
456,140,177871,2,0,P|426:176|422:223,1,85.1000016231537,2|2,0:0|0:1,0:0:0:0:
340,288,178271,2,0,P|293:286|253:312,1,85.1000016231537,2|2,0:0|0:1,0:0:0:0:
168,244,178671,6,0,L|126:235,2,42.5500008115769,2|0|2,0:0|0:0|0:1,0:0:0:0:
264,192,179071,2,0,P|283:150|271:97,1,85.1000016231537,2|2,0:0|0:1,0:0:0:0:
196,40,179471,2,0,L|92:48,1,85.1000016231537,2|2,0:0|0:1,0:0:0:0:
12,92,179871,2,0,L|0:50,2,42.5500008115769,2|0|2,0:0|0:0|0:1,0:0:0:0:
100,184,180271,6,0,P|80:229|87:285,1,85.1000016231537,12|2,0:0|0:1,0:0:0:0:
88,376,180671,2,0,L|127:360,2,42.5500008115769,2|0|2,0:0|0:0|0:1,0:0:0:0:
5,294,181071,2,0,P|46:266|104:271,1,85.1000016231537,2|2,0:0|0:1,0:0:0:0:
188,292,181471,2,0,L|306:293,1,85.1000016231537,2|2,0:0|0:1,0:0:0:0:
376,344,181871,6,0,L|386:301,3,42.5500008115769,12|0|2|0,0:0|0:0|0:0|0:0,0:0:0:0:
416,280,182271,2,0,P|409:232|401:166,1,85.1000016231537,8|2,0:0|0:0,0:0:0:0:
468,104,182671,2,0,L|425:83,3,42.5500008115769,12|0|2|0,0:0|0:0|0:0|0:0,0:0:0:0:
408,56,183071,2,0,P|364:56|324:87,1,85.1000016231537,2|2,1:0|0:0,0:0:0:0:
288,176,183471,5,12,0:0:0:0:
288,176,183671,1,0,0:0:0:0:
224,100,183871,2,0,P|177:93|133:85,1,74,0|0,1:0|0:0,0:0:0:0:
72,32,184271,2,0,P|53:73|59:124,1,74,2|0,0:0|0:0,0:0:0:0:
4,184,184671,2,0,P|40:190|77:195,1,74,2|0,1:2|0:0,0:0:0:0:
244,188,185071,6,0,P|207:181|170:176,1,74,2|2,0:0|0:0,0:0:0:0:
77,195,185471,2,0,L|89:281,1,74,0|2,1:0|0:0,0:0:0:0:
120,356,185871,1,2,0:0:0:0:
180,284,186071,1,0,0:0:0:0:
264,336,186271,1,2,1:2:0:0:
264,336,186671,6,0,L|356:341,1,74,0|0,0:0|0:0,0:0:0:0:
428,368,187071,2,0,P|432:328|416:289,1,74,0|0,1:0|0:0,0:0:0:0:
360,224,187471,2,0,P|352:185|345:126,1,74,2|0,0:0|0:0,0:0:0:0:
312,64,187871,2,0,L|385:59,1,74,2|0,1:2|0:0,0:0:0:0:
472,108,188271,5,2,0:0:0:0:
452,204,188471,1,2,0:0:0:0:
432,300,188671,2,0,L|354:328,1,74,0|2,1:0|0:0,0:0:0:0:
219,271,189071,2,0,L|359:223,1,148,2|2,0:0|1:2,0:0:0:0:
184,92,189871,5,12,0:0:0:0:
184,92,190071,1,0,0:0:0:0:
216,0,190271,2,0,P|237:17|272:58,1,74,0|0,1:0|0:0,0:0:0:0:
332,124,190671,2,0,P|369:106|411:90,1,74,2|0,0:0|0:0,0:0:0:0:
496,96,191071,2,0,L|490:7,1,74,2|0,1:2|0:0,0:0:0:0:
448,176,191471,6,0,L|452:249,1,74,2|2,0:0|0:0,0:0:0:0:
508,328,191871,2,0,P|474:347|431:345,1,74,0|2,1:0|0:0,0:0:0:0:
368,284,192271,1,2,0:0:0:0:
316,364,192471,1,0,0:0:0:0:
236,312,192671,1,2,1:2:0:0:
236,312,193071,6,0,P|229:270|204:156,1,148,2|0,0:0|1:0,0:0:0:0:
276,100,193671,2,0,P|336:139|423:110,1,148
472,196,194271,2,0,P|437:217|387:255,1,74,2|0,1:2|0:0,0:0:0:0:
360,324,194671,5,2,0:0:0:0:
320,236,194871,1,2,0:0:0:0:
280,148,195071,2,0,L|282:52,1,74,0|2,1:0|0:0,0:0:0:0:
380,4,195471,2,0,L|375:151,1,148,6|2,0:0|1:2,0:0:0:0:
200,200,196071,5,0,0:0:0:0:
200,200,196171,1,0,0:0:0:0:
200,200,196271,1,12,0:0:0:0:
200,200,199471,6,0,P|167:209|93:230,1,111.000004234314,2|12,0:0|1:2,0:0:0:0:
13,281,200071,6,0,P|0:210|40:150,1,148,2|0,0:0|0:0,0:0:0:0:
88,64,200671,2,0,P|118:77|168:97,1,74,8|0,0:0|0:0,0:0:0:0:
240,140,201071,6,0,P|276:103|390:122,2,148,2|8|10,0:0|0:0|0:0,0:0:0:0:
156,188,202071,1,8,0:0:0:0:
240,244,202271,2,0,L|299:238,2,49.3333333333333,8|2|0,1:2|0:0|0:0,0:0:0:0:
208,272,202671,6,0,P|157:288|107:305,1,74,2|0,0:0|0:0,0:0:0:0:
85,210,203071,2,0,P|136:194|186:177,1,74,8|0,0:0|0:0,0:0:0:0:
232,124,203471,2,0,B|312:108|300:156|384:140,1,148,2|8,0:0|0:0,0:0:0:0:
452,84,204071,1,0,0:0:0:0:
508,152,204271,6,0,P|502:193|498:234,1,74,2|0,0:0|0:0,0:0:0:0:
504,316,204671,2,0,L|418:301,1,74,8|0,0:0|0:0,0:0:0:0:
352,352,205071,2,2,P|336:312|391:219,1,148,2|8,0:0|0:0,0:1:0:0:
360,140,205671,1,8,0:0:0:0:
360,140,205871,6,0,P|313:154|198:179,1,148,12|8,0:0|1:2,0:0:0:0:
120,184,206471,2,0,P|122:135|138:18,1,148,8|8,0:0|0:0,0:0:0:0:
228,60,207071,2,0,P|263:53|314:43,1,74,8|8,1:2|0:0,0:0:0:0:
135,36,207471,6,0,P|75:49|-20:66,2,148,2|0|2,0:0|1:0|0:0,0:0:0:0:
228,60,208471,1,8,0:0:0:0:
324,52,208671,2,0,L|331:-2,2,49.3333333333333,0|2|0,1:0|0:0|0:0,0:0:0:0:
344,88,209071,6,0,L|333:168,1,74,4|0,0:0|0:0,0:0:0:0:
376,248,209471,2,0,P|339:252|286:264,1,74,0|0,1:0|0:0,0:0:0:0:
220,312,209871,1,4,0:0:0:0:
184,220,210071,1,8,0:0:0:0:
148,128,210271,2,0,L|161:34,1,74,0|8,1:0|0:0,0:0:0:0:
68,92,210671,6,0,P|61:139|86:193,1,74,4|2,0:0|0:0,0:0:0:0:
148,220,211071,2,0,L|134:296,1,74,0|2,1:0|0:0,0:0:0:0:
109,384,211471,2,0,P|156:383|205:350,1,74,4|2,0:0|0:0,0:0:0:0:
268,328,211871,2,0,L|346:339,2,49.3333333333333,0|2|0,1:0|1:2|0:0,0:0:0:0:
240,296,212271,6,0,P|266:253|242:146,1,148,6|8,0:0|0:0,0:0:0:0:
340,124,212871,2,0,P|372:165|447:245,1,148,2|0,0:0|0:0,0:0:0:0:
512,298,213471,2,0,P|530:265|524:202,1,74,8|0,0:0|0:0,0:0:0:0:
476,148,213871,6,0,L|464:-20,2,148,2|8|10,0:0|0:0|0:0,0:0:0:0:
437,235,214871,1,8,0:0:0:0:
396,320,215071,2,0,L|392:369,2,49.3333333333333,8|2|0,1:2|0:0|0:0,0:0:0:0:
364,292,215471,6,0,P|344:292|278:298,1,74,2|0,0:0|0:0,0:0:0:0:
212,240,215871,2,0,P|195:278|196:322,1,74,8|0,0:0|0:0,0:0:0:0:
120,372,216271,2,0,P|108:326|73:213,1,148,2|8,0:0|0:0,0:0:0:0:
16,160,216871,1,0,0:0:0:0:
48,76,217071,6,0,P|89:77|133:80,1,74,2|0,0:0|0:0,0:0:0:0:
176,152,217471,2,0,P|212:150|249:148,1,74,8|0,0:0|0:0,0:0:0:0:
328,192,217871,2,2,P|339:139|262:60,1,148,2|8,0:0|0:0,0:1:0:0:
200,56,218471,1,0,0:0:0:0:
200,56,218671,6,0,P|181:126|161:212,1,148,10|8,0:0|1:2,0:0:0:0:
72,236,219271,2,0,P|96:275|202:288,1,148,8|8,0:0|0:0,0:0:0:0:
268,232,219871,2,0,P|307:235|353:237,1,74,8|8,1:2|0:0,0:0:0:0:
190,293,220271,6,0,P|143:297|31:312,2,148,2|0|2,0:0|1:0|0:0,0:0:0:0:
268,232,221271,1,8,0:0:0:0:
192,168,221471,2,0,P|167:170|133:175,2,49.3333333333333,0|2|0,1:0|0:0|0:0,0:0:0:0:
228,144,221871,6,0,P|240:108|231:50,1,74,8|0,0:0|0:0,0:0:0:0:
308,8,222271,2,0,P|328:39|328:95,1,74,0|0,1:0|0:0,0:0:0:0:
392,152,222671,1,2,0:0:0:0:
344,236,222871,1,8,0:0:0:0:
296,320,223071,2,0,L|189:309,1,74,0|8,1:0|0:0,0:0:0:0:
140,368,223471,6,0,P|124:329|130:281,1,74,4|2,0:0|0:0,0:0:0:0:
76,216,223871,2,0,P|86:172|96:125,1,74,0|2,1:0|0:0,0:0:0:0:
40,64,224271,2,0,P|75:48|121:54,1,74,4|2,0:0|0:0,0:0:0:0:
200,88,224671,2,0,P|207:63|215:38,2,49.3333333333333,0|2|0,1:0|1:2|1:0,0:0:0:0:
180,124,225071,6,0,P|192:175|208:268,1,133.199995935059,6|0,0:0|0:0,0:0:0:0:
188,337,225671,2,0,P|228:337|289:248,1,133.199995935059,2|0,0:0|0:0,0:0:0:0:
344,212,226271,2,0,P|381:215|438:223,1,66.5999979675294,2|0,0:0|0:0,0:0:0:0:
484,264,226671,6,0,L|495:123,2,133.199995935059,2|2|2,0:0|0:0|0:0,0:0:0:0:
400,320,227671,5,0,0:0:0:0:
400,320,227771,1,0,0:0:0:0:
400,320,227871,2,2,P|374:295|289:300,1,111,0|0,0:0|0:0,0:1:0:0:
276,316,228271,6,0,P|271:277|267:229,1,74,4|0,0:0|0:0,0:0:0:0:
188,192,228671,2,0,P|215:161|278:152,1,74,0|0,1:0|0:0,0:0:0:0:
336,112,229071,1,4,0:0:0:0:
252,56,229271,1,8,0:0:0:0:
168,0,229471,2,0,P|161:36|156:76,1,74,0|8,1:0|0:0,0:0:0:0:
177,167,229871,6,0,P|140:169|106:156,1,74,4|2,0:0|0:0,0:0:0:0:
16,124,230271,2,0,P|20:161|27:227,1,74,0|2,1:0|0:0,0:0:0:0:
20,292,230671,2,0,P|54:278|91:280,1,74,8|2,0:0|0:0,0:0:0:0:
180,320,231071,2,0,L|190:256,2,49.3333333333333,0|2|0,1:0|1:2|0:0,0:0:0:0:
188,360,231471,5,4,0:0:0:0:
