osu file format v13

[General]
AudioFilename: .mp3
AudioLeadIn: 0
PreviewTime: -1
Countdown: 1
SampleSet: Soft
StackLeniency: 0.7
Mode: 3
LetterboxInBreaks: 1
SpecialStyle: 0
WidescreenStoryboard: 0

[Editor]
DistanceSpacing: 0.9
BeatDivisor: 4
GridSize: 32
TimelineZoom: 0.7

[Metadata]
Title:Tinmoku no Kanade
TitleUnicode:沈黙のカナデ
Artist:Yuuhei Catharsis
ArtistUnicode:幽閉カタルシス
Creator:DaraDara
Version:Hard
Source:Kantai Collection
Tags:kancolle senya mayumi morinaga
BeatmapID:608739
BeatmapSetID:267327

[Difficulty]
HPDrainRate:6
CircleSize:7
OverallDifficulty:6
ApproachRate:5
SliderMultiplier:1.4
SliderTickRate:1

[Events]
//Background and Video events
0,0,"kanade.jpg",0,0
//Break Periods
//Storyboard Layer 0 (Background)
//Storyboard Layer 1 (Fail)
//Storyboard Layer 2 (Pass)
//Storyboard Layer 3 (Foreground)
//Storyboard Sound Samples

[TimingPoints]
-656,434.782608695652,4,2,0,25,1,0
180213,-333.333333333333,4,2,0,25,0,0
180648,-100,4,2,0,25,0,0
219343,-333.333333333333,4,2,0,25,0,0
219778,-100,4,2,0,25,0,0
221083,-333.333333333333,4,2,0,25,0,0
221517,-100,4,2,0,25,0,0

[HitObjects]
109,192,1083,128,0,1517:0:0:0:0:
36,192,1517,1,0,0:0:0:0:
182,192,1626,1,0,0:0:0:0:
182,192,1844,1,0,0:0:0:0:
256,192,1952,128,0,2387:0:0:0:0:
182,192,2387,1,0,0:0:0:0:
329,192,2604,1,0,0:0:0:0:
256,192,2822,128,0,3257:0:0:0:0:
475,192,3257,1,0,0:0:0:0:
402,192,3365,1,0,0:0:0:0:
402,192,3583,1,0,0:0:0:0:
475,192,3691,128,0,4126:0:0:0:0:
36,192,3691,128,0,4126:0:0:0:0:
109,192,4126,1,0,0:0:0:0:
182,192,4344,1,0,0:0:0:0:
256,192,4561,128,0,4996:0:0:0:0:
402,192,4996,1,0,0:0:0:0:
329,192,5104,1,0,0:0:0:0:
256,192,5213,1,0,0:0:0:0:
182,192,5322,1,0,0:0:0:0:
109,192,5430,128,0,5865:0:0:0:0:
402,192,5865,1,0,0:0:0:0:
329,192,6083,1,0,0:0:0:0:
256,192,6300,1,0,0:0:0:0:
182,192,6517,1,0,0:0:0:0:
109,192,6735,1,0,0:0:0:0:
256,192,6844,1,0,0:0:0:0:
182,192,6952,1,0,0:0:0:0:
256,192,7061,1,0,0:0:0:0:
109,192,7170,128,0,7604:0:0:0:0:
256,192,7604,128,0,8039:0:0:0:0:
36,192,8039,1,0,0:0:0:0:
182,192,8039,1,0,0:0:0:0:
402,192,8039,1,0,0:0:0:0:
475,192,8148,1,0,0:0:0:0:
36,192,8257,1,0,0:0:0:0:
36,192,8691,1,0,0:0:0:0:
475,192,8800,1,0,0:0:0:0:
36,192,8909,1,0,0:0:0:0:
182,192,8909,1,0,0:0:0:0:
402,192,8909,1,0,0:0:0:0:
475,192,9017,1,0,0:0:0:0:
36,192,9126,1,0,0:0:0:0:
475,192,9235,1,0,0:0:0:0:
36,192,9561,1,0,0:0:0:0:
475,192,9670,1,0,0:0:0:0:
36,192,9778,1,0,0:0:0:0:
182,192,9778,1,0,0:0:0:0:
402,192,9778,1,0,0:0:0:0:
475,192,9887,1,0,0:0:0:0:
36,192,9996,1,0,0:0:0:0:
475,192,10104,1,0,0:0:0:0:
36,192,10430,1,0,0:0:0:0:
475,192,10539,1,0,0:0:0:0:
36,192,10648,1,0,0:0:0:0:
182,192,10648,1,0,0:0:0:0:
402,192,10648,1,0,0:0:0:0:
475,192,10757,1,0,0:0:0:0:
36,192,10865,1,0,0:0:0:0:
475,192,10974,1,0,0:0:0:0:
36,192,11300,1,0,0:0:0:0:
475,192,11409,1,0,0:0:0:0:
36,192,11517,1,0,0:0:0:0:
182,192,11517,1,0,0:0:0:0:
256,192,11517,128,0,13257:0:0:0:0:
475,192,11626,1,0,0:0:0:0:
36,192,11735,1,0,0:0:0:0:
475,192,11844,1,0,0:0:0:0:
36,192,11952,1,0,0:0:0:0:
182,192,11952,1,0,0:0:0:0:
475,192,12061,1,0,0:0:0:0:
36,192,12170,1,0,0:0:0:0:
475,192,12278,1,0,0:0:0:0:
36,192,12387,1,0,0:0:0:0:
182,192,12387,1,0,0:0:0:0:
475,192,12496,1,0,0:0:0:0:
36,192,12604,1,0,0:0:0:0:
475,192,12713,1,0,0:0:0:0:
36,192,12822,1,0,0:0:0:0:
182,192,12822,1,0,0:0:0:0:
475,192,12930,1,0,0:0:0:0:
36,192,13039,1,0,0:0:0:0:
475,192,13148,1,0,0:0:0:0:
36,192,13257,1,0,0:0:0:0:
182,192,13257,1,0,0:0:0:0:
402,192,13257,128,0,14996:0:0:0:0:
36,192,13691,1,0,0:0:0:0:
182,192,13691,1,0,0:0:0:0:
256,192,14126,1,0,0:0:0:0:
36,192,14561,1,0,0:0:0:0:
182,192,14561,1,0,0:0:0:0:
256,192,14996,1,0,0:0:0:0:
182,192,15430,1,0,0:0:0:0:
36,192,15430,1,0,0:0:0:0:
109,192,15865,1,0,0:0:0:0:
182,192,15974,1,0,0:0:0:0:
256,192,16083,1,0,0:0:0:0:
329,192,16191,1,0,0:0:0:0:
182,192,16300,1,0,0:0:0:0:
256,192,16409,1,0,0:0:0:0:
329,192,16517,1,0,0:0:0:0:
402,192,16626,1,0,0:0:0:0:
109,192,16735,1,0,0:0:0:0:
475,192,16952,1,0,0:0:0:0:
36,192,17170,1,0,0:0:0:0:
109,192,17170,1,0,0:0:0:0:
182,192,17278,1,0,0:0:0:0:
109,192,17604,1,0,0:0:0:0:
256,192,17930,1,0,0:0:0:0:
329,192,18257,1,0,0:0:0:0:
109,192,18365,1,0,0:0:0:0:
182,192,18474,1,0,0:0:0:0:
256,192,18691,1,0,0:0:0:0:
256,192,18909,1,0,0:0:0:0:
329,192,19126,1,0,0:0:0:0:
109,192,19344,1,0,0:0:0:0:
182,192,19452,1,0,0:0:0:0:
256,192,19561,1,0,0:0:0:0:
329,192,19670,1,0,0:0:0:0:
182,192,19778,1,0,0:0:0:0:
256,192,19887,1,0,0:0:0:0:
329,192,19996,1,0,0:0:0:0:
402,192,20104,1,0,0:0:0:0:
182,192,20213,128,0,21083:0:0:0:0:
109,192,20213,1,0,0:0:0:0:
329,192,20648,1,0,0:0:0:0:
329,192,21083,128,0,22822:0:0:0:0:
402,192,21083,1,0,0:0:0:0:
182,192,21517,1,0,0:0:0:0:
109,192,21952,1,0,0:0:0:0:
256,192,22387,1,0,0:0:0:0:
36,192,22822,1,0,0:0:0:0:
402,192,22822,128,0,23257:0:0:0:0:
109,192,22930,1,0,0:0:0:0:
182,192,23039,1,0,0:0:0:0:
256,192,23148,1,0,0:0:0:0:
182,192,23257,1,0,0:0:0:0:
475,192,23257,128,0,23583:0:0:0:0:
256,192,23365,1,0,0:0:0:0:
329,192,23474,1,0,0:0:0:0:
402,192,23583,1,0,0:0:0:0:
36,192,23691,1,0,0:0:0:0:
475,192,23691,128,0,24126:0:0:0:0:
402,192,24126,128,0,26300:0:0:0:0:
256,192,24126,1,0,0:0:0:0:
109,192,24126,1,0,0:0:0:0:
256,192,24561,1,0,0:0:0:0:
109,192,24996,1,0,0:0:0:0:
256,192,24996,1,0,0:0:0:0:
256,192,25430,1,0,0:0:0:0:
109,192,25865,1,0,0:0:0:0:
256,192,25865,1,0,0:0:0:0:
256,192,26300,1,0,0:0:0:0:
109,192,26300,1,0,0:0:0:0:
109,192,26517,1,0,0:0:0:0:
256,192,26517,1,0,0:0:0:0:
402,192,26517,1,0,0:0:0:0:
256,192,26735,128,0,27170:0:0:0:0:
475,192,26735,128,0,27170:0:0:0:0:
36,192,26735,128,0,27170:0:0:0:0:
182,192,27170,1,0,0:0:0:0:
109,192,27604,1,0,0:0:0:0:
402,192,27604,128,0,28039:0:0:0:0:
182,192,28039,1,0,0:0:0:0:
402,192,28257,1,0,0:0:0:0:
109,192,28474,1,0,0:0:0:0:
329,192,28474,1,0,0:0:0:0:
402,192,28691,1,0,0:0:0:0:
182,192,28909,1,0,0:0:0:0:
329,192,28909,128,0,29235:0:0:0:0:
402,192,29235,128,0,30213:0:0:0:0:
109,192,29343,1,0,0:0:0:0:
182,192,29778,1,0,0:0:0:0:
182,192,29996,1,0,0:0:0:0:
109,192,30213,1,0,0:0:0:0:
256,192,30213,1,0,0:0:0:0:
182,192,30648,1,0,0:0:0:0:
475,192,30648,1,0,0:0:0:0:
256,192,30648,128,0,30974:0:0:0:0:
36,192,30648,1,0,0:0:0:0:
402,192,30865,1,0,0:0:0:0:
329,192,30974,128,0,31300:0:0:0:0:
109,192,31083,1,0,0:0:0:0:
402,192,31300,128,0,33257:0:0:0:0:
36,192,31300,1,0,0:0:0:0:
182,192,31517,1,0,0:0:0:0:
475,192,31735,1,0,0:0:0:0:
109,192,31952,1,0,0:0:0:0:
329,192,32170,1,0,0:0:0:0:
182,192,32387,1,0,0:0:0:0:
256,192,32604,1,0,0:0:0:0:
109,192,32822,1,0,0:0:0:0:
475,192,32822,128,0,33257:0:0:0:0:
182,192,33257,1,0,0:0:0:0:
36,192,33257,1,0,0:0:0:0:
36,192,33365,1,0,0:0:0:0:
182,192,33365,1,0,0:0:0:0:
329,192,33474,1,0,0:0:0:0:
475,192,33474,1,0,0:0:0:0:
109,192,33691,1,0,0:0:0:0:
256,192,33691,1,0,0:0:0:0:
109,192,33800,1,0,0:0:0:0:
256,192,33800,1,0,0:0:0:0:
329,192,33909,1,0,0:0:0:0:
475,192,33909,1,0,0:0:0:0:
475,192,34126,1,0,0:0:0:0:
182,192,34126,1,0,0:0:0:0:
109,192,34561,1,0,0:0:0:0:
329,192,34561,128,0,34996:0:0:0:0:
182,192,34996,1,0,0:0:0:0:
36,192,35213,1,0,0:0:0:0:
109,192,35430,1,0,0:0:0:0:
36,192,35430,1,0,0:0:0:0:
256,192,35648,1,0,0:0:0:0:
182,192,35865,1,0,0:0:0:0:
329,192,35865,128,0,36191:0:0:0:0:
402,192,36191,128,0,36517:0:0:0:0:
109,192,36300,1,0,0:0:0:0:
475,192,36517,128,0,39343:0:0:0:0:
182,192,36735,1,0,0:0:0:0:
109,192,37170,1,0,0:0:0:0:
182,192,37604,1,0,0:0:0:0:
256,192,37604,1,0,0:0:0:0:
329,192,37822,1,0,0:0:0:0:
109,192,38039,1,0,0:0:0:0:
402,192,38039,1,0,0:0:0:0:
36,192,38257,1,0,0:0:0:0:
182,192,38474,1,0,0:0:0:0:
256,192,38474,1,0,0:0:0:0:
329,192,38691,1,0,0:0:0:0:
109,192,38909,1,0,0:0:0:0:
402,192,38909,1,0,0:0:0:0:
36,192,39126,1,0,0:0:0:0:
182,192,39343,1,0,0:0:0:0:
256,192,39343,1,0,0:0:0:0:
329,192,39561,1,0,0:0:0:0:
109,192,39778,1,0,0:0:0:0:
402,192,39778,1,0,0:0:0:0:
36,192,39996,1,0,0:0:0:0:
182,192,40213,1,0,0:0:0:0:
329,192,40213,1,0,0:0:0:0:
182,192,40430,1,0,0:0:0:0:
329,192,40430,1,0,0:0:0:0:
402,192,40648,128,0,41083:0:0:0:0:
109,192,40648,128,0,41083:0:0:0:0:
36,192,41083,1,0,0:0:0:0:
475,192,41083,1,0,0:0:0:0:
329,192,41083,1,0,0:0:0:0:
402,192,41517,1,0,0:0:0:0:
256,192,41517,128,0,41952:0:0:0:0:
329,192,41952,1,0,0:0:0:0:
256,192,42170,1,0,0:0:0:0:
402,192,42387,1,0,0:0:0:0:
182,192,42387,1,0,0:0:0:0:
109,192,42604,1,0,0:0:0:0:
329,192,42822,1,0,0:0:0:0:
36,192,42822,128,0,43148:0:0:0:0:
109,192,43148,128,0,43474:0:0:0:0:
402,192,43257,1,0,0:0:0:0:
182,192,43474,128,0,44126:0:0:0:0:
329,192,43691,1,0,0:0:0:0:
402,192,44126,1,0,0:0:0:0:
36,192,44126,1,0,0:0:0:0:
329,192,44561,1,0,0:0:0:0:
36,192,44561,128,0,44887:0:0:0:0:
256,192,44778,1,0,0:0:0:0:
109,192,44887,128,0,45213:0:0:0:0:
402,192,44996,1,0,0:0:0:0:
182,192,45213,128,0,46735:0:0:0:0:
475,192,45213,1,0,0:0:0:0:
329,192,45430,1,0,0:0:0:0:
109,192,45648,1,0,0:0:0:0:
402,192,45865,1,0,0:0:0:0:
36,192,46083,1,0,0:0:0:0:
329,192,46300,1,0,0:0:0:0:
256,192,46517,1,0,0:0:0:0:
402,192,46735,128,0,47170:0:0:0:0:
329,192,47170,1,0,0:0:0:0:
475,192,47170,1,0,0:0:0:0:
475,192,47278,1,0,0:0:0:0:
329,192,47278,1,0,0:0:0:0:
182,192,47387,1,0,0:0:0:0:
36,192,47387,1,0,0:0:0:0:
256,192,47604,1,0,0:0:0:0:
402,192,47604,1,0,0:0:0:0:
256,192,47713,1,0,0:0:0:0:
402,192,47713,1,0,0:0:0:0:
182,192,47822,1,0,0:0:0:0:
36,192,47822,1,0,0:0:0:0:
109,192,48039,1,0,0:0:0:0:
475,192,48257,1,0,0:0:0:0:
256,192,48474,128,0,48909:0:0:0:0:
475,192,48691,1,0,0:0:0:0:
256,192,49126,1,0,0:0:0:0:
475,192,49126,1,0,0:0:0:0:
182,192,49343,1,0,0:0:0:0:
182,192,49561,1,0,0:0:0:0:
475,192,49561,1,0,0:0:0:0:
402,192,49778,1,0,0:0:0:0:
109,192,49778,1,0,0:0:0:0:
182,192,49778,128,0,50104:0:0:0:0:
475,192,49996,1,0,0:0:0:0:
256,192,50104,128,0,50430:0:0:0:0:
329,192,50430,128,0,51083:0:0:0:0:
475,192,50430,1,0,0:0:0:0:
402,192,50757,1,0,0:0:0:0:
475,192,50865,1,0,0:0:0:0:
182,192,51083,128,0,51517:0:0:0:0:
402,192,51083,1,0,0:0:0:0:
475,192,51300,1,0,0:0:0:0:
109,192,51517,1,0,0:0:0:0:
402,192,51517,1,0,0:0:0:0:
329,192,51517,128,0,53691:0:0:0:0:
256,192,51735,1,0,0:0:0:0:
475,192,51735,1,0,0:0:0:0:
402,192,52170,1,0,0:0:0:0:
475,192,52170,1,0,0:0:0:0:
36,192,52387,1,0,0:0:0:0:
182,192,52604,1,0,0:0:0:0:
475,192,52604,1,0,0:0:0:0:
402,192,53039,1,0,0:0:0:0:
475,192,53039,1,0,0:0:0:0:
256,192,53257,1,0,0:0:0:0:
109,192,53474,1,0,0:0:0:0:
475,192,53474,1,0,0:0:0:0:
182,192,53691,1,0,0:0:0:0:
475,192,53909,1,0,0:0:0:0:
109,192,54126,1,0,0:0:0:0:
402,192,54126,1,0,0:0:0:0:
109,192,54235,1,0,0:0:0:0:
402,192,54235,1,0,0:0:0:0:
182,192,54343,1,0,0:0:0:0:
329,192,54343,1,0,0:0:0:0:
475,192,54561,1,0,0:0:0:0:
36,192,54561,1,0,0:0:0:0:
475,192,54670,1,0,0:0:0:0:
36,192,54670,1,0,0:0:0:0:
109,192,54778,1,0,0:0:0:0:
402,192,54778,1,0,0:0:0:0:
182,192,54887,1,0,0:0:0:0:
329,192,54887,1,0,0:0:0:0:
256,192,54996,128,0,55213:0:0:0:0:
36,192,54996,128,0,55213:0:0:0:0:
256,192,55430,1,0,0:0:0:0:
182,192,55539,1,0,0:0:0:0:
329,192,55648,1,0,0:0:0:0:
109,192,55648,1,0,0:0:0:0:
402,192,55757,1,0,0:0:0:0:
475,192,55865,1,0,0:0:0:0:
36,192,55865,1,0,0:0:0:0:
475,192,56083,1,0,0:0:0:0:
109,192,56083,1,0,0:0:0:0:
475,192,56300,1,0,0:0:0:0:
182,192,56300,1,0,0:0:0:0:
475,192,56517,1,0,0:0:0:0:
256,192,56517,1,0,0:0:0:0:
329,192,56735,128,0,57170:0:0:0:0:
475,192,57170,1,0,0:0:0:0:
402,192,57278,1,0,0:0:0:0:
329,192,57387,1,0,0:0:0:0:
256,192,57496,1,0,0:0:0:0:
182,192,57604,1,0,0:0:0:0:
36,192,57604,1,0,0:0:0:0:
182,192,57822,1,0,0:0:0:0:
36,192,57822,1,0,0:0:0:0:
329,192,58039,1,0,0:0:0:0:
182,192,58039,128,0,58257:0:0:0:0:
402,192,58257,1,0,0:0:0:0:
256,192,58257,128,0,58474:0:0:0:0:
329,192,58474,128,0,58909:0:0:0:0:
475,192,58474,128,0,58909:0:0:0:0:
256,192,58909,1,0,0:0:0:0:
182,192,59017,1,0,0:0:0:0:
109,192,59126,1,0,0:0:0:0:
182,192,59235,1,0,0:0:0:0:
256,192,59343,1,0,0:0:0:0:
402,192,59343,1,0,0:0:0:0:
256,192,59561,1,0,0:0:0:0:
329,192,59561,1,0,0:0:0:0:
256,192,59778,1,0,0:0:0:0:
182,192,59778,1,0,0:0:0:0:
256,192,59996,1,0,0:0:0:0:
109,192,59996,1,0,0:0:0:0:
475,192,60213,1,0,0:0:0:0:
256,192,60213,128,0,61083:0:0:0:0:
402,192,60322,1,0,0:0:0:0:
329,192,60430,1,0,0:0:0:0:
402,192,60539,1,0,0:0:0:0:
475,192,60648,1,0,0:0:0:0:
109,192,60865,1,0,0:0:0:0:
329,192,61083,128,0,61409:0:0:0:0:
36,192,61083,128,0,61409:0:0:0:0:
402,192,61409,128,0,61735:0:0:0:0:
109,192,61409,128,0,61735:0:0:0:0:
475,192,61735,1,0,0:0:0:0:
182,192,61735,1,0,0:0:0:0:
36,192,61952,128,0,62170:0:0:0:0:
256,192,61952,128,0,62604:0:0:0:0:
182,192,62387,1,0,0:0:0:0:
36,192,62496,1,0,0:0:0:0:
182,192,62604,1,0,0:0:0:0:
329,192,62713,1,0,0:0:0:0:
402,192,62822,1,0,0:0:0:0:
109,192,62822,1,0,0:0:0:0:
109,192,63039,1,0,0:0:0:0:
402,192,63039,1,0,0:0:0:0:
182,192,63257,1,0,0:0:0:0:
402,192,63257,1,0,0:0:0:0:
256,192,63474,1,0,0:0:0:0:
402,192,63474,1,0,0:0:0:0:
329,192,63691,128,0,64126:0:0:0:0:
475,192,64126,1,0,0:0:0:0:
402,192,64235,1,0,0:0:0:0:
329,192,64343,1,0,0:0:0:0:
256,192,64452,1,0,0:0:0:0:
182,192,64561,1,0,0:0:0:0:
36,192,64561,1,0,0:0:0:0:
182,192,64778,1,0,0:0:0:0:
36,192,64778,1,0,0:0:0:0:
329,192,64996,1,0,0:0:0:0:
182,192,64996,128,0,65213:0:0:0:0:
402,192,65213,1,0,0:0:0:0:
256,192,65213,128,0,65430:0:0:0:0:
475,192,65430,128,0,65865:0:0:0:0:
329,192,65430,128,0,65865:0:0:0:0:
256,192,65865,1,0,0:0:0:0:
182,192,65974,1,0,0:0:0:0:
109,192,66083,1,0,0:0:0:0:
36,192,66191,1,0,0:0:0:0:
402,192,66300,1,0,0:0:0:0:
256,192,66300,1,0,0:0:0:0:
329,192,66626,1,0,0:0:0:0:
182,192,66626,1,0,0:0:0:0:
256,192,66626,1,0,0:0:0:0:
256,192,66952,1,0,0:0:0:0:
36,192,67170,128,0,68474:0:0:0:0:
109,192,67170,1,0,0:0:0:0:
182,192,67278,1,0,0:0:0:0:
256,192,67387,1,0,0:0:0:0:
329,192,67496,1,0,0:0:0:0:
182,192,67604,1,0,0:0:0:0:
256,192,67713,1,0,0:0:0:0:
329,192,67822,1,0,0:0:0:0:
402,192,67930,1,0,0:0:0:0:
256,192,68039,1,0,0:0:0:0:
329,192,68148,1,0,0:0:0:0:
402,192,68257,1,0,0:0:0:0:
475,192,68365,1,0,0:0:0:0:
329,192,68474,1,0,0:0:0:0:
402,192,68583,1,0,0:0:0:0:
475,192,68691,1,0,0:0:0:0:
182,192,68800,1,0,0:0:0:0:
36,192,68909,128,0,69126:0:0:0:0:
256,192,68909,128,0,69126:0:0:0:0:
256,192,69343,1,0,0:0:0:0:
182,192,69452,1,0,0:0:0:0:
329,192,69561,1,0,0:0:0:0:
36,192,69561,1,0,0:0:0:0:
402,192,69670,1,0,0:0:0:0:
329,192,69778,1,0,0:0:0:0:
109,192,69778,1,0,0:0:0:0:
109,192,69996,1,0,0:0:0:0:
329,192,69996,1,0,0:0:0:0:
182,192,70213,1,0,0:0:0:0:
402,192,70213,1,0,0:0:0:0:
256,192,70430,1,0,0:0:0:0:
475,192,70430,1,0,0:0:0:0:
329,192,70648,128,0,71083:0:0:0:0:
475,192,71083,1,0,0:0:0:0:
402,192,71191,1,0,0:0:0:0:
329,192,71300,1,0,0:0:0:0:
256,192,71409,1,0,0:0:0:0:
36,192,71517,1,0,0:0:0:0:
182,192,71517,1,0,0:0:0:0:
36,192,71735,1,0,0:0:0:0:
182,192,71735,1,0,0:0:0:0:
182,192,71952,128,0,72170:0:0:0:0:
329,192,71952,1,0,0:0:0:0:
256,192,72170,128,0,72387:0:0:0:0:
402,192,72170,1,0,0:0:0:0:
329,192,72387,128,0,72822:0:0:0:0:
475,192,72387,128,0,72822:0:0:0:0:
256,192,72822,1,0,0:0:0:0:
182,192,72930,1,0,0:0:0:0:
109,192,73039,1,0,0:0:0:0:
36,192,73148,1,0,0:0:0:0:
256,192,73257,1,0,0:0:0:0:
402,192,73257,1,0,0:0:0:0:
329,192,73474,1,0,0:0:0:0:
256,192,73474,1,0,0:0:0:0:
256,192,73691,1,0,0:0:0:0:
182,192,73691,1,0,0:0:0:0:
109,192,73909,1,0,0:0:0:0:
256,192,73909,1,0,0:0:0:0:
256,192,74126,128,0,74996:0:0:0:0:
475,192,74126,1,0,0:0:0:0:
402,192,74235,1,0,0:0:0:0:
329,192,74343,1,0,0:0:0:0:
402,192,74452,1,0,0:0:0:0:
475,192,74561,128,0,74778:0:0:0:0:
109,192,74778,1,0,0:0:0:0:
329,192,74996,128,0,75322:0:0:0:0:
36,192,74996,128,0,75322:0:0:0:0:
109,192,75322,128,0,75648:0:0:0:0:
402,192,75322,128,0,75648:0:0:0:0:
475,192,75648,1,0,0:0:0:0:
182,192,75648,1,0,0:0:0:0:
36,192,75865,128,0,76083:0:0:0:0:
256,192,75865,128,0,76083:0:0:0:0:
256,192,76300,1,0,0:0:0:0:
182,192,76409,1,0,0:0:0:0:
329,192,76517,1,0,0:0:0:0:
402,192,76626,1,0,0:0:0:0:
256,192,76735,1,0,0:0:0:0:
109,192,76735,1,0,0:0:0:0:
109,192,76952,1,0,0:0:0:0:
329,192,77061,1,0,0:0:0:0:
475,192,77061,1,0,0:0:0:0:
182,192,77170,1,0,0:0:0:0:
329,192,77387,1,0,0:0:0:0:
109,192,77387,1,0,0:0:0:0:
36,192,77387,128,0,78474:0:0:0:0:
475,192,77387,1,0,0:0:0:0:
329,192,77604,128,0,78039:0:0:0:0:
475,192,78039,1,0,0:0:0:0:
182,192,78039,1,0,0:0:0:0:
402,192,78148,1,0,0:0:0:0:
329,192,78257,1,0,0:0:0:0:
256,192,78365,1,0,0:0:0:0:
182,192,78474,1,0,0:0:0:0:
182,192,78691,1,0,0:0:0:0:
36,192,78691,1,0,0:0:0:0:
182,192,78909,128,0,79126:0:0:0:0:
329,192,78909,1,0,0:0:0:0:
402,192,79126,1,0,0:0:0:0:
256,192,79126,128,0,79343:0:0:0:0:
475,192,79343,128,0,79778:0:0:0:0:
329,192,79343,128,0,79778:0:0:0:0:
256,192,79778,1,0,0:0:0:0:
182,192,79887,1,0,0:0:0:0:
109,192,79996,1,0,0:0:0:0:
36,192,80104,1,0,0:0:0:0:
256,192,80213,1,0,0:0:0:0:
402,192,80213,1,0,0:0:0:0:
182,192,80539,1,0,0:0:0:0:
329,192,80539,1,0,0:0:0:0:
256,192,80539,1,0,0:0:0:0:
256,192,80865,1,0,0:0:0:0:
256,192,81083,128,0,82822:0:0:0:0:
36,192,81083,1,0,0:0:0:0:
109,192,81191,1,0,0:0:0:0:
182,192,81300,1,0,0:0:0:0:
329,192,81409,1,0,0:0:0:0:
402,192,81517,1,0,0:0:0:0:
475,192,81626,1,0,0:0:0:0:
36,192,81735,1,0,0:0:0:0:
109,192,81843,1,0,0:0:0:0:
182,192,81952,1,0,0:0:0:0:
329,192,82061,1,0,0:0:0:0:
402,192,82170,1,0,0:0:0:0:
475,192,82278,1,0,0:0:0:0:
36,192,82387,1,0,0:0:0:0:
109,192,82496,1,0,0:0:0:0:
402,192,82604,1,0,0:0:0:0:
475,192,82713,1,0,0:0:0:0:
329,192,82822,1,0,0:0:0:0:
182,192,82822,1,0,0:0:0:0:
109,192,82822,128,0,83039:0:0:0:0:
402,192,82822,128,0,83039:0:0:0:0:
402,192,83257,128,0,83474:0:0:0:0:
109,192,83257,128,0,83474:0:0:0:0:
329,192,83474,128,0,83691:0:0:0:0:
182,192,83474,128,0,83691:0:0:0:0:
36,192,83691,128,0,83909:0:0:0:0:
256,192,83691,128,0,83909:0:0:0:0:
109,192,83909,128,0,84126:0:0:0:0:
329,192,83909,128,0,84126:0:0:0:0:
182,192,84126,128,0,84343:0:0:0:0:
402,192,84126,128,0,84343:0:0:0:0:
256,192,84343,128,0,84561:0:0:0:0:
475,192,84343,128,0,84561:0:0:0:0:
329,192,84561,128,0,85213:0:0:0:0:
402,192,84561,128,0,85213:0:0:0:0:
182,192,85213,128,0,85322:0:0:0:0:
475,192,85213,128,0,85322:0:0:0:0:
109,192,85322,128,0,85430:0:0:0:0:
402,192,85322,128,0,85430:0:0:0:0:
36,192,85430,128,0,85539:0:0:0:0:
329,192,85430,128,0,85539:0:0:0:0:
36,192,85865,128,0,86300:0:0:0:0:
182,192,85865,128,0,86300:0:0:0:0:
109,192,86300,128,0,86409:0:0:0:0:
256,192,86300,128,0,86409:0:0:0:0:
182,192,86517,128,0,86626:0:0:0:0:
329,192,86517,128,0,86626:0:0:0:0:
256,192,86735,128,0,86843:0:0:0:0:
402,192,86735,128,0,86843:0:0:0:0:
329,192,86952,128,0,87278:0:0:0:0:
475,192,86952,128,0,87278:0:0:0:0:
475,192,87387,128,0,87496:0:0:0:0:
329,192,87387,128,0,87496:0:0:0:0:
329,192,87604,128,0,87713:0:0:0:0:
475,192,87604,128,0,87713:0:0:0:0:
402,192,87822,128,0,87930:0:0:0:0:
256,192,87822,128,0,87930:0:0:0:0:
329,192,88039,128,0,88691:0:0:0:0:
182,192,88039,128,0,88691:0:0:0:0:
256,192,88691,128,0,89778:0:0:0:0:
109,192,88691,128,0,89778:0:0:0:0:
36,192,89778,128,0,89887:0:0:0:0:
329,192,89778,128,0,89887:0:0:0:0:
475,192,89887,128,0,89996:0:0:0:0:
182,192,89887,128,0,89996:0:0:0:0:
36,192,89996,128,0,90104:0:0:0:0:
329,192,89996,128,0,90104:0:0:0:0:
182,192,90104,128,0,90213:0:0:0:0:
475,192,90104,128,0,90213:0:0:0:0:
256,192,90213,128,0,90865:0:0:0:0:
402,192,90213,128,0,90865:0:0:0:0:
329,192,90865,128,0,90974:0:0:0:0:
182,192,90865,128,0,90974:0:0:0:0:
256,192,91083,128,0,91191:0:0:0:0:
109,192,91083,128,0,91191:0:0:0:0:
182,192,91300,128,0,91409:0:0:0:0:
36,192,91300,128,0,91409:0:0:0:0:
109,192,91517,128,0,91735:0:0:0:0:
329,192,91517,128,0,91735:0:0:0:0:
256,192,91735,128,0,91952:0:0:0:0:
475,192,91735,128,0,91952:0:0:0:0:
109,192,91952,128,0,92170:0:0:0:0:
329,192,91952,128,0,92170:0:0:0:0:
36,192,92170,128,0,92822:0:0:0:0:
182,192,92170,128,0,92822:0:0:0:0:
109,192,92822,128,0,93257:0:0:0:0:
256,192,92822,128,0,93257:0:0:0:0:
36,192,93257,128,0,93365:0:0:0:0:
182,192,93257,128,0,93365:0:0:0:0:
109,192,93474,128,0,93583:0:0:0:0:
256,192,93474,128,0,93583:0:0:0:0:
329,192,93691,128,0,94017:0:0:0:0:
182,192,93691,128,0,94017:0:0:0:0:
182,192,94126,128,0,94235:0:0:0:0:
329,192,94126,128,0,94235:0:0:0:0:
182,192,94561,128,0,94887:0:0:0:0:
256,192,94561,128,0,94887:0:0:0:0:
109,192,94887,128,0,94996:0:0:0:0:
36,192,94887,128,0,94996:0:0:0:0:
329,192,94996,128,0,95104:0:0:0:0:
475,192,94996,128,0,95104:0:0:0:0:
329,192,95213,128,0,95322:0:0:0:0:
475,192,95213,128,0,95322:0:0:0:0:
402,192,95430,128,0,95539:0:0:0:0:
256,192,95430,128,0,95539:0:0:0:0:
329,192,95648,128,0,95757:0:0:0:0:
182,192,95648,128,0,95757:0:0:0:0:
109,192,95865,128,0,96735:0:0:0:0:
256,192,95865,128,0,96735:0:0:0:0:
36,192,96735,1,0,0:0:0:0:
402,192,96735,1,0,0:0:0:0:
36,192,96952,1,0,0:0:0:0:
402,192,96952,1,0,0:0:0:0:
36,192,97170,1,0,0:0:0:0:
402,192,97170,1,0,0:0:0:0:
36,192,97387,1,0,0:0:0:0:
402,192,97387,1,0,0:0:0:0:
36,192,97604,1,0,0:0:0:0:
475,192,97604,1,0,0:0:0:0:
36,192,97822,1,0,0:0:0:0:
402,192,97822,1,0,0:0:0:0:
36,192,98039,1,0,0:0:0:0:
329,192,98039,1,0,0:0:0:0:
36,192,98257,1,0,0:0:0:0:
256,192,98257,1,0,0:0:0:0:
109,192,98474,1,0,0:0:0:0:
182,192,98583,1,0,0:0:0:0:
256,192,98691,1,0,0:0:0:0:
329,192,98800,1,0,0:0:0:0:
256,192,98909,128,0,99343:0:0:0:0:
109,192,99343,1,0,0:0:0:0:
329,192,99561,128,0,99778:0:0:0:0:
256,192,99778,1,0,0:0:0:0:
182,192,99887,1,0,0:0:0:0:
109,192,99996,1,0,0:0:0:0:
36,192,100104,1,0,0:0:0:0:
256,192,100213,1,0,0:0:0:0:
475,192,100213,1,0,0:0:0:0:
182,192,100213,1,0,0:0:0:0:
182,192,100430,1,0,0:0:0:0:
329,192,100430,1,0,0:0:0:0:
182,192,100648,1,0,0:0:0:0:
402,192,100648,1,0,0:0:0:0:
182,192,100865,1,0,0:0:0:0:
256,192,100865,1,0,0:0:0:0:
182,192,101083,1,0,0:0:0:0:
109,192,101083,1,0,0:0:0:0:
182,192,101300,1,0,0:0:0:0:
256,192,101300,1,0,0:0:0:0:
182,192,101517,1,0,0:0:0:0:
329,192,101517,1,0,0:0:0:0:
182,192,101735,1,0,0:0:0:0:
109,192,101735,1,0,0:0:0:0:
182,192,101952,1,0,0:0:0:0:
329,192,101952,1,0,0:0:0:0:
182,192,102170,1,0,0:0:0:0:
402,192,102170,1,0,0:0:0:0:
182,192,102387,1,0,0:0:0:0:
475,192,102387,1,0,0:0:0:0:
182,192,102604,1,0,0:0:0:0:
329,192,102604,1,0,0:0:0:0:
182,192,102822,1,0,0:0:0:0:
109,192,102822,1,0,0:0:0:0:
329,192,102822,1,0,0:0:0:0:
402,192,102822,1,0,0:0:0:0:
109,192,103039,1,0,0:0:0:0:
182,192,103039,1,0,0:0:0:0:
329,192,103039,1,0,0:0:0:0:
402,192,103039,1,0,0:0:0:0:
475,192,103257,128,0,103691:0:0:0:0:
36,192,103257,128,0,103691:0:0:0:0:
109,192,103691,1,0,0:0:0:0:
109,192,103909,1,0,0:0:0:0:
109,192,104126,1,0,0:0:0:0:
402,192,104126,128,0,104561:0:0:0:0:
109,192,104561,1,0,0:0:0:0:
109,192,104778,1,0,0:0:0:0:
402,192,104778,1,0,0:0:0:0:
109,192,104996,1,0,0:0:0:0:
329,192,104996,1,0,0:0:0:0:
109,192,105213,1,0,0:0:0:0:
256,192,105213,1,0,0:0:0:0:
36,192,105430,1,0,0:0:0:0:
109,192,105539,1,0,0:0:0:0:
182,192,105648,1,0,0:0:0:0:
256,192,105757,1,0,0:0:0:0:
329,192,105865,1,0,0:0:0:0:
402,192,105974,1,0,0:0:0:0:
475,192,106083,128,0,106626:0:0:0:0:
256,192,106626,128,0,106735:0:0:0:0:
182,192,106735,128,0,106843:0:0:0:0:
36,192,106952,128,0,107061:0:0:0:0:
182,192,107170,1,0,0:0:0:0:
329,192,107170,1,0,0:0:0:0:
256,192,107387,1,0,0:0:0:0:
402,192,107387,1,0,0:0:0:0:
329,192,107604,1,0,0:0:0:0:
475,192,107604,1,0,0:0:0:0:
109,192,107822,1,0,0:0:0:0:
36,192,107822,1,0,0:0:0:0:
182,192,108039,1,0,0:0:0:0:
329,192,108039,1,0,0:0:0:0:
256,192,108257,1,0,0:0:0:0:
402,192,108257,1,0,0:0:0:0:
329,192,108474,1,0,0:0:0:0:
475,192,108474,1,0,0:0:0:0:
109,192,108691,1,0,0:0:0:0:
36,192,108691,1,0,0:0:0:0:
182,192,108909,1,0,0:0:0:0:
329,192,108909,1,0,0:0:0:0:
256,192,109126,1,0,0:0:0:0:
402,192,109126,1,0,0:0:0:0:
329,192,109343,1,0,0:0:0:0:
475,192,109343,1,0,0:0:0:0:
36,192,109561,1,0,0:0:0:0:
109,192,109561,1,0,0:0:0:0:
182,192,109778,1,0,0:0:0:0:
402,192,109778,1,0,0:0:0:0:
402,192,109996,1,0,0:0:0:0:
182,192,109996,1,0,0:0:0:0:
36,192,110213,1,0,0:0:0:0:
475,192,110213,1,0,0:0:0:0:
329,192,110213,1,0,0:0:0:0:
182,192,110213,1,0,0:0:0:0:
256,192,110430,128,0,110648:0:0:0:0:
182,192,110648,1,0,0:0:0:0:
36,192,110648,1,0,0:0:0:0:
402,192,110648,1,0,0:0:0:0:
36,192,110865,1,0,0:0:0:0:
402,192,110865,1,0,0:0:0:0:
36,192,111083,1,0,0:0:0:0:
402,192,111083,1,0,0:0:0:0:
36,192,111300,1,0,0:0:0:0:
402,192,111300,1,0,0:0:0:0:
475,192,111517,1,0,0:0:0:0:
36,192,111517,1,0,0:0:0:0:
402,192,111735,1,0,0:0:0:0:
36,192,111735,1,0,0:0:0:0:
329,192,111952,1,0,0:0:0:0:
36,192,111952,1,0,0:0:0:0:
256,192,112170,1,0,0:0:0:0:
36,192,112170,1,0,0:0:0:0:
109,192,112387,1,0,0:0:0:0:
182,192,112496,1,0,0:0:0:0:
256,192,112604,1,0,0:0:0:0:
329,192,112713,1,0,0:0:0:0:
256,192,112822,128,0,113257:0:0:0:0:
109,192,113257,1,0,0:0:0:0:
329,192,113474,128,0,113691:0:0:0:0:
256,192,113691,1,0,0:0:0:0:
182,192,113800,1,0,0:0:0:0:
109,192,113909,1,0,0:0:0:0:
36,192,114017,1,0,0:0:0:0:
256,192,114126,1,0,0:0:0:0:
182,192,114126,1,0,0:0:0:0:
475,192,114126,1,0,0:0:0:0:
402,192,114561,1,0,0:0:0:0:
109,192,114561,1,0,0:0:0:0:
36,192,114561,1,0,0:0:0:0:
182,192,114996,1,0,0:0:0:0:
329,192,114996,1,0,0:0:0:0:
256,192,114996,1,0,0:0:0:0:
475,192,115430,1,0,0:0:0:0:
109,192,115430,1,0,0:0:0:0:
329,192,115430,1,0,0:0:0:0:
182,192,115865,1,0,0:0:0:0:
329,192,115865,1,0,0:0:0:0:
402,192,115865,1,0,0:0:0:0:
256,192,116300,1,0,0:0:0:0:
109,192,116300,1,0,0:0:0:0:
36,192,116300,1,0,0:0:0:0:
109,192,116735,1,0,0:0:0:0:
329,192,116735,1,0,0:0:0:0:
182,192,116735,1,0,0:0:0:0:
475,192,116735,1,0,0:0:0:0:
109,192,116952,1,0,0:0:0:0:
182,192,116952,1,0,0:0:0:0:
402,192,116952,1,0,0:0:0:0:
329,192,116952,1,0,0:0:0:0:
36,192,117170,128,0,117604:0:0:0:0:
475,192,117170,128,0,117604:0:0:0:0:
256,192,117170,1,0,0:0:0:0:
109,192,117170,1,0,0:0:0:0:
109,192,117604,1,0,0:0:0:0:
402,192,117604,1,0,0:0:0:0:
256,192,117604,1,0,0:0:0:0:
109,192,117822,1,0,0:0:0:0:
109,192,118039,1,0,0:0:0:0:
109,192,118474,1,0,0:0:0:0:
109,192,118691,1,0,0:0:0:0:
109,192,118909,1,0,0:0:0:0:
109,192,119126,1,0,0:0:0:0:
36,192,119343,1,0,0:0:0:0:
109,192,119452,1,0,0:0:0:0:
182,192,119561,1,0,0:0:0:0:
256,192,119670,1,0,0:0:0:0:
329,192,119778,1,0,0:0:0:0:
402,192,119887,1,0,0:0:0:0:
475,192,119996,1,0,0:0:0:0:
402,192,120104,1,0,0:0:0:0:
475,192,120213,1,0,0:0:0:0:
256,192,120539,1,0,0:0:0:0:
256,192,120648,1,0,0:0:0:0:
182,192,120757,1,0,0:0:0:0:
182,192,120865,1,0,0:0:0:0:
109,192,120974,1,0,0:0:0:0:
256,192,121083,1,0,0:0:0:0:
109,192,121083,1,0,0:0:0:0:
256,192,121300,1,0,0:0:0:0:
402,192,121517,1,0,0:0:0:0:
256,192,121735,1,0,0:0:0:0:
109,192,121952,1,0,0:0:0:0:
109,192,122061,1,0,0:0:0:0:
182,192,122170,1,0,0:0:0:0:
256,192,122278,1,0,0:0:0:0:
329,192,122387,1,0,0:0:0:0:
329,192,122496,1,0,0:0:0:0:
402,192,122604,1,0,0:0:0:0:
402,192,122822,128,0,123039:0:0:0:0:
109,192,122822,128,0,123039:0:0:0:0:
402,192,123257,128,0,123474:0:0:0:0:
109,192,123257,128,0,123474:0:0:0:0:
182,192,123691,1,0,0:0:0:0:
329,192,123691,1,0,0:0:0:0:
182,192,123909,1,0,0:0:0:0:
329,192,123909,1,0,0:0:0:0:
109,192,124126,1,0,0:0:0:0:
402,192,124126,1,0,0:0:0:0:
256,192,124561,128,0,124778:0:0:0:0:
36,192,124561,128,0,124778:0:0:0:0:
256,192,124996,1,0,0:0:0:0:
182,192,125104,1,0,0:0:0:0:
329,192,125213,1,0,0:0:0:0:
109,192,125213,1,0,0:0:0:0:
402,192,125322,1,0,0:0:0:0:
36,192,125430,1,0,0:0:0:0:
256,192,125430,1,0,0:0:0:0:
109,192,125648,1,0,0:0:0:0:
256,192,125648,1,0,0:0:0:0:
182,192,125865,1,0,0:0:0:0:
329,192,125865,1,0,0:0:0:0:
256,192,126083,1,0,0:0:0:0:
402,192,126083,1,0,0:0:0:0:
329,192,126300,128,0,126735:0:0:0:0:
475,192,126735,1,0,0:0:0:0:
402,192,126843,1,0,0:0:0:0:
329,192,126952,1,0,0:0:0:0:
256,192,127061,1,0,0:0:0:0:
36,192,127170,1,0,0:0:0:0:
182,192,127170,1,0,0:0:0:0:
182,192,127387,1,0,0:0:0:0:
36,192,127387,1,0,0:0:0:0:
182,192,127604,128,0,127822:0:0:0:0:
329,192,127604,1,0,0:0:0:0:
256,192,127822,128,0,128039:0:0:0:0:
402,192,127822,1,0,0:0:0:0:
329,192,128039,128,0,128474:0:0:0:0:
475,192,128039,128,0,128474:0:0:0:0:
256,192,128474,1,0,0:0:0:0:
182,192,128583,1,0,0:0:0:0:
109,192,128691,1,0,0:0:0:0:
182,192,128800,1,0,0:0:0:0:
256,192,128909,1,0,0:0:0:0:
402,192,128909,1,0,0:0:0:0:
256,192,129126,1,0,0:0:0:0:
329,192,129126,1,0,0:0:0:0:
182,192,129343,1,0,0:0:0:0:
256,192,129343,1,0,0:0:0:0:
109,192,129561,1,0,0:0:0:0:
256,192,129561,1,0,0:0:0:0:
256,192,129778,128,0,130648:0:0:0:0:
475,192,129778,128,0,129996:0:0:0:0:
182,192,129996,1,0,0:0:0:0:
402,192,130104,1,0,0:0:0:0:
475,192,130213,1,0,0:0:0:0:
109,192,130430,1,0,0:0:0:0:
36,192,130648,128,0,130974:0:0:0:0:
329,192,130648,128,0,130974:0:0:0:0:
109,192,130974,128,0,131300:0:0:0:0:
402,192,130974,128,0,131300:0:0:0:0:
475,192,131300,1,0,0:0:0:0:
182,192,131300,1,0,0:0:0:0:
256,192,131517,128,0,132170:0:0:0:0:
36,192,131517,128,0,131735:0:0:0:0:
182,192,131952,1,0,0:0:0:0:
36,192,132061,1,0,0:0:0:0:
182,192,132170,1,0,0:0:0:0:
329,192,132278,1,0,0:0:0:0:
109,192,132387,1,0,0:0:0:0:
402,192,132387,1,0,0:0:0:0:
402,192,132604,1,0,0:0:0:0:
109,192,132604,1,0,0:0:0:0:
402,192,132822,1,0,0:0:0:0:
182,192,132822,1,0,0:0:0:0:
36,192,132822,1,0,0:0:0:0:
256,192,133039,1,0,0:0:0:0:
402,192,133039,1,0,0:0:0:0:
109,192,133039,1,0,0:0:0:0:
329,192,133257,128,0,133691:0:0:0:0:
475,192,133691,1,0,0:0:0:0:
402,192,133800,1,0,0:0:0:0:
329,192,133909,128,0,134126:0:0:0:0:
182,192,134126,1,0,0:0:0:0:
36,192,134126,1,0,0:0:0:0:
182,192,134343,1,0,0:0:0:0:
36,192,134343,1,0,0:0:0:0:
182,192,134561,128,0,134778:0:0:0:0:
329,192,134561,1,0,0:0:0:0:
256,192,134778,128,0,134996:0:0:0:0:
402,192,134778,1,0,0:0:0:0:
475,192,134996,128,0,135430:0:0:0:0:
329,192,134996,128,0,135430:0:0:0:0:
256,192,135430,1,0,0:0:0:0:
182,192,135539,1,0,0:0:0:0:
109,192,135648,1,0,0:0:0:0:
36,192,135757,1,0,0:0:0:0:
256,192,135865,1,0,0:0:0:0:
402,192,135865,1,0,0:0:0:0:
182,192,136191,1,0,0:0:0:0:
329,192,136191,1,0,0:0:0:0:
256,192,136191,1,0,0:0:0:0:
256,192,136517,1,0,0:0:0:0:
36,192,136735,1,0,0:0:0:0:
475,192,136735,128,0,138474:0:0:0:0:
109,192,136843,1,0,0:0:0:0:
182,192,136952,1,0,0:0:0:0:
256,192,137061,1,0,0:0:0:0:
109,192,137170,1,0,0:0:0:0:
182,192,137278,1,0,0:0:0:0:
256,192,137387,1,0,0:0:0:0:
329,192,137496,1,0,0:0:0:0:
36,192,137604,1,0,0:0:0:0:
109,192,137713,1,0,0:0:0:0:
182,192,137822,1,0,0:0:0:0:
329,192,137930,1,0,0:0:0:0:
109,192,138039,1,0,0:0:0:0:
182,192,138148,1,0,0:0:0:0:
329,192,138257,1,0,0:0:0:0:
402,192,138365,1,0,0:0:0:0:
36,192,138474,128,0,138691:0:0:0:0:
256,192,138474,128,0,138691:0:0:0:0:
256,192,138909,1,0,0:0:0:0:
182,192,139017,1,0,0:0:0:0:
109,192,139126,1,0,0:0:0:0:
329,192,139126,1,0,0:0:0:0:
402,192,139235,1,0,0:0:0:0:
36,192,139343,1,0,0:0:0:0:
475,192,139343,1,0,0:0:0:0:
109,192,139561,1,0,0:0:0:0:
475,192,139561,1,0,0:0:0:0:
182,192,139778,1,0,0:0:0:0:
475,192,139778,1,0,0:0:0:0:
256,192,139996,1,0,0:0:0:0:
475,192,139996,1,0,0:0:0:0:
329,192,140213,128,0,140648:0:0:0:0:
475,192,140648,1,0,0:0:0:0:
402,192,140757,1,0,0:0:0:0:
329,192,140865,1,0,0:0:0:0:
256,192,140974,1,0,0:0:0:0:
182,192,141083,1,0,0:0:0:0:
36,192,141083,1,0,0:0:0:0:
36,192,141300,1,0,0:0:0:0:
182,192,141300,1,0,0:0:0:0:
329,192,141517,1,0,0:0:0:0:
182,192,141517,128,0,141735:0:0:0:0:
402,192,141735,1,0,0:0:0:0:
256,192,141735,128,0,141952:0:0:0:0:
475,192,141952,128,0,142387:0:0:0:0:
329,192,141952,128,0,142387:0:0:0:0:
256,192,142387,1,0,0:0:0:0:
182,192,142496,1,0,0:0:0:0:
109,192,142604,1,0,0:0:0:0:
182,192,142713,1,0,0:0:0:0:
256,192,142822,1,0,0:0:0:0:
475,192,142822,1,0,0:0:0:0:
256,192,143039,1,0,0:0:0:0:
402,192,143039,1,0,0:0:0:0:
256,192,143257,1,0,0:0:0:0:
109,192,143257,1,0,0:0:0:0:
256,192,143474,1,0,0:0:0:0:
36,192,143474,1,0,0:0:0:0:
256,192,143691,128,0,144561:0:0:0:0:
475,192,143691,1,0,0:0:0:0:
182,192,143800,1,0,0:0:0:0:
109,192,143909,1,0,0:0:0:0:
182,192,144017,1,0,0:0:0:0:
475,192,144126,1,0,0:0:0:0:
109,192,144343,1,0,0:0:0:0:
329,192,144561,128,0,144887:0:0:0:0:
36,192,144561,128,0,144887:0:0:0:0:
402,192,144887,128,0,145213:0:0:0:0:
109,192,144887,128,0,145213:0:0:0:0:
182,192,145213,1,0,0:0:0:0:
475,192,145213,1,0,0:0:0:0:
36,192,145430,128,0,145648:0:0:0:0:
256,192,145430,128,0,146083:0:0:0:0:
182,192,145865,1,0,0:0:0:0:
36,192,145974,1,0,0:0:0:0:
182,192,146083,1,0,0:0:0:0:
329,192,146191,1,0,0:0:0:0:
402,192,146300,1,0,0:0:0:0:
36,192,146300,1,0,0:0:0:0:
182,192,146300,1,0,0:0:0:0:
36,192,146517,1,0,0:0:0:0:
182,192,146517,1,0,0:0:0:0:
402,192,146626,1,0,0:0:0:0:
36,192,146735,1,0,0:0:0:0:
256,192,146735,1,0,0:0:0:0:
402,192,146952,1,0,0:0:0:0:
109,192,146952,1,0,0:0:0:0:
256,192,146952,1,0,0:0:0:0:
329,192,147170,128,0,147604:0:0:0:0:
475,192,147604,1,0,0:0:0:0:
402,192,147713,1,0,0:0:0:0:
256,192,147822,1,0,0:0:0:0:
402,192,147930,1,0,0:0:0:0:
475,192,148039,1,0,0:0:0:0:
36,192,148039,1,0,0:0:0:0:
182,192,148039,1,0,0:0:0:0:
36,192,148257,1,0,0:0:0:0:
182,192,148257,1,0,0:0:0:0:
329,192,148474,1,0,0:0:0:0:
182,192,148474,128,0,148691:0:0:0:0:
402,192,148691,1,0,0:0:0:0:
256,192,148691,128,0,148909:0:0:0:0:
329,192,148909,128,0,149343:0:0:0:0:
475,192,148909,128,0,149343:0:0:0:0:
256,192,149343,1,0,0:0:0:0:
182,192,149452,1,0,0:0:0:0:
109,192,149561,1,0,0:0:0:0:
36,192,149670,1,0,0:0:0:0:
402,192,149778,1,0,0:0:0:0:
256,192,149778,1,0,0:0:0:0:
329,192,150104,1,0,0:0:0:0:
256,192,150104,1,0,0:0:0:0:
182,192,150104,1,0,0:0:0:0:
256,192,150430,1,0,0:0:0:0:
402,192,150430,1,0,0:0:0:0:
109,192,150430,1,0,0:0:0:0:
256,192,150648,128,0,151952:0:0:0:0:
36,192,150648,1,0,0:0:0:0:
109,192,150757,1,0,0:0:0:0:
182,192,150865,1,0,0:0:0:0:
329,192,150974,1,0,0:0:0:0:
109,192,151083,1,0,0:0:0:0:
182,192,151191,1,0,0:0:0:0:
329,192,151300,1,0,0:0:0:0:
402,192,151409,1,0,0:0:0:0:
182,192,151517,1,0,0:0:0:0:
329,192,151626,1,0,0:0:0:0:
402,192,151735,1,0,0:0:0:0:
475,192,151843,1,0,0:0:0:0:
36,192,151952,1,0,0:0:0:0:
109,192,152061,1,0,0:0:0:0:
402,192,152170,1,0,0:0:0:0:
475,192,152278,1,0,0:0:0:0:
109,192,152387,128,0,152822:0:0:0:0:
36,192,152822,1,0,0:0:0:0:
182,192,152930,1,0,0:0:0:0:
182,192,153148,1,0,0:0:0:0:
256,192,153257,128,0,153691:0:0:0:0:
182,192,153691,1,0,0:0:0:0:
329,192,153909,1,0,0:0:0:0:
256,192,154126,128,0,154561:0:0:0:0:
475,192,154561,1,0,0:0:0:0:
402,192,154670,1,0,0:0:0:0:
402,192,154887,1,0,0:0:0:0:
475,192,154996,128,0,155430:0:0:0:0:
36,192,154996,128,0,155430:0:0:0:0:
109,192,155430,1,0,0:0:0:0:
182,192,155648,1,0,0:0:0:0:
256,192,155865,128,0,156300:0:0:0:0:
402,192,156300,1,0,0:0:0:0:
329,192,156409,1,0,0:0:0:0:
256,192,156517,1,0,0:0:0:0:
182,192,156626,1,0,0:0:0:0:
109,192,156735,128,0,157170:0:0:0:0:
402,192,157170,1,0,0:0:0:0:
329,192,157387,1,0,0:0:0:0:
256,192,157604,1,0,0:0:0:0:
182,192,157822,1,0,0:0:0:0:
109,192,158039,1,0,0:0:0:0:
256,192,158148,1,0,0:0:0:0:
182,192,158257,1,0,0:0:0:0:
256,192,158365,1,0,0:0:0:0:
109,192,158474,128,0,158909:0:0:0:0:
256,192,158909,128,0,159343:0:0:0:0:
109,192,159343,1,0,0:0:0:0:
475,192,159343,1,0,0:0:0:0:
402,192,159778,1,0,0:0:0:0:
329,192,159887,1,0,0:0:0:0:
256,192,159996,1,0,0:0:0:0:
182,192,160104,1,0,0:0:0:0:
475,192,160213,1,0,0:0:0:0:
109,192,160213,128,0,160539:0:0:0:0:
329,192,160539,128,0,160865:0:0:0:0:
256,192,160865,128,0,161083:0:0:0:0:
182,192,161083,128,0,162170:0:0:0:0:
109,192,161083,1,0,0:0:0:0:
475,192,161083,1,0,0:0:0:0:
109,192,161952,1,0,0:0:0:0:
475,192,161952,1,0,0:0:0:0:
256,192,162170,128,0,162278:0:0:0:0:
329,192,162387,128,0,162496:0:0:0:0:
402,192,162604,128,0,162713:0:0:0:0:
475,192,162822,128,0,163148:0:0:0:0:
329,192,162822,128,0,163148:0:0:0:0:
475,192,163257,128,0,163365:0:0:0:0:
329,192,163257,128,0,163365:0:0:0:0:
402,192,163365,128,0,163474:0:0:0:0:
256,192,163365,128,0,163474:0:0:0:0:
329,192,163474,128,0,163583:0:0:0:0:
182,192,163474,128,0,163583:0:0:0:0:
256,192,163583,128,0,163691:0:0:0:0:
109,192,163583,128,0,163691:0:0:0:0:
36,192,163691,128,0,164017:0:0:0:0:
182,192,163691,128,0,164017:0:0:0:0:
256,192,164017,128,0,164343:0:0:0:0:
109,192,164017,128,0,164343:0:0:0:0:
182,192,164343,128,0,164561:0:0:0:0:
329,192,164343,128,0,164561:0:0:0:0:
109,192,164561,128,0,166300:0:0:0:0:
256,192,164561,128,0,164670:0:0:0:0:
329,192,164778,128,0,164887:0:0:0:0:
475,192,164996,128,0,165104:0:0:0:0:
36,192,164996,1,0,0:0:0:0:
402,192,165213,128,0,165322:0:0:0:0:
182,192,165430,128,0,165539:0:0:0:0:
256,192,165648,128,0,165757:0:0:0:0:
402,192,165865,128,0,165974:0:0:0:0:
36,192,165865,1,0,0:0:0:0:
329,192,166083,128,0,166191:0:0:0:0:
256,192,166191,128,0,166300:0:0:0:0:
182,192,166300,128,0,166517:0:0:0:0:
256,192,166517,128,0,166735:0:0:0:0:
182,192,166735,128,0,166952:0:0:0:0:
475,192,166735,1,0,0:0:0:0:
109,192,166952,128,0,167170:0:0:0:0:
256,192,167170,128,0,167604:0:0:0:0:
402,192,167170,128,0,167278:0:0:0:0:
402,192,167387,128,0,167496:0:0:0:0:
329,192,167604,128,0,168039:0:0:0:0:
475,192,167604,1,0,0:0:0:0:
182,192,167604,128,0,167713:0:0:0:0:
36,192,167822,128,0,167930:0:0:0:0:
109,192,168039,128,0,168257:0:0:0:0:
182,192,168257,128,0,168474:0:0:0:0:
109,192,168474,128,0,168909:0:0:0:0:
475,192,168474,1,0,0:0:0:0:
182,192,168909,128,0,169126:0:0:0:0:
256,192,169126,128,0,169235:0:0:0:0:
329,192,169235,128,0,169343:0:0:0:0:
475,192,169343,1,0,0:0:0:0:
402,192,169343,128,0,169996:0:0:0:0:
329,192,169996,128,0,170213:0:0:0:0:
256,192,170213,128,0,170430:0:0:0:0:
475,192,170213,1,0,0:0:0:0:
182,192,170430,128,0,170648:0:0:0:0:
256,192,170648,128,0,170865:0:0:0:0:
182,192,170865,128,0,171083:0:0:0:0:
402,192,171083,128,0,171517:0:0:0:0:
109,192,171083,128,0,171517:0:0:0:0:
475,192,171083,1,0,0:0:0:0:
36,192,171517,128,0,171626:0:0:0:0:
109,192,171735,128,0,171843:0:0:0:0:
256,192,171735,128,0,171843:0:0:0:0:
182,192,171952,128,0,172061:0:0:0:0:
329,192,171952,128,0,172061:0:0:0:0:
256,192,172170,128,0,172278:0:0:0:0:
402,192,172170,128,0,172278:0:0:0:0:
329,192,172387,128,0,172604:0:0:0:0:
475,192,172387,128,0,172604:0:0:0:0:
402,192,172604,128,0,172713:0:0:0:0:
256,192,172604,128,0,172713:0:0:0:0:
182,192,172822,128,0,172930:0:0:0:0:
329,192,172822,128,0,172930:0:0:0:0:
109,192,173039,128,0,173148:0:0:0:0:
256,192,173039,128,0,173148:0:0:0:0:
36,192,173257,128,0,173365:0:0:0:0:
109,192,173474,128,0,173583:0:0:0:0:
329,192,173691,128,0,173800:0:0:0:0:
36,192,173691,128,0,173800:0:0:0:0:
402,192,173909,128,0,174017:0:0:0:0:
475,192,174126,128,0,174343:0:0:0:0:
36,192,174126,128,0,174235:0:0:0:0:
329,192,174343,128,0,174452:0:0:0:0:
182,192,174452,128,0,174561:0:0:0:0:
256,192,174561,128,0,175213:0:0:0:0:
475,192,174561,128,0,175213:0:0:0:0:
109,192,175213,128,0,175322:0:0:0:0:
109,192,175430,128,0,175539:0:0:0:0:
329,192,175430,128,0,175539:0:0:0:0:
182,192,175648,128,0,175757:0:0:0:0:
402,192,175648,128,0,175757:0:0:0:0:
256,192,175865,128,0,175974:0:0:0:0:
329,192,175865,128,0,175974:0:0:0:0:
182,192,176083,128,0,176191:0:0:0:0:
109,192,176083,128,0,176191:0:0:0:0:
402,192,176300,128,0,176409:0:0:0:0:
329,192,176300,128,0,176409:0:0:0:0:
256,192,176517,128,0,176626:0:0:0:0:
182,192,176517,128,0,176626:0:0:0:0:
36,192,176735,128,0,176843:0:0:0:0:
109,192,176735,128,0,176843:0:0:0:0:
256,192,176735,1,0,0:0:0:0:
402,192,176843,1,0,0:0:0:0:
329,192,176952,1,0,0:0:0:0:
475,192,177061,1,0,0:0:0:0:
36,192,177170,128,0,177278:0:0:0:0:
109,192,177170,128,0,177278:0:0:0:0:
256,192,177170,1,0,0:0:0:0:
329,192,177278,1,0,0:0:0:0:
475,192,177387,1,0,0:0:0:0:
402,192,177496,1,0,0:0:0:0:
109,192,177604,128,0,177713:0:0:0:0:
36,192,177604,128,0,177713:0:0:0:0:
329,192,177604,1,0,0:0:0:0:
256,192,177713,1,0,0:0:0:0:
182,192,177822,1,0,0:0:0:0:
329,192,177930,1,0,0:0:0:0:
36,192,178039,128,0,178148:0:0:0:0:
109,192,178039,128,0,178148:0:0:0:0:
182,192,178039,1,0,0:0:0:0:
256,192,178148,1,0,0:0:0:0:
329,192,178257,1,0,0:0:0:0:
402,192,178365,1,0,0:0:0:0:
475,192,178474,128,0,180213:0:0:0:0:
256,192,178474,1,0,0:0:0:0:
256,192,178691,1,0,0:0:0:0:
329,192,178800,1,0,0:0:0:0:
256,192,178909,1,0,0:0:0:0:
256,192,179126,1,0,0:0:0:0:
329,192,179235,1,0,0:0:0:0:
256,192,179343,1,0,0:0:0:0:
256,192,179561,1,0,0:0:0:0:
329,192,179670,1,0,0:0:0:0:
256,192,179778,1,0,0:0:0:0:
256,192,179996,1,0,0:0:0:0:
329,192,180104,1,0,0:0:0:0:
36,192,180213,128,0,180648:0:0:0:0:
256,192,180648,1,0,0:0:0:0:
475,192,180648,1,0,0:0:0:0:
329,192,180648,1,0,0:0:0:0:
109,192,180648,1,0,0:0:0:0:
182,192,180757,1,0,0:0:0:0:
329,192,180865,1,0,0:0:0:0:
109,192,180865,1,0,0:0:0:0:
402,192,180974,1,0,0:0:0:0:
36,192,181083,1,0,0:0:0:0:
475,192,181083,1,0,0:0:0:0:
475,192,181300,1,0,0:0:0:0:
109,192,181300,1,0,0:0:0:0:
182,192,181517,1,0,0:0:0:0:
475,192,181517,1,0,0:0:0:0:
475,192,181735,1,0,0:0:0:0:
256,192,181735,1,0,0:0:0:0:
329,192,181952,128,0,182387:0:0:0:0:
475,192,182387,1,0,0:0:0:0:
402,192,182496,1,0,0:0:0:0:
329,192,182604,1,0,0:0:0:0:
256,192,182713,1,0,0:0:0:0:
182,192,182822,1,0,0:0:0:0:
36,192,182822,1,0,0:0:0:0:
109,192,182822,1,0,0:0:0:0:
36,192,183039,1,0,0:0:0:0:
182,192,183039,1,0,0:0:0:0:
109,192,183039,1,0,0:0:0:0:
182,192,183257,128,0,183474:0:0:0:0:
329,192,183257,1,0,0:0:0:0:
109,192,183257,1,0,0:0:0:0:
256,192,183474,128,0,183691:0:0:0:0:
402,192,183474,1,0,0:0:0:0:
109,192,183474,1,0,0:0:0:0:
329,192,183691,128,0,184126:0:0:0:0:
475,192,183691,128,0,184126:0:0:0:0:
256,192,184126,1,0,0:0:0:0:
182,192,184235,1,0,0:0:0:0:
109,192,184343,1,0,0:0:0:0:
182,192,184452,1,0,0:0:0:0:
256,192,184561,1,0,0:0:0:0:
402,192,184561,1,0,0:0:0:0:
256,192,184778,1,0,0:0:0:0:
329,192,184778,1,0,0:0:0:0:
182,192,184996,1,0,0:0:0:0:
256,192,184996,1,0,0:0:0:0:
109,192,185213,1,0,0:0:0:0:
256,192,185213,1,0,0:0:0:0:
475,192,185430,1,0,0:0:0:0:
256,192,185430,128,0,186300:0:0:0:0:
402,192,185539,1,0,0:0:0:0:
329,192,185648,1,0,0:0:0:0:
402,192,185757,1,0,0:0:0:0:
475,192,185865,1,0,0:0:0:0:
109,192,186083,1,0,0:0:0:0:
329,192,186300,128,0,186626:0:0:0:0:
36,192,186300,128,0,186626:0:0:0:0:
402,192,186626,128,0,186952:0:0:0:0:
109,192,186626,128,0,186952:0:0:0:0:
182,192,186952,128,0,187170:0:0:0:0:
475,192,186952,128,0,187170:0:0:0:0:
256,192,187170,128,0,187822:0:0:0:0:
36,192,187170,128,0,187387:0:0:0:0:
182,192,187604,1,0,0:0:0:0:
36,192,187713,1,0,0:0:0:0:
182,192,187822,1,0,0:0:0:0:
329,192,187930,1,0,0:0:0:0:
109,192,188039,1,0,0:0:0:0:
402,192,188039,1,0,0:0:0:0:
36,192,188039,1,0,0:0:0:0:
402,192,188257,1,0,0:0:0:0:
109,192,188257,1,0,0:0:0:0:
36,192,188257,1,0,0:0:0:0:
182,192,188474,1,0,0:0:0:0:
402,192,188474,1,0,0:0:0:0:
475,192,188474,1,0,0:0:0:0:
256,192,188691,1,0,0:0:0:0:
402,192,188691,1,0,0:0:0:0:
475,192,188691,1,0,0:0:0:0:
329,192,188909,128,0,189343:0:0:0:0:
475,192,189343,1,0,0:0:0:0:
402,192,189452,1,0,0:0:0:0:
329,192,189561,128,0,189778:0:0:0:0:
36,192,189778,1,0,0:0:0:0:
182,192,189778,1,0,0:0:0:0:
402,192,189778,1,0,0:0:0:0:
182,192,189996,1,0,0:0:0:0:
36,192,189996,1,0,0:0:0:0:
402,192,189996,1,0,0:0:0:0:
329,192,190213,1,0,0:0:0:0:
182,192,190213,128,0,190430:0:0:0:0:
256,192,190430,128,0,190648:0:0:0:0:
402,192,190430,1,0,0:0:0:0:
329,192,190648,128,0,191083:0:0:0:0:
475,192,190648,128,0,191083:0:0:0:0:
256,192,191083,1,0,0:0:0:0:
182,192,191191,1,0,0:0:0:0:
109,192,191300,1,0,0:0:0:0:
36,192,191409,1,0,0:0:0:0:
402,192,191517,1,0,0:0:0:0:
256,192,191517,1,0,0:0:0:0:
256,192,191843,1,0,0:0:0:0:
329,192,191843,1,0,0:0:0:0:
182,192,191843,1,0,0:0:0:0:
256,192,192170,1,0,0:0:0:0:
256,192,192387,128,0,193691:0:0:0:0:
36,192,192387,1,0,0:0:0:0:
182,192,192496,1,0,0:0:0:0:
329,192,192604,1,0,0:0:0:0:
475,192,192713,1,0,0:0:0:0:
109,192,192822,1,0,0:0:0:0:
402,192,192930,1,0,0:0:0:0:
36,192,193039,1,0,0:0:0:0:
182,192,193148,1,0,0:0:0:0:
402,192,193257,1,0,0:0:0:0:
475,192,193365,1,0,0:0:0:0:
36,192,193474,1,0,0:0:0:0:
475,192,193583,1,0,0:0:0:0:
402,192,193691,1,0,0:0:0:0:
182,192,193691,1,0,0:0:0:0:
329,192,193800,1,0,0:0:0:0:
402,192,193909,1,0,0:0:0:0:
475,192,194017,1,0,0:0:0:0:
36,192,194126,128,0,194343:0:0:0:0:
256,192,194126,128,0,194343:0:0:0:0:
256,192,194561,1,0,0:0:0:0:
182,192,194670,1,0,0:0:0:0:
109,192,194778,1,0,0:0:0:0:
329,192,194778,1,0,0:0:0:0:
402,192,194887,1,0,0:0:0:0:
475,192,194996,1,0,0:0:0:0:
36,192,194996,1,0,0:0:0:0:
109,192,195213,1,0,0:0:0:0:
402,192,195213,1,0,0:0:0:0:
402,192,195430,1,0,0:0:0:0:
182,192,195430,1,0,0:0:0:0:
256,192,195648,1,0,0:0:0:0:
329,192,195648,1,0,0:0:0:0:
329,192,195865,128,0,196300:0:0:0:0:
475,192,196300,1,0,0:0:0:0:
402,192,196409,1,0,0:0:0:0:
329,192,196517,1,0,0:0:0:0:
256,192,196626,1,0,0:0:0:0:
36,192,196735,1,0,0:0:0:0:
182,192,196735,1,0,0:0:0:0:
182,192,196952,1,0,0:0:0:0:
109,192,196952,1,0,0:0:0:0:
329,192,197170,1,0,0:0:0:0:
182,192,197170,128,0,197387:0:0:0:0:
402,192,197387,1,0,0:0:0:0:
256,192,197387,128,0,197604:0:0:0:0:
475,192,197604,128,0,198039:0:0:0:0:
329,192,197604,128,0,198039:0:0:0:0:
256,192,198039,1,0,0:0:0:0:
182,192,198148,1,0,0:0:0:0:
109,192,198257,1,0,0:0:0:0:
182,192,198365,1,0,0:0:0:0:
402,192,198474,1,0,0:0:0:0:
256,192,198474,1,0,0:0:0:0:
329,192,198691,1,0,0:0:0:0:
256,192,198691,1,0,0:0:0:0:
256,192,198909,1,0,0:0:0:0:
182,192,198909,1,0,0:0:0:0:
256,192,199126,1,0,0:0:0:0:
109,192,199126,1,0,0:0:0:0:
256,192,199343,128,0,200213:0:0:0:0:
475,192,199343,1,0,0:0:0:0:
109,192,199452,1,0,0:0:0:0:
36,192,199561,1,0,0:0:0:0:
109,192,199670,1,0,0:0:0:0:
475,192,199778,1,0,0:0:0:0:
475,192,199996,1,0,0:0:0:0:
36,192,200213,128,0,200539:0:0:0:0:
329,192,200213,128,0,200539:0:0:0:0:
109,192,200539,128,0,200865:0:0:0:0:
402,192,200539,128,0,200865:0:0:0:0:
182,192,200865,1,0,0:0:0:0:
475,192,200865,1,0,0:0:0:0:
36,192,201083,128,0,201300:0:0:0:0:
256,192,201083,128,0,201735:0:0:0:0:
182,192,201517,1,0,0:0:0:0:
36,192,201626,1,0,0:0:0:0:
182,192,201735,1,0,0:0:0:0:
329,192,201843,1,0,0:0:0:0:
402,192,201952,1,0,0:0:0:0:
109,192,201952,1,0,0:0:0:0:
256,192,201952,1,0,0:0:0:0:
109,192,202170,1,0,0:0:0:0:
256,192,202278,1,0,0:0:0:0:
182,192,202387,1,0,0:0:0:0:
256,192,202604,1,0,0:0:0:0:
402,192,202604,1,0,0:0:0:0:
329,192,202822,128,0,203257:0:0:0:0:
256,192,202822,128,0,203909:0:0:0:0:
475,192,203257,1,0,0:0:0:0:
402,192,203365,1,0,0:0:0:0:
329,192,203474,128,0,203691:0:0:0:0:
182,192,203691,1,0,0:0:0:0:
36,192,203691,1,0,0:0:0:0:
36,192,203909,1,0,0:0:0:0:
182,192,203909,1,0,0:0:0:0:
182,192,204126,128,0,204343:0:0:0:0:
329,192,204126,1,0,0:0:0:0:
402,192,204343,1,0,0:0:0:0:
256,192,204343,128,0,204561:0:0:0:0:
475,192,204561,128,0,204996:0:0:0:0:
329,192,204561,128,0,204996:0:0:0:0:
256,192,204996,1,0,0:0:0:0:
182,192,205104,1,0,0:0:0:0:
109,192,205213,1,0,0:0:0:0:
36,192,205322,1,0,0:0:0:0:
256,192,205430,1,0,0:0:0:0:
402,192,205430,1,0,0:0:0:0:
182,192,205757,1,0,0:0:0:0:
256,192,205757,1,0,0:0:0:0:
329,192,205757,1,0,0:0:0:0:
256,192,206083,1,0,0:0:0:0:
329,192,206300,1,0,0:0:0:0:
182,192,206300,1,0,0:0:0:0:
36,192,206300,1,0,0:0:0:0:
109,192,206409,1,0,0:0:0:0:
182,192,206517,1,0,0:0:0:0:
256,192,206626,1,0,0:0:0:0:
109,192,206735,1,0,0:0:0:0:
402,192,206735,1,0,0:0:0:0:
182,192,206843,1,0,0:0:0:0:
256,192,206952,1,0,0:0:0:0:
329,192,207061,1,0,0:0:0:0:
36,192,207170,1,0,0:0:0:0:
182,192,207278,1,0,0:0:0:0:
329,192,207387,1,0,0:0:0:0:
475,192,207496,1,0,0:0:0:0:
402,192,207604,1,0,0:0:0:0:
109,192,207604,1,0,0:0:0:0:
36,192,207604,1,0,0:0:0:0:
182,192,207713,1,0,0:0:0:0:
329,192,207822,1,0,0:0:0:0:
475,192,207930,1,0,0:0:0:0:
256,192,208039,128,0,208257:0:0:0:0:
36,192,208039,128,0,208257:0:0:0:0:
256,192,208474,1,0,0:0:0:0:
182,192,208583,1,0,0:0:0:0:
402,192,208691,1,0,0:0:0:0:
329,192,208800,1,0,0:0:0:0:
475,192,208909,128,0,209343:0:0:0:0:
109,192,208909,1,0,0:0:0:0:
182,192,209126,1,0,0:0:0:0:
402,192,209343,1,0,0:0:0:0:
256,192,209561,1,0,0:0:0:0:
329,192,209561,1,0,0:0:0:0:
329,192,209778,128,0,210213:0:0:0:0:
36,192,210213,1,0,0:0:0:0:
402,192,210322,1,0,0:0:0:0:
329,192,210430,1,0,0:0:0:0:
256,192,210539,1,0,0:0:0:0:
402,192,210648,128,0,211083:0:0:0:0:
182,192,211083,128,0,211300:0:0:0:0:
36,192,211083,1,0,0:0:0:0:
256,192,211300,128,0,211517:0:0:0:0:
475,192,211517,128,0,211952:0:0:0:0:
329,192,211517,128,0,211952:0:0:0:0:
256,192,211952,1,0,0:0:0:0:
182,192,212061,1,0,0:0:0:0:
109,192,212170,1,0,0:0:0:0:
182,192,212278,1,0,0:0:0:0:
402,192,212387,128,0,212822:0:0:0:0:
256,192,212822,1,0,0:0:0:0:
475,192,212822,1,0,0:0:0:0:
256,192,213039,1,0,0:0:0:0:
109,192,213039,1,0,0:0:0:0:
256,192,213257,1,0,0:0:0:0:
36,192,213257,1,0,0:0:0:0:
182,192,213474,1,0,0:0:0:0:
329,192,213583,1,0,0:0:0:0:
256,192,213691,1,0,0:0:0:0:
475,192,213691,1,0,0:0:0:0:
402,192,213800,1,0,0:0:0:0:
329,192,213909,128,0,214017:0:0:0:0:
182,192,214017,1,0,0:0:0:0:
36,192,214126,128,0,214561:0:0:0:0:
182,192,214561,128,0,214996:0:0:0:0:
36,192,214996,128,0,215213:0:0:0:0:
256,192,214996,128,0,215648:0:0:0:0:
182,192,215430,1,0,0:0:0:0:
36,192,215539,1,0,0:0:0:0:
182,192,215648,1,0,0:0:0:0:
329,192,215757,1,0,0:0:0:0:
109,192,215865,1,0,0:0:0:0:
402,192,215865,1,0,0:0:0:0:
256,192,215865,1,0,0:0:0:0:
256,192,216191,1,0,0:0:0:0:
256,192,216517,1,0,0:0:0:0:
256,192,216735,128,0,217822:0:0:0:0:
109,192,217822,128,0,218039:0:0:0:0:
402,192,217822,1,0,0:0:0:0:
182,192,218039,128,0,218257:0:0:0:0:
329,192,218039,1,0,0:0:0:0:
402,192,218257,1,0,0:0:0:0:
256,192,218257,128,0,218474:0:0:0:0:
475,192,218474,128,0,218909:0:0:0:0:
329,192,218474,128,0,218909:0:0:0:0:
256,192,218909,1,0,0:0:0:0:
182,192,219017,1,0,0:0:0:0:
109,192,219126,1,0,0:0:0:0:
36,192,219235,1,0,0:0:0:0:
402,192,219343,1,0,0:0:0:0:
256,192,219343,1,0,0:0:0:0:
109,192,219778,128,0,219996:0:0:0:0:
329,192,219778,128,0,219996:0:0:0:0:
182,192,219996,128,0,220213:0:0:0:0:
402,192,219996,128,0,220213:0:0:0:0:
329,192,220213,128,0,220648:0:0:0:0:
475,192,220213,128,0,220648:0:0:0:0:
256,192,220648,1,0,0:0:0:0:
182,192,220757,1,0,0:0:0:0:
109,192,220865,1,0,0:0:0:0:
36,192,220974,1,0,0:0:0:0:
256,192,221083,1,0,0:0:0:0:
402,192,221083,1,0,0:0:0:0:
109,192,221517,128,0,221735:0:0:0:0:
329,192,221517,128,0,221735:0:0:0:0:
182,192,221735,128,0,221952:0:0:0:0:
402,192,221735,128,0,221952:0:0:0:0:
329,192,221952,128,0,222387:0:0:0:0:
475,192,221952,128,0,222387:0:0:0:0:
256,192,222387,1,0,0:0:0:0:
182,192,222496,1,0,0:0:0:0:
109,192,222604,1,0,0:0:0:0:
36,192,222713,1,0,0:0:0:0:
475,192,222822,1,0,0:0:0:0:
182,192,222822,128,0,223148:0:0:0:0:
256,192,223148,128,0,223474:0:0:0:0:
329,192,223474,128,0,223691:0:0:0:0:
402,192,223691,1,0,0:0:0:0:
475,192,223691,1,0,0:0:0:0:
109,192,223691,1,0,0:0:0:0:
36,192,223691,1,0,0:0:0:0:
182,192,224126,1,0,0:0:0:0:
256,192,224126,1,0,0:0:0:0:
329,192,224126,1,0,0:0:0:0:
36,192,224561,128,0,228474:0:0:0:0:
109,192,224561,128,0,228474:0:0:0:0:
402,192,224561,128,0,228474:0:0:0:0:
475,192,224561,128,0,228474:0:0:0:0:
