osu file format v5

[General]
AudioFilename: HANAJI.mp3
AudioLeadIn: 0
PreviewTime: 5571
Countdown: 0
SampleSet: Normal
StackLeniency: 0.7
Mode: 0
LetterboxInBreaks: 1
UseSkinSprites: 1

[Metadata]
Title:Hanaji(TV Size)
Artist:Yuu Kobayashi
Creator:abalee
Version:pencil
Source:Maria+Holic OP
Tags:Maria Holic Hanaji Yuu Kobayashi

[Difficulty]
HPDrainRate:8
CircleSize:5
OverallDifficulty:8
SliderMultiplier:1.6
SliderTickRate:2

[Events]
//Background and Video events
0,0,"bg.png"
1,388,"HANAJI.avi"
//Break Periods
2,15335,21369
//Storyboard Layer 0 (Background)
//Storyboard Layer 1 (Failing)
//Storyboard Layer 2 (Passing)
//Storyboard Layer 3 (Foreground)
4,3,0,"b12.png",210,300 F,0,15394,17463,0,1 M,0,15394,16946,0,300,180,300 M,0,16946,17463,180,300,210,300 F,0,19532,21601,1,0
//Storyboard Sound Samples
//Background Colour Transformations
3,100,235,5,30

[TimingPoints]
5567,517.241379310345,4,1,0,100,1,0
13567,-100,4,1,0,0,0,1
22101,-100,4,1,0,100,0,0
28567,-100,4,2,0,100,0,0
30377,-100,4,1,0,100,0,0
36843,-100,4,2,0,100,0,0
45118,-100,4,1,0,100,0,0
54687,-100,4,1,0,0,0,1
56239,-100,4,1,0,100,0,0
62705,-100,4,2,0,100,0,0
64515,-100,4,1,0,100,0,0
70981,-100,4,2,0,100,0,0
72791,-100,4,1,0,100,0,0
80808,-100,4,1,0,0,0,1

[Colours]
Combo1 : 235,5,30
Combo2 : 235,235,235
Combo3 : 150,150,150
Combo4 : 245,240,145

[HitObjects]
96,64,5567,1,0
176,64,5825,1,8
256,64,6084,1,0
296,64,6213,1,0
336,64,6343,1,8
376,64,6472,1,4
416,64,6601,6,0,B|416:152,1,80,0|8
416,224,7119,1,0
416,264,7248,1,0
416,304,7377,1,8
416,344,7506,1,4
376,344,7636,5,0
296,344,7894,1,8
216,344,8153,2,0,B|160:344,3,40,0|0|8|4
176,304,8670,5,0
208,280,8800,1,0
240,256,8929,1,8
272,232,9058,1,2
368,160,9446,1,8
368,80,9705,5,0
288,80,9963,1,8
208,80,10222,2,0,B|160:80,1,40
128,80,10481,2,0,B|80:80,1,40,8|4
48,80,10739,5,0
96,144,10998,1,8
144,208,11256,1,0
144,208,11386,1,0
144,208,11515,1,8
144,208,11644,1,4
168,240,11774,6,0,B|200:272,1,40
272,264,12291,2,0,B|312:224,1,40
304,152,12808,1,2
304,72,13067,1,2
384,72,13325,1,6
256,192,13584,12,0,15135
184,112,22119,5,0
216,184,22377,1,8
296,184,22636,1,0
328,112,22894,1,8
256,72,23153,1,0
256,72,23282,1,0
256,72,23412,1,8
256,72,23541,2,0,B|256:224,1,120,0|8
256,272,24188,5,0
336,272,24446,1,8
416,272,24705,1,0
496,272,24963,1,8
496,192,25222,2,0,B|496:136,2,40,0|0|8
496,192,25610,2,0,B|368:192,1,120,0|8
296,192,26256,5,0
216,192,26515,1,8
136,192,26774,1,0
56,192,27032,1,8
56,272,27291,2,0,B|144:272,1,80,0|8
216,272,27808,1,0
216,352,28067,1,8
216,352,28196,1,0
336,352,28584,5,2
416,352,28843,1,2
376,192,29360,1,2
376,192,29489,2,2,B|376:96,1,80,2|4
192,40,30394,6,0,B|296:40,1,80,0|8
312,40,30782,1,0
352,40,30912,2,0,B|432:112,1,80,0|8
472,144,31429,1,0
472,144,31558,1,0
472,144,31688,1,8
472,144,31817,1,0
472,264,32205,1,8
432,336,32463,6,0,B|336:336,1,80,0|8
312,336,32851,1,0
272,336,32981,2,0,B|184:336,1,80,0|8
112,336,33498,2,0,B|64:336,1,40
112,336,33756,2,0,B|168:336,1,40,8|0
112,224,34274,1,8
112,144,34532,6,0,B|16:144,1,80,0|8
32,104,34920,1,0
32,64,35050,2,0,B|128:64,1,80,0|8
192,64,35567,1,0
272,64,35825,1,8
352,64,36084,1,0
432,64,36343,1,8
432,64,36472,1,0
480,168,36860,5,2
456,136,36989,1,2
432,168,37119,1,2
456,200,37248,1,2
456,320,37636,1,2
456,320,37765,2,2,B|336:320,1,80,2|4
256,64,38929,6,0,B|216:16|176:88,1,80
168,104,39317,2,0,B|120:168|168:224,1,120
184,248,39834,1,0
208,280,39963,1,0
240,304,40093,1,2
352,336,40481,1,8
424,296,40739,6,0,B|472:264|424:216,1,80
434,228,41256,2,0,B|402:186|474:146,1,80,0|0
452,160,41774,2,0,B|488:115|440:75,1,80
428,55,42162,1,2
325,117,42550,1,8
174,61,43067,5,0
104,80,43325,1,0
72,104,43455,2,0,B|8:144|48:232,1,120
64,288,44101,1,0
120,336,44360,2,0,B|168:352,1,40
240,352,44748,1,2
360,344,45136,5,0
437,321,45394,1,0
495,265,45653,1,2
492,185,45912,1,0
455,113,46170,1,0
394,60,46429,1,2
314,58,46688,1,4
234,53,46946,5,0
172,104,47205,1,0
116,45,47463,1,0
55,97,47722,1,8
18,167,47981,1,0
18,167,48110,2,0,B|0:236|71:248,1,80
148,287,48756,1,8
212,333,49015,5,0
272,280,49274,1,0
306,352,49532,1,0
365,298,49791,1,8
401,368,50050,1,0
401,368,50179,2,0,B|471:353|472:294,1,80
486,205,50825,1,8
462,128,51084,6,0,B|454:68|384:75,1,80,0|2
328,79,51601,1,0
328,79,51731,1,0
209,95,52119,2,0,B|183:143|108:113,1,80,0|2
69,85,52636,1,0
69,85,52765,1,0
94,202,53153,5,2
126,303,53325,1,2
202,228,53498,1,2
233,329,53670,1,2
313,259,53842,1,2
341,362,54015,1,2
422,293,54188,1,2
256,192,54705,12,0,55740
472,280,56256,5,0
447,203,56515,1,2
418,128,56774,1,0
389,53,57032,1,8
308,54,57291,1,0
268,54,57420,2,0,B|157:54,1,80
64,56,58067,1,8
120,104,58325,6,0,B|198:164|198:164|199:162,1,80,0|2
264,152,58843,2,0,B|335:93,1,80,0|8
384,152,59360,2,0,B|426:198,1,40
464,240,59748,1,0
488,360,60136,1,8
336,320,60653,5,0
260,341,60912,1,0
221,353,61041,2,0,B|155:373|83:338,1,120
69,324,61558,1,0
44,292,61688,1,2
34,253,61817,1,0
41,213,61946,1,2
57,176,62075,1,0
81,144,62205,1,2
110,116,62334,1,4
220,69,62722,6,2,B|335:69,1,80
139,71,63498,2,2,B|84:71,1,40
19,72,63886,1,4
107,251,64532,6,0,B|112:308|196:292,1,80,0|2
164,215,65050,2,0,B|224:204|228:276,1,80,0|8
274,315,65567,1,0
307,337,65696,2,0,B|367:369|404:303,1,80
483,266,66343,1,8
437,199,66601,5,0
502,152,66860,1,2
434,109,67119,1,0
489,51,67377,1,8
415,20,67636,1,0
377,6,67765,2,0,B|342:-17|287:13,1,80
194,62,68412,1,8
47,126,68929,5,0
87,194,69188,1,0
118,218,69317,2,0,B|168:277|256:256,1,120
264,254,69834,1,0
303,256,69963,1,2
341,265,70093,1,0
377,279,70222,1,2
411,298,70351,1,0
439,325,70481,1,2
462,357,70610,1,4
485,239,70998,6,2,B|485:155,1,80
398,24,71774,2,2,B|348:24,1,40
277,24,72162,1,4
96,104,72808,5,0
16,104,73067,1,8
56,168,73325,1,0
56,208,73455,1,0
56,248,73584,1,8
56,288,73713,1,4
56,328,73843,6,0,B|144:328,1,80,0|8
216,328,74360,1,0
256,328,74489,1,0
296,328,74619,1,8
336,328,74748,1,4
376,328,74877,5,0
456,328,75136,1,8
456,248,75394,1,0
456,208,75524,1,0
456,168,75653,1,8
456,128,75782,1,4
456,88,75912,5,0
424,64,76041,2,0,B|384:32,1,40,0|8
360,16,76300,2,0,B|312:16,1,40,2|0
280,16,76558,2,0,B|232:16,1,40,0|10
160,16,76946,5,0
80,16,77205,1,8
0,16,77463,1,0
0,56,77593,1,0
0,96,77722,1,8
0,136,77851,1,4
0,176,77981,5,0
48,232,78239,1,8
104,288,78498,1,0
128,312,78627,1,0
152,336,78756,1,8
176,360,78886,1,4
216,360,79015,6,0,B|264:360,1,40
464,192,79532,2,0,B|408:192,1,40,0|0
256,64,80050,5,2
128,288,80308,1,2
384,288,80567,1,6
256,192,80825,12,0,82377
