osu file format v5

[General]
AudioFilename: HANAJI.mp3
AudioLeadIn: 0
PreviewTime: 5571
Countdown: 0
SampleSet: Soft
StackLeniency: 1
Mode: 0
LetterboxInBreaks: 1
UseSkinSprites: 1
EditorBookmarks: 4655,21724

[Metadata]
Title:Hanaji(TV Size)
Artist:Yuu Kobayashi
Creator:abalee
Version:Hard
Source:Maria+Holic OP
Tags:Maria Holic Hanaji Yuu Kobayashi

[Difficulty]
HPDrainRate:7
CircleSize:5
OverallDifficulty:7
SliderMultiplier:1.4
SliderTickRate:2

[Events]
//Background and Video events
0,0,"bg.png"
1,388,"HANAJI.avi"
//Break Periods
2,15335,21219
//Storyboard Layer 0 (Background)
//Storyboard Layer 1 (Failing)
//Storyboard Layer 2 (Passing)
//Storyboard Layer 3 (Foreground)
4,3,0,"b12.png",210,300 F,0,15394,17463,0,1 M,0,15394,16946,0,300,180,300 M,0,16946,17463,180,300,210,300 F,0,19532,21601,1,0
4,3,1,"hitcircle.png",160,144 F,0,52370,53146,0,1 C,0,52370,56249,250,250,200,250,250,200 S,0,55732,55732,0.51,0.51 F,0,56249,56249,1,0
4,3,1,"hitcircleoverlay.png",160,144 F,0,52370,53146,0,1 F,0,53146,56149,1,1 S,0,55732,55732,0.51,0.51
4,3,1,"approachcircle.png",160,144 F,0,52370,53146,0,1 S,0,52370,53146,3,1.98 C,0,52370,53146,250,250,200,250,250,200 S,0,55334,56235,1.98,0.51 F,0,56249,56249,1,0
4,3,1,"default-1.png",160,144 F,0,52370,53146,0,1 F,0,53146,56249,1,1 S,0,55732,55732,0.4,0.4
//Storyboard Sound Samples
//Background Colour Transformations
3,100,235,5,30

[TimingPoints]
5567,517.241379310345,4,2,1,100,1,0
8544,-100,4,1,1,100,0,0
9320,-100,4,2,1,100,0,0
12682,-100,4,1,0,100,0,0
13457,-100,4,1,0,0,0,1
15397,-100,4,1,1,100,0,0
21992,-100,4,2,1,100,0,0
23026,-100,4,1,1,100,0,0
24061,-100,4,2,1,100,0,0
25095,-100,4,1,1,100,0,0
28457,-100,4,2,0,100,0,1
30138,-100,4,2,1,100,0,0
34923,-100,4,1,0,100,0,0
35440,-100,4,2,0,100,0,0
35957,-100,4,1,0,100,0,0
36604,-100,4,2,1,100,0,0
37509,-100,4,1,1,100,0,0
38391,-100,4,2,1,100,0,0
44233,-100,4,1,1,100,0,0
46820,-100,4,2,1,100,0,0
50804,-200,4,2,1,100,0,0
53017,-100,4,1,1,100,0,0
73199,-100,4,2,1,100,0,0
73716,-100,4,1,1,100,0,0
74233,-100,4,2,1,100,0,0
74751,-100,4,1,1,100,0,0
75268,-100,4,2,1,100,0,0
75785,-100,4,1,1,100,0,0
76302,-100,4,2,1,100,0,0
76820,-100,4,1,0,100,0,0
77078,-100,4,2,0,100,0,0
77337,-100,4,1,0,100,0,0
77595,-100,4,2,0,100,0,0
77854,-100,4,1,0,100,0,0
78113,-100,4,2,0,100,0,0
78371,-100,4,1,0,100,0,0
78630,-100,4,2,0,100,0,0
78888,-100,4,1,1,100,0,0
79406,-100,4,2,1,100,0,0
79923,-100,4,1,0,100,0,0
80672,-100,4,1,0,0,0,1
82758,-100,4,1,0,100,0,0

[Colours]
Combo1 : 235,5,30
Combo2 : 235,235,235
Combo3 : 150,150,150
Combo4 : 245,240,145

[HitObjects]
256,48,5567,2,0,B|320:104,1,70
256,144,6084,1,2
256,144,6213,1,2
256,144,6343,1,2
312,184,6601,2,0,B|368:128,1,70
416,176,7119,1,4
416,176,7248,1,4
416,176,7377,1,4
368,232,7636,2,0,B|312:288,1,70
248,280,8153,1,8
248,280,8282,1,8
248,280,8412,1,8
248,208,8670,6,0,B|192:208,1,35
176,208,8929,2,0,B|176:264,1,35
176,64,9705,5,2
176,64,9963,1,2
248,64,10222,2,0,B|288:64,2,35
248,136,10739,1,4
248,136,10998,1,4
320,136,11256,2,0,B|368:136,2,35
312,208,11774,6,4,B|360:208,1,35,0|0
368,312,12291,2,4,B|416:312,1,35
256,256,12808,5,0
256,112,13067,1,0
136,192,13325,1,4
256,192,13584,12,0,15135
88,64,22119,5,0
88,64,22377,1,2
152,56,22636,1,0
152,56,22894,1,2
216,64,23153,2,0,B|256:72,3,35
424,104,24188,6,0,B|480:160,1,70,0|4
416,192,24705,2,0,B|328:192,1,70,0|4
312,256,25222,1,0
312,256,25351,1,0
312,256,25481,1,0
312,256,25610,1,0
336,80,26256,5,0
272,112,26515,1,0
208,136,26774,2,0,B|184:80,1,35
184,72,27032,1,8
112,96,27291,2,0,B|128:144,1,35
136,160,27550,1,8
192,200,27808,2,0,L|352:200,1,140,0|4
295,136,28584,6,4,B|256:104|216:152,1,70,4|4
256,192,29101,12,4,29877
320,56,30394,6,0,B|360:64|384:120,1,70,0|2
384,168,30912,1,0
384,168,31041,1,0
384,168,31170,1,0
392,240,31429,2,0,B|328:288|248:248,2,140,0|4|2
432,296,32722,1,0
432,296,32851,1,2
432,296,32981,1,2
464,232,33239,2,0,B|488:160|480:64,2,140,0|4|2
392,208,34532,5,4
336,248,34791,1,4
312,184,35050,1,0
264,232,35308,1,0
232,168,35567,1,4
184,216,35825,1,4
136,168,36084,1,0
72,200,36343,1,0
72,200,36472,1,4
64,272,36731,5,2
64,272,36860,1,2
136,272,37119,2,0,B|168:256,2,35
160,336,37636,1,0
160,336,37765,1,0
232,336,38024,1,0
232,336,38153,1,4
408,224,38929,5,0
408,224,39058,1,0
408,224,39188,2,0,B|408:160|384:128,1,70,0|2
376,88,39705,1,0
376,88,39834,1,0
376,88,39963,1,0
376,88,40093,1,2
376,88,40222,2,0,B|328:64|288:80,1,70,0|4
240,72,40739,6,0,B|240:24,2,35,0|2|2
168,80,41256,1,0
168,80,41386,1,2
168,80,41515,1,0
104,112,41774,2,0,B|104:176,1,35,0|2
48,192,42162,2,0,B|88:224,1,35,0|2
128,256,42550,1,0
152,320,42808,1,4
224,328,43067,6,0,B|272:328|320:304,1,70,0|2
360,288,43584,1,4
392,224,43843,2,0,B|384:184|328:144,1,70,0|2
336,96,44360,2,0,B|272:72|232:72,2,105,0|4|2
312,160,45394,1,8
312,160,45653,1,8
304,232,45912,2,0,B|352:240|440:216,2,105,0|4|2
264,296,46946,5,0
264,296,47075,1,2
264,296,47205,1,2
192,304,47463,2,4,B|152:336|104:312,1,70
80,264,47981,1,0
80,264,48110,1,2
48,200,48369,1,0
48,200,48498,1,2
192,192,49015,6,0,B|176:160,2,35,0|0|2
264,192,49532,1,0
264,192,49791,1,2
264,120,50050,2,0,B|304:96,1,35,0|2
344,56,50438,2,0,B|384:96,1,35,0|2
392,184,51084,6,4,B|352:272,1,70
152,248,52118,2,4,B|120:168,1,70
96,72,56256,5,0
168,72,56515,1,8
240,72,56774,1,0
312,72,57032,1,8
384,72,57291,2,0,B|448:88|472:176,2,140,0|8|0
336,128,58584,2,0,B|264:200,1,70,0|8
336,232,59101,2,0,B|272:304,1,70,0|8
216,280,59619,2,0,B|224:224,2,35,0|0|8
144,272,60136,1,2
144,272,60265,1,2
144,272,60394,1,4
112,208,60653,6,0,B|72:200|80:152,2,70,0|8|0
168,176,61429,2,0,B|216:168|200:112,1,70
152,88,61946,1,8
152,88,62075,1,0
152,88,62205,2,0,B|208:32|296:40,1,140,0|4
344,64,62981,1,0
336,136,63239,1,0
336,136,63369,1,0
336,136,63498,1,0
264,144,63756,2,0,B|248:216|328:288,1,140,0|4
368,232,64532,5,0
416,176,64791,1,0
440,112,65050,1,0
368,104,65308,2,8,B|368:56,2,35
296,96,65825,2,0,B|240:56|144:80,1,140,0|2
128,136,66601,5,0
128,136,66731,1,0
128,136,66860,1,0
144,72,67119,2,0,B|176:40|288:40,1,140
344,48,67894,1,0
376,64,68023,1,0
400,88,68153,1,0
432,152,68412,2,8,B|376:192,2,35,8|8|4
464,216,68929,5,0
440,280,69188,1,8
408,296,69317,1,8
376,304,69446,1,0
304,304,69705,2,0,B|248:240,1,70,0|2
312,208,70222,2,0,B|360:144,1,70,0|2
288,128,70739,2,0,B|248:64,1,70,0|2
184,80,71256,2,0,B|96:88|64:160,1,140
72,216,72032,1,2
72,216,72162,1,2
72,216,72291,1,4
200,200,72808,6,0,B|200:152,2,35
272,200,73325,2,4,B|312:200|352:144,1,70
272,120,73843,2,0,B|296:80|336:72,1,70
376,120,74360,1,2
376,120,74489,1,2
376,120,74619,1,2
432,160,74877,6,0,B|456:128,2,35
432,232,75394,2,4,B|384:248|360:224,1,70
312,184,75912,1,0
312,184,76041,1,0
312,184,76170,1,0
240,168,76429,2,4,B|192:168|184:240,1,70
192,312,76946,5,0
296,312,77205,1,4
296,208,77463,1,0
400,208,77722,1,4
296,208,77981,1,0
296,312,78239,1,4
192,312,78498,1,0
192,208,78756,1,4
256,128,79015,6,8,B|256:208,1,70
256,304,79532,2,8,B|256:232,1,70
360,192,80050,5,0
256,192,80308,1,0
152,192,80567,1,4
256,192,80825,12,0,82377
