osu file format v5

[General]
AudioFilename: owen.mp3
AudioLeadIn: 0
PreviewTime: -1
Countdown: 1
SampleSet: Soft
StackLeniency: 0.7
Mode: 0
LetterboxInBreaks: 1
EditorBookmarks: 25497,62154,86613
EditorDistanceSpacing: 1

[Metadata]
Title:U.N. Owen was Her?
Artist:Yuu
Creator:ignorethis
Version:Normal
Source:Sound Sepher
Tags:Touhou McDonald Owen Yuu

[Difficulty]
HPDrainRate:2
CircleSize:4
OverallDifficulty:6
SliderMultiplier:1.5
SliderTickRate:1

[Events]
//Background and Video events
0,0,"fl1.jpg"
//Break Periods
2,74583,85713
2,98660,110021
//Storyboard Layer 0 (Background)
//Storyboard Layer 1 (Fail)
//Storyboard Layer 2 (Pass)
//Storyboard Layer 3 (Foreground)
//Storyboard Sound Samples
//Background Colour Transformations
3,100,0,0,0

[TimingPoints]
1008,382.165605095541,4,2,0,100,1,0

[Colours]
Combo1 : 255,150,0
Combo2 : 5,240,5
Combo3 : 5,5,240
Combo4 : 240,5,5

[HitObjects]
256,48,25466,1,0
256,200,25848,1,0
408,200,26230,1,0
408,48,26613,1,0
256,48,26995,6,0,B|96:48,1,150,0|8
72,112,27568,1,0
88,184,27759,2,0,B|248:184,1,150,0|8
376,264,28523,5,0
312,296,28715,1,0
240,312,28906,1,8
168,304,29097,1,0
104,264,29288,1,0
48,208,29479,2,0,B|0:208,2,37.5,0|0|8
24,136,29861,1,0
40,64,30052,2,0,B|120:64,1,75
144,128,30434,2,0,B|232:128,1,75,8|0
248,192,30816,2,0,B|408:192,1,150,0|8
416,56,31581,5,4
472,192,31963,1,8
416,336,32345,1,0
472,192,32727,1,8
320,192,33109,2,0,B|160:192,1,150,0|8
96,192,33683,1,0
96,120,33874,2,0,B|264:120,1,150,0|8
384,48,34638,5,0
448,80,34829,1,0
448,152,35020,1,8
392,200,35211,1,0
392,272,35402,1,0
392,344,35593,2,0,B|440:344,2,37.5,0|0|8
320,312,35976,1,0
320,240,36167,2,0,B|320:72,3,150,0|8|0|8
168,72,37695,5,4
80,192,38078,1,8
200,280,38460,1,0
288,160,38842,1,8
408,72,39224,2,0,B|456:160|424:232,1,150,0|8
392,280,39797,1,0
352,344,39988,2,0,B|184:344,1,150,0|8
64,288,40753,5,0
88,216,40944,1,0
152,248,41135,1,8
184,176,41326,1,0
248,216,41517,1,0
272,144,41708,2,0,B|248:96,2,37.5,0|0|8
336,176,42090,1,0
360,104,42281,2,0,B|424:40,1,75
472,96,42664,2,0,B|464:184,1,75,8|0
456,240,43046,2,0,B|496:352|352:336,1,150,0|8
240,336,43810,5,4
240,184,44192,1,8
104,248,44574,1,0
240,184,44957,1,8
104,128,45339,2,0,B|96:40|232:40,1,150,0|8
272,56,45912,1,0
344,56,46103,2,0,B|496:56,2,150,0|8|0
304,120,47058,5,0
344,184,47250,1,8
304,248,47441,1,0
304,320,47632,1,0
232,320,47823,2,0,B|232:376,2,37.5,0|0|8
160,320,48205,1,0
88,320,48396,2,2,B|32:240|48:128|128:40|320:48,1,450
280,192,49925,6,0,B|368:192,1,75,4|0
384,256,50307,2,0,B|288:256,1,75
288,328,50689,2,0,B|192:328,1,75
184,256,51071,2,0,B|96:256,1,75
80,184,51453,2,0,B|168:184,1,75
128,112,51836,2,0,B|216:112,1,75
216,40,52218,2,0,B|304:40,1,75
304,112,52600,2,0,B|208:112,1,75
240,184,52982,6,0,B|328:184,1,75
392,184,53364,2,0,B|472:184,1,75
440,248,53746,2,0,B|344:248,1,75
288,248,54129,2,0,B|200:248,1,75
208,320,54511,2,2,B|136:320|72:312|48:192|56:128|88:72|224:24,1,450
288,48,55848,1,2
360,64,56039,6,0,B|360:152,1,75,4|0
424,104,56422,2,0,B|424:192,1,75
488,144,56804,2,0,B|488:224,1,75
424,184,57186,2,0,B|424:272,1,75
352,272,57568,2,0,B|352:184,1,75
280,168,57950,2,0,B|280:256,1,75
208,272,58332,2,0,B|208:184,1,75
136,168,58715,2,0,B|136:256,1,75
256,192,59097,12,6,61772
56,192,62154,5,0
184,120,62536,1,8
248,256,62918,1,0
376,184,63300,1,8
464,304,63683,2,0,B|504:232|456:136,1,150,0|8
432,88,64256,1,0
368,40,64447,2,0,B|192:40,2,150,0|8|0
336,104,65402,5,0
368,176,65593,1,8
296,200,65785,1,0
312,272,65976,1,0
240,296,66167,2,0,B|240:352,2,37.5,0|0|8
168,272,66549,1,0
120,216,66740,1,0
128,144,66931,1,0
160,80,67122,1,8
224,40,67313,1,0
296,40,67504,2,0,B|368:56|400:168,1,150,0|8
336,288,68269,6,0,B|160:288,1,150,4|8
152,144,69033,2,0,B|312:144,1,150,0|8
400,256,69797,2,0,B|456:192|384:96,1,150,0|8
352,56,70371,1,0
280,72,70562,2,0,B|104:72,1,150,0|8
64,216,71326,5,0
80,288,71517,1,0
144,328,71708,1,8
216,328,71899,1,0
288,304,72090,2,8,B|376:288|328:168,1,150,0|8
304,120,72664,1,0
256,192,72855,12,6,74383
40,56,86613,6,0,B|224:56,1,150,0|2
336,56,87377,2,0,B|488:56,1,150,0|2
480,208,88141,2,0,B|304:208,1,150,0|2
176,208,88906,2,0,B|24:208,1,150,0|2
120,328,89670,6,0,B|304:328,3,150,0|2|0|2
272,176,91199,2,0,B|440:176,3,150,0|2|0|2
358,40,92727,6,2,B|358:160|358:160|478:160|478:160|477:299|477:299|391:300,1,450
240,312,94256,2,2,B|112:312|112:312|112:128|112:128|272:128,1,450
256,192,95785,12,4,98460
256,192,111071,12,0,114129
256,80,114511,5,2
120,152,114893,1,0
200,280,115275,1,2
336,208,115657,1,0
256,80,116039,1,2
120,152,116422,1,0
200,280,116804,1,2
336,208,117186,6,0,B|504:208,1,150,4|0
472,136,117759,1,0
456,64,117950,2,0,B|288:64,1,150
232,64,118523,1,0
152,64,118715,2,0,B|72:64|56:176,3,150
48,240,120052,1,0
48,312,120243,6,0,B|200:312,1,150
272,312,120816,1,0
344,312,121007,2,0,B|512:312,1,150
472,240,121581,1,0
440,168,121772,2,0,B|272:168,3,150,0|2|0|2
216,168,123109,1,2
144,168,123300,6,0,B|48:168,1,75,4|0
40,240,123683,2,0,B|128:240,1,75,8|0
192,240,124065,2,0,B|288:240,1,75
344,240,124447,2,0,B|448:240,1,75,8|0
480,200,124829,2,0,B|472:104|368:72,1,150,0|8
352,144,125402,1,0
304,88,125593,2,0,B|144:88,1,150,0|8
128,160,126167,1,0
64,200,126358,6,0,B|64:296,1,75
128,304,126740,2,0,B|128:208,1,75,8|0
192,200,127122,2,0,B|192:288,1,75
256,304,127504,2,0,B|256:208,1,75,8|0
328,200,127886,2,0,B|328:256|440:256|440:200,1,150,0|8
384,152,128460,1,0
328,104,128651,2,0,B|328:48|440:48|440:104,1,150,0|8
384,152,129224,1,0
440,200,129415,6,0,B|440:352,1,150,4|8
296,312,130179,2,0,B|296:152,1,150,0|8
152,104,130944,2,0,B|152:280,3,150,0|8|0|8
256,192,132472,12,6,135530
