osu file format v5

[General]
AudioFilename: owen.mp3
AudioLeadIn: 0
PreviewTime: -1
Countdown: 1
SampleSet: Soft
StackLeniency: 0.7
Mode: 0
LetterboxInBreaks: 1
EditorBookmarks: 25499,43796,49908,56020,62133,74367,86592,98817,104929,107985,111041,123276,147725,172174,178297
EditorDistanceSpacing: 0.600000023841858

[Metadata]
Title:U.N. Owen was Her?
Artist:Yuu
Creator:ignorethis
Version:Hard
Source:Sound Sepher
Tags:Touhou McDonald Owen Yuu Dojin

[Difficulty]
HPDrainRate:3
CircleSize:5
OverallDifficulty:7
SliderMultiplier:1.9
SliderTickRate:0.5

[Events]
//Background and Video events
0,0,"fl3.jpg"
//Break Periods
2,74583,85863
2,159768,171424
//Storyboard Layer 0 (Background)
//Storyboard Layer 1 (Fail)
//Storyboard Layer 2 (Pass)
//Storyboard Layer 3 (Foreground)
//Storyboard Sound Samples
//Background Colour Transformations
3,100,0,0,0

[TimingPoints]
1008,382.165605095541,4,2,0,100,1,0
36153,-100,4,2,0,30,0,0
36535,-100,4,2,0,50,0,0
36917,-100,4,2,0,70,0,0
36917,-100,4,2,0,70,0,0
37299,-100,4,2,0,100,0,0
43030,-100,4,2,0,50,0,0
43221,-100,4,2,0,70,0,0
43412,-100,4,2,0,90,0,0
43603,-100,4,2,0,100,0,0
63659,-200,4,2,0,100,0,0
64041,-100,4,2,0,100,0,0
107209,-200,4,2,0,100,0,0
107718,-100,4,2,0,100,0,0
137006,-200,4,2,0,100,0,0
137389,-100,4,2,0,100,0,0

[Colours]
Combo1 : 255,150,0
Combo2 : 5,240,5
Combo3 : 5,5,240
Combo4 : 240,5,5

[HitObjects]
56,112,25466,2,0,B|32:208|64:320,1,190
456,272,26230,2,0,B|480:176|448:64,1,190
144,32,26995,6,0,B|88:136|128:232,1,190,4|8
208,200,27568,1,0
296,200,27759,2,0,B|296:280|384:304|432:232,1,190,0|8
40,40,28523,6,0,B|136:40,1,95
136,112,28906,2,0,B|24:112,1,95,8|0
40,184,29288,1,0
136,184,29479,1,0
128,184,29574,1,0
120,184,29670,1,8
40,184,29861,1,0
40,256,30052,2,0,B|144:256,1,95
136,328,30434,2,0,B|32:328,1,95,8|0
40,256,30816,2,0,B|240:256,1,190,0|8
456,104,31581,6,0,B|424:192|472:264|448:312,1,190,4|8
56,104,32345,2,0,B|88:192|40:264|64:312,1,190,0|8
296,352,33109,2,0,B|352:152,1,190,0|8
264,144,33683,1,0
288,72,33874,2,0,B|240:32|120:40|80:64,1,190,0|8
464,344,34638,6,0,B|464:232,1,95
392,248,35020,2,0,B|392:128,1,95,8|0
464,152,35402,1,0
392,152,35593,1,0
384,152,35689,1,0
376,152,35785,1,8
296,152,35976,1,0
296,72,36167,2,0,B|296:32,24,23.75
48,112,37695,6,0,B|64:32|160:32|184:128,1,190,4|8
464,272,38460,2,0,B|448:352|352:352|328:256,1,190,0|8
64,152,39224,2,0,B|264:152,1,190,0|8
256,232,39797,1,0
336,232,39988,2,0,B|368:312|320:368|232:344,2,190,0|8|0
336,160,40944,5,0
408,160,41135,1,8
480,160,41326,1,0
448,96,41517,1,0
368,96,41708,1,0
368,88,41804,1,0
368,80,41899,1,8
288,96,42090,1,0
256,160,42281,2,0,B|152:160,2,95,0|0|8
288,224,42855,1,0
328,288,43046,2,0,B|368:288,12,23.75
256,288,43810,6,0,B|176:344|56:304,1,190,4|8
256,96,44574,2,0,B|336:40|456:80,1,190,0|8
256,200,45339,2,0,B|184:256|112:152|184:96,1,190,0|8
168,40,45912,1,0
240,40,46103,2,0,B|440:40,2,190,0|8|0
168,40,47058,5,0
240,104,47250,1,8
168,104,47441,1,0
240,160,47632,1,0
168,160,47823,1,0
160,160,47918,1,0
152,160,48014,1,8
240,216,48205,1,0
168,216,48396,2,0,B|168:320|248:352|296:344,2,190,0|8|0
240,216,49351,1,0
240,208,49447,1,0
240,200,49543,1,8
240,192,49638,1,0
240,184,49734,1,0
240,104,49925,5,4
320,104,50116,1,0
320,96,50211,1,0
320,88,50307,1,0
400,104,50498,1,0
480,104,50689,1,0
440,176,50880,1,0
440,184,50976,1,0
440,192,51071,1,0
360,176,51262,1,0
280,176,51453,6,0,B|176:176,1,95
176,176,51740,1,0
168,176,51836,1,0
104,176,52027,1,0
24,176,52218,2,0,B|24:64,1,95
24,72,52504,1,0
24,64,52600,1,0
104,80,52791,1,0
176,80,52982,6,0,B|232:80,2,47.5
224,144,53364,1,0
272,80,53555,1,0
320,144,53746,2,0,B|272:144,2,47.5
360,80,54129,1,0
408,144,54320,1,0
456,80,54511,6,0,B|504:104|504:224|448:256,2,190
360,80,55466,1,0
360,88,55562,1,0
360,96,55657,1,0
360,104,55753,1,0
360,112,55848,1,0
360,184,56039,5,4
360,256,56230,1,0
360,264,56326,1,0
360,272,56422,2,0,B|248:272,1,95
256,104,56804,1,0
144,256,56995,1,0
144,264,57090,1,0
144,272,57186,2,0,B|240:272,1,95
256,104,57568,1,0
368,48,57759,5,0
368,56,57855,1,0
368,64,57950,2,0,B|368:160,1,95
368,168,58237,1,0
368,176,58332,1,0
432,112,58523,1,0
488,168,58715,1,0
432,224,58906,1,0
344,216,59097,6,0,B|360:312,1,95
280,256,59479,2,0,B|264:352,1,95
200,272,59861,2,0,B|152:360,1,95
120,248,60243,2,0,B|48:312,1,95
72,184,60625,2,0,B|16:184,7,47.5
72,160,61390,2,0,B|104:160,15,23.75,0|0|0|0|0|0|0|0|0|0|0|0|0|0|0|0
72,160,62154,5,6
72,136,62250,1,0
72,112,62345,1,0
72,88,62441,1,0
72,64,62536,1,8
152,32,62727,1,0
152,56,62823,1,0
152,80,62918,1,0
152,104,63014,1,0
152,128,63109,1,0
152,152,63205,1,0
152,176,63300,1,8
72,208,63492,1,0
72,184,63587,1,0
72,160,63683,6,0,B|80:96|136:72,1,95,0|8
184,80,64256,1,0
256,80,64447,2,0,B|328:80|384:40|456:56,2,190,0|8|0
184,80,65402,5,0
120,136,65593,1,8
184,192,65785,1,0
120,248,65976,1,0
184,296,66167,1,0
184,304,66262,1,0
184,312,66358,1,8
120,344,66549,1,0
48,296,66740,2,0,B|48:200,1,95
48,128,67122,2,0,B|48:24,1,95,8|0
120,32,67504,2,0,B|320:32,2,190,0|8|4
120,56,68364,5,0
120,80,68460,1,0
120,104,68555,1,0
120,128,68651,1,8
208,192,68842,1,0
296,128,69033,1,0
283,107,69129,1,0
270,86,69224,1,0
259,64,69320,1,0
247,46,69415,1,8
128,73,69606,1,0
129,51,69702,1,0
128,32,69797,2,0,B|72:120|80:224,1,190,0|8
79,212,70371,2,0,B|88:312,1,95
88,304,70944,1,8
448,120,71326,5,0
368,72,71517,1,0
320,152,71708,1,8
400,200,71899,1,0
448,120,72090,1,0
368,72,72281,1,0
360,64,72377,1,0
352,56,72472,1,8
320,152,72664,1,0
256,192,72855,12,2,73619
256,192,74001,5,2
256,192,74097,1,2
256,192,74192,1,2
256,192,74288,1,2
256,192,74383,1,6
48,48,86613,6,0,B|120:48,1,63.3333333333333
160,48,86867,2,0,B|224:48,1,63.3333333333333
272,48,87122,2,0,B|352:48,1,63.3333333333333
384,48,87377,1,0
424,72,87504,1,0
464,104,87632,1,2
464,152,87759,1,0
424,184,87886,1,0
384,216,88014,1,2
336,216,88141,6,0,B|264:216,1,63.3333333333333
224,216,88396,2,0,B|136:216,1,63.3333333333333
112,216,88651,2,0,B|32:216,1,63.3333333333333
48,264,88906,1,0
48,312,89033,1,0
88,344,89160,1,2
136,344,89288,1,0
176,312,89415,1,0
176,264,89543,1,2
176,216,89670,6,0,B|240:216,2,63.3333333333333
176,168,90052,2,0,B|104:168,2,63.3333333333333
176,120,90434,2,0,B|240:120,2,63.3333333333333
176,72,90816,2,0,B|104:72,2,63.3333333333333
176,16,91199,5,0
224,16,91326,1,0
264,40,91453,1,2
264,88,91581,2,0,B|328:88,2,63.3333333333333,0|0|2
264,136,91963,1,0
264,184,92090,1,0
264,232,92218,1,2
304,256,92345,2,0,B|304:328,2,63.3333333333333,0|0|2
352,232,92727,5,0
352,184,92855,1,0
352,136,92982,1,0
352,88,93109,2,0,B|424:88,2,63.3333333333333
320,48,93492,2,0,B|192:48,1,126.666666666667,0|2
144,48,93874,2,0,B|104:112|144:176,1,126.666666666667,0|2
192,160,94256,5,0
240,168,94383,1,0
288,160,94511,1,0
336,168,94638,1,0
384,160,94765,1,0
432,168,94893,1,0
480,160,95020,2,0,B|504:232|472:304,1,126.666666666667,0|2
456,328,95402,2,0,B|392:360|320:328,1,126.666666666667,0|2
280,336,95785,6,0,B|152:336,1,126.666666666667
168,288,96167,2,0,B|312:288,1,126.666666666667
280,240,96549,2,0,B|152:240,1,126.666666666667
168,192,96931,2,0,B|304:192,1,126.666666666667
256,192,97313,12,4,98460
72,96,98842,6,0,B|72:24,2,63.3333333333333
144,96,99224,2,0,B|144:16,2,63.3333333333333
216,96,99606,2,0,B|216:24,2,63.3333333333333
288,96,99988,2,0,B|288:24,2,63.3333333333333
360,96,100371,6,0,B|440:96,2,63.3333333333333
360,160,100753,2,0,B|424:160,2,63.3333333333333
360,160,101135,1,2
40,248,101644,1,0
40,248,101772,1,0
40,248,101899,6,0,B|56:168,2,63.3333333333333,4|0|0
112,240,102281,2,0,B|152:160,2,63.3333333333333
176,272,102664,2,0,B|240:216,2,63.3333333333333
224,328,103046,2,0,B|304:296,2,63.3333333333333
176,272,103428,5,0
192,248,103555,1,0
216,232,103683,1,0
248,224,103810,1,0
280,229,103937,1,0
305,237,104065,1,0
330,250,104192,1,2
416,64,104957,6,0,B|280:64,1,126.666666666667,4|0
224,64,105339,2,0,B|88:64,1,126.666666666667
40,112,105721,1,0
40,144,105848,1,0
40,176,105976,1,0
40,208,106103,2,0,B|64:280,2,63.3333333333333
104,176,106485,6,0,B|152:232,2,63.3333333333333
160,136,106867,1,0
176,112,106995,1,0
208,104,107122,1,0
240,104,107250,2,2,B|376:104,1,126.666666666667
400,104,107886,1,0
432,104,108014,6,0,B|464:248,1,126.666666666667,4|0
350,352,108396,2,0,B|391:232,1,126.666666666667
292,108,108778,2,0,B|320:232,1,126.666666666667
207,352,109160,2,0,B|248:232,1,126.666666666667
144,104,109543,2,0,B|176:248,1,126.666666666667
63,352,109925,2,0,B|104:232,1,126.666666666667
63,352,110307,5,2
64,192,110562,1,2
64,40,110816,1,2
256,192,111071,12,2,113746
256,40,114129,5,0
256,40,114320,1,2
256,112,114511,1,8
256,112,114702,1,0
256,192,114893,2,0,B|192:272,2,95,0|0|8
256,192,115466,1,0
328,192,115657,6,0,B|424:192,1,95
256,192,116039,2,0,B|144:192,1,95,8|0
328,120,116422,2,0,B|432:120,1,95
256,120,116804,2,0,B|160:120,1,95,8|0
160,48,117186,5,4
224,88,117377,1,0
160,128,117568,1,8
224,160,117759,1,0
288,128,117950,2,0,B|336:88|400:96,1,95
376,168,118332,2,0,B|432:176|464:216,1,95,8|0
456,280,118715,5,0
384,280,118906,1,0
424,344,119097,1,8
352,344,119288,1,0
312,280,119479,2,0,B|256:296|224:232,1,95
296,208,119861,2,0,B|256:160|184:176,1,95,8|0
136,168,120243,5,0
56,168,120434,1,0
48,168,120530,1,0
40,168,120625,1,8
96,96,120816,1,0
144,24,121008,1,0
184,96,121199,1,0
192,96,121294,1,0
200,96,121390,1,8
232,168,121581,1,0
256,192,121772,12,4,122918
304,56,123300,6,0,B|256:24|200:64,1,95
120,144,123683,2,0,B|88:192|128:248,1,95,8|0
208,328,124065,2,0,B|256:360|312:320,1,95
392,240,124447,2,0,B|424:192|384:136,1,95,8|0
304,56,124829,1,0
256,136,125020,1,0
336,184,125211,1,8
384,112,125402,1,0
304,56,125593,1,0
208,184,125785,1,0
336,280,125976,1,8
440,144,126167,1,0
304,56,126358,6,0,B|256:24|192:48,1,95
256,136,126740,2,0,B|224:184|248:248,1,95,8|0
336,184,127122,2,0,B|384:216|448:192,1,95
384,112,127504,2,0,B|416:64|392:0,1,95,8|0
304,56,127886,2,0,B|200:32|96:88,1,190,0|8
256,192,128460,1,0
304,328,128651,2,0,B|200:352|96:296,1,190,0|8
256,192,129224,1,0
256,48,129415,5,4
112,192,129797,1,8
256,336,130179,1,0
400,192,130562,1,8
48,136,130944,2,0,B|48:328,1,190,0|8
256,192,131517,1,0
464,248,131708,2,0,B|464:56,1,190,0|8
256,128,132472,5,0
256,176,132664,1,0
368,96,132855,1,8
368,144,133046,1,0
144,96,133237,1,0
144,144,133428,1,0
256,216,133619,1,8
256,176,133810,1,0
256,40,134001,5,0
256,48,134097,1,0
256,56,134192,1,0
256,64,134288,1,0
256,72,134383,1,0
256,80,134479,1,0
256,88,134574,1,0
256,96,134670,1,0
256,104,134765,1,0
256,112,134861,1,0
256,120,134957,1,0
256,128,135052,1,0
256,136,135148,1,0
256,144,135243,1,0
256,152,135339,1,0
256,160,135434,1,0
256,168,135530,6,2,B|472:168,1,190
256,168,136294,2,2,B|40:168,1,190
256,40,137058,2,0,B|256:152,1,95,4|8
256,200,137632,1,0
168,240,137823,2,0,B|264:312|352:232,1,190,0|8
432,56,138587,6,0,B|432:152,1,95,0|0
432,328,138969,2,0,B|432:232,1,95,8|0
360,128,139351,1,0
360,264,139543,1,0
360,256,139638,1,0
360,248,139734,1,8
288,128,139925,1,0
288,264,140116,6,0,B|288:360,1,95
288,128,140498,2,0,B|288:32,1,95,8|0
216,104,140880,2,0,B|168:200|224:304,1,190,0|8
48,56,141644,6,0,B|120:56|136:168|208:168,1,190,4|8
464,328,142409,2,0,B|392:328|376:216|304:216,1,190,0|8
256,344,143173,2,0,B|256:136,1,190,0|8
192,184,143746,1,0
320,184,143937,1,0
320,184,144320,1,8
192,48,144702,5,0
320,48,144893,1,0
320,112,145084,1,8
192,112,145275,1,0
256,168,145466,1,0
200,224,145657,1,0
256,280,145848,1,8
312,224,146039,1,0
368,168,146230,2,2,B|416:256|360:360,2,190,2|10|2
256,192,147186,5,0
256,184,147281,1,0
256,176,147377,1,8
256,168,147472,1,0
256,160,147568,1,0
128,56,147759,6,0,B|336:56,1,190,4|8
384,328,148523,2,0,B|176:328,1,190,0|8
40,176,149288,2,0,B|104:96|224:120,1,190,0|8
272,152,149861,1,0
328,192,150052,1,0
328,192,150434,1,8
472,40,150816,6,0,B|472:144,1,95
400,136,151199,2,0,B|400:256,1,95,8|0
472,232,151581,2,0,B|472:336,1,95
472,328,151867,1,0
472,328,151963,1,8
472,232,152154,1,0
472,296,152345,2,0,B|368:296,1,95
376,232,152727,2,0,B|488:232,1,95,8|0
472,168,153109,2,2,B|272:168,1,190,0|8
48,56,153874,5,4
48,64,153969,2,0,B|160:64,1,95
152,64,154256,2,0,B|248:120,1,95,8|0
224,184,154638,1,0
224,192,154734,2,0,B|224:296,1,95
240,296,155020,2,0,B|240:200,1,95,8|0
240,128,155402,5,0
240,120,155498,1,0
240,112,155593,1,0
312,112,155785,2,0,B|312:216,1,95,8|0
384,152,156167,2,0,B|424:248|384:344,2,190,0|8|0
320,112,157122,5,0
247,112,157313,2,0,B|152:112,1,95,8|0
152,184,157695,1,0
224,184,157886,1,0
224,184,157982,1,0
225,184,158078,2,0,B|320:184,1,95,8|0
256,192,158460,12,4,159606
184,96,172218,5,4
184,104,172313,1,0
256,48,172504,1,0
256,40,172600,1,8
320,96,172791,1,0
320,272,172982,5,0
320,264,173078,1,0
256,336,173269,1,0
256,344,173364,1,8
184,272,173555,1,0
200,192,173746,6,0,B|408:192,1,190
392,192,174320,1,0
440,56,174511,1,0
440,328,174893,1,8
40,48,175275,6,0,B|40:128|72:168,1,95
128,176,175657,2,0,B|128:96|96:56,1,95,8|0
200,112,176039,2,0,B|200:192|232:232,1,95
224,216,176326,1,0
232,224,176422,2,0,B|232:304|264:344,1,95,8|0
312,280,176804,6,0,B|376:256|416:256,1,95
456,312,177186,2,0,B|392:336|352:336,1,95,8|0
296,352,177568,2,0,B|200:352|72:312,1,190,0|8
56,128,178332,6,0,B|176:120|248:48,1,190,4|8
456,256,179097,2,0,B|336:264|264:336,1,190,0|8
56,128,179861,2,0,B|72:48|168:40|184:136,1,190,0|8
184,192,180434,1,0
256,192,180625,1,0
256,192,181008,1,8
72,56,181390,5,0
144,128,181581,1,0
144,56,181772,1,8
72,128,181963,1,0
144,200,182154,1,0
72,272,182345,1,0
72,280,182441,1,0
72,288,182536,1,8
72,200,182727,1,0
144,272,182918,2,2,B|144:336|208:360|248:296|320:296,3,190,2|10|2|10
320,288,184160,1,2
344,280,184256,1,2
376,272,184351,1,2
400,264,184447,1,6
