osu file format v5

[General]
AudioFilename: Yuta Suzuki - Soy Soy Anton.mp3
AudioLeadIn: 0
AudioHash: 6fb856ba5f2625f67ecd169e9b24ee13
PreviewTime: -1
Countdown: 1
SampleSet: Normal
EditorBookmarks: 3434,150265,152294,154323,167255,169791,171312,171439,171503,174102,178159,179427

[Metadata]
Title:Soy Soy Anton
Artist:Yuta Suzuki
Creator:EiJi
Version:Hard

[Difficulty]
HPDrainRate:4
CircleSize:5
OverallDifficulty:4
SliderMultiplier:1.4
SliderTickRate:2

[Events]
//Background and Video events
0,0,"bg.jpg"
//Break Periods
2,101668,104452
2,106232,108383
2,110290,112187
//Storyboard Layer 0 (Background)
4,0,1,"image.jpg",320,240 F,0,101595,101595,1,1 F,0,114274,114274,0,0
4,0,1,"image.jpg",320,240 F,0,162969,162969,1,1 F,0,179451,179451,0,0
//Storyboard Layer 1 (Failing)
//Storyboard Layer 2 (Passing)
//Storyboard Layer 3 (Foreground)
//Storyboard Sound Samples
//Background Colour Transformations
3,148,163,162,255

[TimingPoints]
4219,507.174576271187,4,1,0,51
101595,253.592561284869,4,1,0,53
117830,507.185122569738,4,1,0,51
164997,253.592561284869,4,1,0,50
182747,507.185122569738,4,1,0,52
266431,507.185122569738,4,1,0,0

[Colours]
Combo1 : 0,64,128
Combo2 : 192,192,192
Combo3 : 128,64,64
Combo4 : 128,128,0

[HitObjects]
88,192,4218,1,4
136,192,4472,1,0
184,192,4726,1,0
184,192,4852,1,0
232,192,5106,1,0
432,272,6247,5,4
384,272,6501,1,0
336,272,6754,1,0
336,272,6881,1,0
288,272,7135,1,0
64,272,8276,5,4
112,272,8529,1,0
64,272,8783,1,0
64,272,8910,1,0
112,272,9163,1,0
64,104,10051,6,4,B|64:104|144:104,2,70
64,152,10812,1,0
64,152,10939,1,0
64,200,11192,1,0
64,200,11319,1,4
64,296,11826,1,4
160,296,12333,5,4
208,296,12587,1,0
256,296,12840,1,0
256,296,12967,1,0
304,296,13221,1,4
304,72,14362,5,4
272,112,14616,1,0
240,152,14869,1,0
240,152,14996,1,0
208,192,15250,1,4
40,336,16391,5,4
40,288,16644,1,0
88,288,16898,1,0
88,288,17025,1,0
88,336,17278,1,4
256,288,18166,5,4
304,288,18419,1,4
352,288,18673,1,0
400,288,18927,1,0
400,288,19053,1,0
400,248,19265,1,0
400,224,19370,6,4,B|400:224|400:160,3,52.5
400,80,20448,1,0
352,80,20702,2,4,B|352:80|296:80,2,35
352,128,21209,1,0
352,176,21462,1,0
352,224,21716,2,4,B|352:224|400:224,2,35
304,224,22223,5,0
256,224,22477,1,0
208,224,22730,1,4
208,224,22857,1,4
208,224,22984,1,4
160,224,23238,1,0
160,176,23491,1,0
160,128,23745,1,0
208,128,23998,1,0
256,128,24252,1,0
304,128,24505,1,0
352,128,24759,5,4
352,128,24886,1,4
352,128,25013,1,4
400,128,25266,1,0
400,176,25520,1,0
400,224,25773,6,4,B|400:224|440:224,2,35
400,272,26281,1,0
352,272,26534,1,0
304,272,26788,1,0
256,272,27041,1,4
208,272,27295,1,0
160,272,27549,1,4
112,272,27802,1,0
112,224,28056,1,4
112,176,28309,1,0
112,128,28563,6,4,B|112:128|408:128,1,280
392,256,30592,2,4,B|392:256|88:256,1,280
304,248,32620,2,4,B|304:248|56:104,1,280
256,192,34649,12,4,35663
160,192,36678,1,0
208,192,36931,2,4,B|208:192|208:224,3,35
304,192,37819,5,0
352,192,38072,1,4
352,192,38199,1,4
400,192,38453,1,4
400,288,38960,6,4,B|400:288|344:288,3,35
264,296,39848,5,0
216,296,40101,1,4
216,296,40228,1,4
168,296,40481,1,4
120,296,40735,5,4
120,248,40989,1,4
120,248,41115,1,4
120,248,41242,1,4
120,248,41369,1,4
120,152,41876,5,0
168,152,42130,1,4
192,152,42257,1,4
192,152,42510,1,4
240,152,42764,6,4,B|240:152|240:104,14,35
288,152,44792,5,0
336,152,45046,2,4,B|336:152|336:184,3,35
336,232,45680,1,0
336,280,45934,1,0
336,328,46187,1,4
336,328,46314,1,4
288,328,46568,1,4
240,328,46821,1,0
192,328,47075,2,4,B|192:328|192:288,3,35
192,192,47962,5,0
144,192,48216,1,4
144,192,48343,1,4
96,192,48596,1,4
96,144,48850,1,4
136,112,49103,5,4
136,112,49230,1,4
136,112,49357,1,4
136,112,49484,1,4
232,120,49991,1,0
280,120,50245,1,4
280,120,50371,1,4
328,120,50625,1,4
376,120,50879,1,0
424,120,51132,2,4,B|424:120|424:88,3,35
472,88,51766,5,0
472,136,52020,1,4
472,184,52273,1,4
472,184,52400,1,4
424,184,52654,1,4
376,184,52907,1,0
376,232,53161,5,0
376,280,53414,1,4
376,280,53541,1,4
424,280,53795,1,4
424,232,54048,1,0
424,232,54175,1,0
424,184,54429,1,4
424,136,54682,1,4
328,136,55190,5,0
328,184,55443,1,4
328,184,55570,1,4
328,232,55824,1,4
328,280,56077,1,0
328,280,56204,1,0
328,328,56457,1,4
376,328,56711,1,4
376,232,57218,5,0
328,232,57472,1,4
328,232,57599,1,4
280,232,57852,1,4
232,232,58106,1,0
232,232,58233,1,0
184,232,58486,1,4
136,232,58740,1,4
40,232,59247,5,0
40,280,59501,1,4
40,280,59627,1,4
88,280,59881,1,4
136,280,60134,1,0
136,280,60261,1,0
184,280,60515,1,4
232,280,60768,1,4
328,280,61276,5,0
328,232,61529,1,4
328,232,61656,1,4
328,184,61910,1,4
328,136,62163,1,0
328,136,62290,1,0
280,136,62544,1,4
328,136,62797,1,4
424,136,63304,5,0
424,184,63558,1,4
424,184,63685,1,4
424,232,63938,1,4
424,280,64192,1,0
424,280,64319,1,0
376,280,64572,1,4
328,280,64826,1,4
232,280,65333,5,0
184,280,65587,1,4
184,280,65713,1,4
136,280,65967,1,4
136,232,66221,1,0
136,232,66347,1,0
136,184,66601,1,4
136,136,66855,1,4
232,136,67362,5,0
280,136,67615,1,4
280,136,67742,1,4
328,136,67996,1,4
376,136,68249,1,0
376,136,68376,1,0
376,184,68630,1,4
376,232,68883,1,4
376,280,69137,6,4,B|376:280|216:280,1,140
280,192,70151,6,4,B|280:192|280:360,1,140
208,264,71166,6,4,B|208:264|320:144,1,140
392,208,72180,6,4,B|392:208|248:304,1,140
200,224,73194,6,4,B|200:224|336:304,1,140
224,328,74209,6,4,B|224:328|64:328,1,140
80,232,75223,6,4,B|80:232|192:120,1,140
272,136,76237,6,4,B|272:136|120:136,1,140
136,232,77252,6,4,B|136:232|128:280,2,35
152,184,77759,5,4
200,96,78266,6,4,B|200:96|192:144,2,35
248,112,78773,5,4
240,208,79280,6,4,B|240:208|232:256,2,35
200,240,79788,5,4
120,184,80295,6,4,B|120:184|112:232,2,35
72,184,80802,5,4
152,128,81309,6,4,B|152:128|144:176,2,35
168,176,81816,5,4
152,272,82323,6,4,B|152:272|144:320,2,35
200,272,82831,5,4
120,216,83338,6,4,B|120:216|112:264,2,35
88,248,83845,5,4
48,160,84352,6,4,B|48:160|48:192,3,23.3333333333333
96,168,84859,5,4
184,128,85366,5,4
232,128,85620,1,0
280,128,85874,1,0
280,176,86127,5,0
232,176,86381,1,4
184,176,86634,1,0
184,224,86888,5,0
232,224,87142,1,0
280,224,87395,1,4
280,272,87649,5,0
232,272,87902,1,0
184,272,88156,1,4
184,320,88409,6,4,B|184:320|240:384|192:376|192:360|208:352|224:352|240:352|296:328,1,140
344,264,89424,1,0
344,216,89677,1,0
392,216,89931,5,4
392,264,90185,1,0
440,264,90438,5,0
440,216,90692,1,0
440,168,90945,6,4,B|440:168|480:216|480:200|472:216|472:224|472:304,2,140
392,168,92213,5,0
344,168,92467,1,0
296,168,92720,1,4
152,184,93481,5,0
152,232,93735,1,0
104,232,93988,1,4
104,280,94242,1,0
152,280,94496,1,4
248,280,95003,1,4
344,280,95510,5,4
392,280,95764,1,0
392,232,96017,1,0
440,232,96271,1,4
256,192,96778,12,0,101596
168,192,105652,6,4,B|168:192|288:192,3,70
208,208,109583,6,4,B|208:208|288:208,4,70
208,208,113387,6,4,B|208:208|288:208,6,70
160,200,117830,5,4
160,152,118083,1,0
208,152,118337,1,0
208,152,118463,1,0
256,152,118717,1,4
96,304,119858,5,4
144,304,120112,1,0
192,304,120365,1,0
192,304,120492,1,0
240,304,120746,1,4
344,112,121887,5,4
328,160,122141,1,0
312,208,122394,1,0
312,208,122521,1,0
296,256,122775,1,4
280,304,123028,1,4
104,312,123916,5,4
104,264,124169,1,0
152,264,124423,1,0
152,264,124550,1,0
200,264,124803,1,4
248,264,125057,1,4
320,264,125437,6,4,B|320:264|400:264,2,70
320,216,126198,1,0
320,168,126452,1,0
320,168,126578,1,0
320,120,126832,1,4
96,128,127973,5,4
96,176,128227,1,0
96,224,128480,1,0
96,224,128607,1,0
96,272,128861,1,4
128,312,129114,1,4
296,320,130002,5,4
248,320,130256,1,0
200,320,130509,1,0
200,320,130636,1,0
176,272,130890,1,4
176,224,131143,1,4
104,64,132031,5,4
152,64,132284,1,0
200,64,132538,1,0
200,64,132665,1,0
248,64,132918,1,4
296,64,133172,1,0
296,64,133299,1,0
296,112,133552,1,0
248,112,133806,1,4
200,112,134059,1,4
32,288,135327,5,0
80,288,135581,1,0
80,240,135835,1,0
128,240,136088,1,4
344,128,137356,5,0
312,168,137610,1,0
320,216,137863,1,0
368,224,138117,1,4
464,224,138624,5,4
384,280,139131,1,4
288,288,139638,5,0
248,256,139892,1,0
248,208,140146,1,4
96,136,141667,5,0
96,184,141921,1,0
96,232,142174,1,0
96,304,142555,5,4
96,304,142682,1,4
144,304,142935,1,4
192,304,143189,1,4
288,304,143696,5,0
288,256,143950,1,0
288,208,144203,1,0
216,208,144584,5,4
216,208,144710,1,4
168,208,144964,1,4
120,208,145217,1,4
120,112,145725,5,0
160,136,145978,1,0
200,160,146232,1,0
256,24,146993,5,0
256,72,147246,1,0
256,144,147627,5,4
256,144,147753,1,4
256,192,148007,5,4
256,240,148261,1,4
48,192,150289,6,0,L|48:192|216:192|216:96|520:96,3,560
128,184,157897,5,0
176,184,158151,1,0
128,184,158404,1,0
128,256,158785,5,4
128,256,158911,1,4
176,256,159165,1,4
128,256,159419,1,4
224,256,159926,5,0
272,256,160179,1,0
320,256,160433,1,0
320,184,160813,5,4
320,184,160940,1,4
320,136,161194,1,4
320,88,161447,1,4
224,88,161955,5,0
224,136,162208,1,0
224,88,162462,1,0
288,288,166011,5,4
384,288,166264,1,4
384,192,166518,2,4,L|384:192|256:192|256:96|400:96|400:152,1,420
400,48,168040,5,4
304,48,168293,1,4
208,48,168547,1,4
208,144,168800,5,4
304,144,169054,1,4
400,144,169308,1,4
400,240,169561,5,4
304,240,169815,1,4
208,240,170068,1,4
112,240,170322,5,4
112,336,170576,6,4,L|112:336|192:336|192:296|240:296|240:272|240:248|288:248|288:208|336:160|400:192|408:192,1,420
432,320,172097,5,4
336,320,172351,1,4
240,320,172604,1,4
240,224,172858,5,4
240,128,173111,2,4,L|240:128|280:130|288:98|304:130|328:98|352:130|376:98|392:130|416:98|440:130|480:98|504:122|504:186|464:210|432:210,1,560
344,208,174379,5,4
248,208,174633,1,4
80,64,176155,5,4
152,128,176408,1,4
224,192,176662,1,4
304,240,176915,1,4
208,240,177169,2,4,L|208:240|328:240|256:184|328:128|256:80|384:24|384:64,1,560
288,48,178437,5,4
288,144,178690,2,4,L|288:144|96:144|96:128|240:128|240:112|240:56,1,420
256,192,180212,12,4,181734
96,104,182747,6,4,B|96:104|256:104,1,140
320,160,183761,6,4,B|320:160|240:280,1,140
168,208,184775,6,4,B|168:208|72:96,1,140
176,88,185790,6,4,B|176:88|320:168,1,140
352,240,186804,6,4,B|352:240|224:336,1,140
256,224,187818,6,4,B|256:224|256:72,1,140
160,72,188833,6,4,B|160:72|296:144,1,140
296,216,189847,5,0
200,208,190354,5,0
320,136,190861,5,4
368,288,191369,5,4
72,264,191876,5,4
88,72,192383,5,4
288,168,192890,5,4
440,80,193397,5,4
376,312,193905,5,4
104,280,194412,5,4
96,104,194919,5,4
272,296,195426,5,4
384,56,195933,5,4
272,200,196440,5,4
56,72,196948,5,4
144,328,197455,5,4
424,288,197962,5,4
304,88,198469,5,4
152,192,198976,6,4,B|152:192|304:192,16,140
224,125,207599,6,4,B|224:125|224:277,13,140
224,216,214446,6,0,B|224:216|304:160,3,70
312,80,215714,6,4,B|312:80|152:80,1,140
168,128,216474,2,0,B|168:128|168:216,3,70
256,240,217742,5,4
336,296,218249,1,4
384,296,218503,6,0,B|384:296|384:216,3,70
384,128,219771,6,4,B|384:128|224:128,1,140
160,184,220785,6,4,B|160:184|224:312,1,140
320,320,221800,2,0,B|320:320|464:256,2,140
272,328,223068,5,0
224,328,223321,2,4,B|224:328|72:328,1,140
80,280,224082,5,4
80,232,224336,1,4
80,136,224843,6,0,B|80:136|152:136,2,70
176,136,225857,1,4
224,136,226111,2,4,B|224:136|312:136,1,70
304,232,226872,5,0
256,232,227125,1,0
208,232,227379,2,0,B|208:232|96:232|96:216|96:200|208:120,1,210
232,136,228393,6,4,B|232:136|392:136,1,140
416,136,229154,1,4
416,184,229408,1,4
168,184,230675,5,0
216,184,230929,1,0
264,184,231183,1,0
256,192,231436,12,4,232958
256,192,233465,12,4,234987
256,192,235494,12,4,238537
256,192,239551,12,4,240566
256,192,241580,12,4,242594
256,192,243609,12,4,245637
112,192,246905,2,0,B|112:192|112:112,3,70
160,128,247920,1,0
208,128,248173,1,4
232,128,248300,1,4
280,128,248554,1,4
280,200,248934,6,0,B|280:200|280:280,3,70
232,272,249949,1,0
184,272,250202,1,0
160,272,250329,1,4
112,272,250583,1,4
112,200,250963,6,0,B|112:200|112:280,3,70
112,320,251977,1,0
160,320,252231,1,4
160,320,252358,1,4
208,320,252611,1,4
208,320,252738,1,0
304,320,253245,5,0
352,320,253499,1,0
400,320,253752,1,0
448,320,254006,1,0
448,272,254260,1,4
448,272,254386,1,4
448,224,254640,1,4
448,224,254767,2,4,B|448:224|296:224,2,140
448,152,256162,5,0
448,152,256288,1,0
448,104,256542,1,0
448,56,256796,1,4
352,56,257303,5,0
304,56,257556,1,0
256,56,257810,1,4
256,128,258190,5,4
256,128,258317,1,4
256,176,258571,1,4
208,176,258824,1,4
208,272,259331,5,0
256,272,259585,1,0
208,272,259839,1,0
64,272,260599,5,4
64,224,260853,1,4
160,224,261360,1,0
160,272,261614,1,0
160,224,261867,1,4
256,192,262882,12,4,263896
256,192,265164,12,4,265925
256,192,267193,12,0,269982
