osu file format v14

[General]
AudioFilename: Yusuke - V.mp3
AudioLeadIn: 2000
PreviewTime: 57728
Countdown: 0
SampleSet: Normal
StackLeniency: 0.3
Mode: 0
LetterboxInBreaks: 0
WidescreenStoryboard: 0

[Editor]
Bookmarks: 503,88103
DistanceSpacing: 0.5
BeatDivisor: 4
GridSize: 4
TimelineZoom: 1.1

[Metadata]
Title:V
TitleUnicode:V
Artist:Yusuke
ArtistUnicode:遊助
Creator:Gero
Version:Extra
Source:ポケットモンスター XY
Tags:[_Zzz_] Dariano pkhg HabiHolic Fatfan_Kolek Irreversible Kamiji 上地 Volt (ボルト) Bolt ボルト V / Jikyuu 850 yen no Santa Claus 時給850円のサンタクロース TV Size TVサイズ Pokémon the Series: XY Pokemon Pocket Monsters XY エックスワイ (エックスワイ) (ExWye) Nintendo GAME FREAK J-Pop Jpop ジェイポップ TVアニメ
BeatmapID:523317
BeatmapSetID:224136

[Difficulty]
HPDrainRate:8.3
CircleSize:4
OverallDifficulty:8.3
ApproachRate:9.2
SliderMultiplier:1.8
SliderTickRate:2

[Events]
//Background and Video events
Video,133,"Video.avi"
0,0,"BG.jpg",0,0
//Break Periods
//Storyboard Layer 0 (Background)
//Storyboard Layer 1 (Fail)
//Storyboard Layer 2 (Pass)
//Storyboard Layer 3 (Foreground)
//Storyboard Sound Samples

[TimingPoints]
503,300,4,1,1,70,1,0
5303,-100,4,1,1,80,0,0
48503,-125,4,1,1,80,0,0
54653,-125,4,1,1,45,0,0
54803,-125,4,1,1,50,0,0
54953,-125,4,1,1,55,0,0
55103,-125,4,1,1,60,0,0
55253,-125,4,1,1,65,0,0
55403,-125,4,1,1,70,0,0
55553,-125,4,1,1,75,0,0
55703,-100,4,1,1,80,0,0
56153,-83.3333333333333,4,1,1,80,0,0
56603,-71.4285714285714,4,1,1,80,0,0
57053,-62.5,4,1,1,80,0,0
57503,-200,4,1,1,80,0,0
57803,-125,4,1,1,80,0,0
58103,-100,4,1,1,90,0,1
67628,-100,4,1,1,90,0,0
67703,-100,4,1,1,90,0,1
74903,-100,4,1,1,80,0,0
77303,-100,4,1,1,70,0,0
84803,-100,4,1,1,60,0,0
85103,-100,4,1,1,50,0,0
85403,-100,4,1,1,40,0,0
85703,-100,4,1,1,30,0,0
86003,-100,4,1,1,25,0,0
86303,-100,4,1,1,20,0,0
86603,-100,4,1,1,10,0,0
86903,-100,4,1,100,5,0,0

[Colours]
Combo1 : 241,156,154
Combo2 : 120,175,220
Combo3 : 255,0,0
Combo4 : 242,226,115
Combo5 : 136,136,136
Combo6 : 0,128,192
Combo7 : 67,197,89
Combo8 : 190,148,109

[HitObjects]
220,228,503,6,0,P|136:255|52:228,1,180,4|0,0:0|0:0,0:0:0:0:
292,156,953,2,0,P|375:128|459:155,1,180,4|0,0:0|0:0,0:0:0:0:
508,244,1403,2,0,L|492:64,1,180,4|0,0:0|0:0,0:0:0:0:
408,12,1853,1,4,0:0:0:0:
292,156,2153,5,0,0:0:0:0:
220,228,2303,2,0,P|176:228|136:208,1,90,4|0,0:0|0:0,0:0:0:0:
356,92,2603,2,0,P|400:92|440:112,1,90,4|0,0:0|0:0,0:0:0:0:
380,359,2903,6,0,P|352:275|380:192,1,180,4|0,0:0|0:0,0:0:0:0:
356,92,3353,2,0,L|473:228,1,180,4|0,0:0|0:0,0:0:0:0:
292,156,3803,2,0,L|174:19,1,180,4|0,0:0|0:0,0:0:0:0:
116,100,4253,1,4,0:0:0:0:
4,264,4553,5,0,0:0:0:0:
100,360,4703,1,8,0:0:0:0:
212,284,4853,1,0,0:0:0:0:
212,284,4928,1,0,0:0:0:0:
212,284,5003,2,0,P|220:240|212:196,1,90
116,100,5303,5,4,0:0:0:0:
52,28,5453,1,0,0:0:0:0:
52,28,5603,1,8,0:0:0:0:
148,12,5753,2,0,L|240:28,1,90
392,120,6053,2,0,L|303:104,1,90,0|8,0:0|0:0,0:0:0:0:
164,192,6353,5,0,0:0:0:0:
88,256,6503,1,0,0:0:0:0:
88,256,6653,2,0,P|79:300|88:344,1,90,0|8,0:0|0:0,0:0:0:0:
180,380,6953,1,0,0:0:0:0:
276,356,7103,2,0,L|376:376,1,90
508,312,7403,2,0,L|419:294,1,90,8|0,0:0|0:0,0:0:0:0:
324,192,7703,5,4,0:0:0:0:
244,132,7853,2,0,P|235:87|244:43,1,90,0|8,0:0|0:0,0:0:0:0:
324,192,8153,2,0,P|244:227|164:192,1,180
92,124,8603,1,8,0:0:0:0:
16,188,8753,5,0,0:0:0:0:
88,256,8903,1,0,0:0:0:0:
164,192,9053,1,0,0:0:0:0:
92,124,9203,2,0,P|83:79|92:35,1,90,8|0,0:0|0:0,0:0:0:0:
228,264,9503,2,0,P|237:309|228:353,1,90,8|0,0:0|0:0,0:0:0:0:
136,384,9803,1,8,0:0:0:0:
136,384,9878,1,0,0:0:0:0:
136,384,9953,1,0,0:0:0:0:
164,192,10103,6,0,L|328:272,1,180,4|8,0:0|0:3,0:0:0:0:
424,252,10553,1,0,0:0:0:0:
360,180,10703,1,2,0:3:0:0:
326,271,10853,1,2,0:3:0:0:
456,160,11003,2,0,B|476:120|476:120|456:80,1,90,8|2,0:3|0:0,0:0:0:0:
256,28,11303,6,0,P|212:20|168:28,1,90
272,180,11603,2,0,P|316:188|360:180,1,90,8|2,0:3|0:0,0:0:0:0:
456,160,11903,1,0,0:0:0:0:
456,160,12053,2,0,B|436:120|436:120|456:80,1,90,0|8,0:0|0:3,0:0:0:0:
256,28,12353,6,0,B|180:28|180:28|128:28|88:72,1,180,4|0,0:0|0:0,0:0:0:0:
120,164,12803,1,8,0:3:0:0:
153,259,12953,2,0,P|162:303|153:347,1,90,0|2,0:0|0:3,0:0:0:0:
64,304,13253,1,2,0:3:0:0:
120,164,13403,1,8,0:3:0:0:
244,224,13553,1,2,0:0:0:0:
8,136,13703,6,0,B|58:128|75:83|75:83|121:96|157:59,1,180,0|8,0:0|0:3,0:0:0:0:
256,28,14153,1,2,0:0:0:0:
354,60,14303,2,0,P|396:60|440:88,1,90,0|8,0:0|0:3,0:0:0:0:
468,280,14603,2,0,P|423:279|385:256,1,90,8|8,0:3|0:3,0:0:0:0:
411,174,14903,6,0,B|387:254|387:254|395:307|359:350,1,180,4|8,0:0|0:3,0:0:0:0:
256,372,15353,1,0,0:0:0:0:
149,344,15503,2,0,P|128:304|125:258,1,90,2|2,0:3|0:3,0:0:0:0:
387,259,15803,2,0,P|383:304|363:344,1,90,8|2,0:3|0:0,0:0:0:0:
256,372,16103,6,0,B|256:328|256:328|252:328|252:328|260:328|260:328|256:324|256:324|256:296,1,90
208,208,16403,1,8,0:3:0:0:
256,120,16553,1,2,0:0:0:0:
304,208,16703,1,8,0:3:0:0:
256,295,16853,1,8,0:3:0:0:
208,208,17003,1,8,0:3:0:0:
300,40,17153,5,4,0:0:0:0:
500,292,17453,1,8,0:3:0:0:
429,362,17603,1,8,0:3:0:0:
358,291,17753,1,8,0:3:0:0:
428,220,17903,1,4,0:0:0:0:
212,40,18353,5,4,0:0:0:0:
12,292,18653,1,8,0:3:0:0:
83,362,18803,1,8,0:3:0:0:
154,291,18953,1,8,0:3:0:0:
84,220,19103,1,4,0:0:0:0:
12,292,19253,1,8,0:3:0:0:
429,362,19553,6,0,B|445:306|425:274|405:234|425:186,1,180,4|0,0:0|0:0,0:0:0:0:
332,172,20003,2,0,B|288:162|288:162|244:172,1,90,8|0,0:0|0:0,0:0:0:0:
396,92,20303,2,0,B|440:102|440:102|484:92,1,90,2|2,0:3|0:3,0:0:0:0:
436,4,20603,1,8,0:0:0:0:
332,12,20753,6,0,P|297:92|332:172,1,180,2|0,0:0|0:0,0:0:0:0:
396,248,21203,1,8,0:0:0:0:
396,248,21353,1,2,0:0:0:0:
332,324,21503,2,0,P|292:344|244:344,1,90
184,268,21803,2,0,P|224:248|272:248,1,90,8|0,0:0|0:0,0:0:0:0:
248,345,22103,5,0,0:0:0:0:
128,188,22253,1,0,0:0:0:0:
276,88,22403,1,8,0:0:0:0:
396,248,22553,1,0,0:0:0:0:
36,236,22703,6,0,P|28:192|36:148,1,90,2|2,0:3|0:3,0:0:0:0:
104,76,23003,1,8,0:0:0:0:
192,32,23153,2,0,L|384:52,1,180,2|0,0:0|0:0,0:0:0:0:
440,120,23603,1,8,0:0:0:0:
492,204,23753,2,0,P|500:248|492:292,1,90,2|0,0:0|0:0,0:0:0:0:
300,292,24053,2,0,P|292:248|300:204,1,90,0|8,0:0|0:0,0:0:0:0:
396,248,24353,1,0,0:0:0:0:
208,336,24503,6,0,P|192:248|208:160,1,180,0|8,0:0|0:0,0:0:0:0:
276,88,24953,1,2,0:3:0:0:
348,20,25103,2,0,L|436:48,1,90,0|2,0:0|0:3,0:0:0:0:
362,115,25403,2,0,L|277:88,1,90,8|2,0:0|0:0,0:0:0:0:
144,24,25703,5,0,0:0:0:0:
68,88,25853,1,0,0:0:0:0:
36,180,26003,2,0,P|27:224|36:268,1,90,8|2,0:0|0:0,0:0:0:0:
228,376,26303,2,0,P|237:332|228:288,1,90
220,280,26528,1,0,0:0:0:0:
212,272,26603,1,8,0:0:0:0:
128,336,26753,1,0,0:0:0:0:
341,202,26903,6,0,L|362:115,1,90
200,84,27203,2,0,L|268:144,1,90,8|0,0:0|0:0,0:0:0:0:
240,8,27503,2,0,P|204:84|116:112,1,180,2|8,0:3|0:0,0:0:0:0:
20,192,27953,1,2,0:0:0:0:
112,292,28103,6,0,P|152:304|192:336,1,90
400,292,28403,2,0,P|360:304|320:336,1,90,8|2,0:0|0:0,0:0:0:0:
216,232,28703,2,0,B|256:252|256:252|296:232,1,90,0|8,0:0|0:0,0:0:0:0:
256,140,29003,1,8,0:0:0:0:
335,80,29153,6,0,P|255:43|176:80,1,180,4|0,0:0|0:0,0:0:0:0:
89,35,29603,2,0,P|81:79|89:124,1,90,8|0,0:0|0:0,0:0:0:0:
164,276,29903,2,0,P|172:232|164:188,1,90,2|2,0:3|0:3,0:0:0:0:
76,232,30203,1,8,0:0:0:0:
284,320,30353,6,0,B|364:332|364:332|380:328|380:328|468:340,1,180,2|0,0:0|0:0,0:0:0:0:
360,240,30803,2,0,L|270:226,1,90,8|2,0:0|0:0,0:0:0:0:
420,168,31103,2,0,L|508:182,1,90,2|2,0:3|0:3,0:0:0:0:
360,94,31403,2,0,L|270:80,1,90,8|0,0:0|0:0,0:0:0:0:
112,48,31703,5,0,0:0:0:0:
80,208,31853,1,0,0:0:0:0:
240,240,32003,1,8,0:0:0:0:
272,80,32153,1,0,0:0:0:0:
112,48,32303,6,0,B|76:72|76:72|48:112,1,90,2|2,0:3|0:3,0:0:0:0:
240,240,32603,2,0,B|276:216|276:216|304:176,1,90,8|2,0:0|0:0,0:0:0:0:
172,176,32903,2,0,L|308:312,1,180,0|8,0:0|0:0,0:0:0:0:
369,373,33353,1,2,0:0:0:0:
444,328,33503,6,2,P|480:300|500:256,1,90,2|2,0:3|0:3,0:0:0:0:
348,168,33803,2,2,P|368:208|404:236,1,90,8|0,0:0|0:0,0:0:0:0:
444,144,34103,1,0,0:0:0:0:
296,28,34253,6,0,B|256:48|256:48|216:28,1,90,0|8,0:0|0:0,0:0:0:0:
128,80,34553,1,0,0:0:0:0:
56,148,34703,2,0,P|47:192|56:236,2,90,2|2|8,0:3|0:3|0:0,0:0:0:0:
148,192,35153,2,0,B|212:192|212:192|276:192|312:252,1,180,2|0,0:0|0:0,0:0:0:0:
220,288,35603,2,0,B|184:288|184:288|176:284|176:284|176:292|176:292|168:288|168:288|140:288,1,90,8|2,0:0|0:0,0:0:0:0:
292,96,35903,6,0,B|328:96|328:96|336:100|336:100|336:92|336:92|344:96|344:96|372:96,1,90,0|8,0:0|0:3,0:0:0:0:
492,192,36203,1,8,0:3:0:0:
272,120,36353,1,8,0:3:0:0:
480,164,36503,5,4,0:0:0:0:
252,152,36653,2,0,L|272:56,1,90,4|0,0:0|0:0,0:0:0:0:
468,140,36953,5,8,0:3:0:0:
232,180,37103,2,0,L|220:88,1,90,4|0,0:0|0:0,0:0:0:0:
456,120,37403,5,8,0:3:0:0:
208,204,37553,2,0,L|180:112,1,90,4|0,0:0|0:0,0:0:0:0:
444,96,37853,5,8,0:3:0:0:
188,232,38003,2,0,L|140:144,1,90,4|0,0:0|0:0,0:0:0:0:
84,72,38303,2,0,B|112:112|124:152|124:152|112:192|84:232,1,180,4|4,0:0|0:3,0:0:0:0:
384,380,38903,6,0,B|356:340|344:300|344:300|356:260|384:220,1,180,4|8,0:0|0:0,0:0:0:0:
444,300,39353,1,0,0:0:0:0:
256,340,39503,2,0,P|248:296|256:252,1,90
384,132,39803,2,0,P|392:176|384:220,1,90,8|0,0:0|0:0,0:0:0:0:
296,104,40103,6,0,L|481:123,1,180,0|8,0:0|0:0,0:0:0:0:
444,28,40553,1,0,0:0:0:0:
444,28,40703,2,0,L|346:18,1,90,0|0,0:0|0:0,0:0:0:0:
207,94,41003,2,0,L|297:104,1,90,8|0,0:0|0:0,0:0:0:0:
352,224,41303,6,0,P|387:304|352:384,1,180,0|8,0:0|0:0,0:0:0:0:
160,384,41753,2,0,P|125:304|160:224,1,180,0|0,0:0|0:0,0:0:0:0:
300,308,42203,6,0,B|256:317|256:317|212:308,1,90,8|0,0:0|0:0,0:0:0:0:
352,224,42503,2,0,B|396:215|396:215|440:224,1,90
300,140,42803,2,0,B|256:149|256:149|212:140,1,90,8|0,0:0|0:0,0:0:0:0:
72,224,43103,2,0,B|116:215|116:215|160:224,1,90
300,308,43403,2,0,B|256:317|256:317|212:308,1,90,8|0,0:0|0:0,0:0:0:0:
172,48,43703,6,0,B|224:68|256:38|256:38|288:68|340:48,1,180,4|8,0:0|0:0,0:0:0:0:
340,148,44153,2,0,B|288:128|256:158|256:158|224:128|172:148,1,180
84,100,44603,5,8,0:0:0:0:
256,240,44753,1,0,0:0:0:0:
428,100,44903,2,0,L|456:12,1,90
172,149,45203,2,0,L|145:234,1,90,8|0,0:0|0:0,0:0:0:0:
367,234,45503,2,0,L|340:149,1,90
56,14,45802,2,0,L|84:100,1,90,8|0,0:0|0:0,0:0:0:0:
184,312,46103,6,0,B|212:348|256:364|256:364|300:348|328:312,1,180,4|8,0:0|0:0,0:0:0:0:
256,240,46553,2,0,L|80:300,1,180
8,236,47003,2,0,P|0:192|8:148,1,90,8|0,0:0|0:0,0:0:0:0:
256,40,47303,5,8,0:3:0:0:
364,88,47453,1,8,0:3:0:0:
416,192,47603,1,8,0:3:0:0:
364,296,47753,1,8,0:3:0:0:
256,344,47903,1,8,0:3:0:0:
148,296,48053,1,8,0:3:0:0:
96,192,48203,1,8,0:3:0:0:
148,88,48353,1,8,0:3:0:0:
312,192,48503,6,0,B|272:204|256:234|256:234|240:204|200:192,1,144,4|0,0:0|0:0,0:0:0:0:
256,116,48953,1,0,0:0:0:0:
289,316,49103,2,0,P|256:328|223:316,1,72,8|0,0:0|0:0,0:0:0:0:
223,68,49403,2,0,P|256:56|289:68,1,72
368,116,49703,5,0,0:0:0:0:
424,192,49853,1,8,0:0:0:0:
480,116,50003,2,0,B|468:82|468:82|480:48,1,72
424,192,50303,2,0,B|448:260|448:260|424:328,1,144,8|8,0:0|0:3,0:0:0:0:
356,260,50753,1,8,0:3:0:0:
208,192,50903,6,0,B|152:192|152:192|108:192|80:236,1,144,4|0,0:0|0:0,0:0:0:0:
24,312,51353,1,0,0:0:0:0:
80,236,51503,2,0,L|32:168,1,72,8|0,0:0|0:0,0:0:0:0:
167,133,51803,2,0,L|208:191,1,72
24,160,52103,5,0,0:0:0:0:
224,216,52253,1,8,0:0:0:0:
96,12,52403,2,0,L|79:90,1,72
131,270,52703,2,0,B|143:209|143:209|155:193|155:193|167:133,1,144,8|8,0:0|0:3,0:0:0:0:
236,68,53153,1,8,0:3:0:0:
72,148,53303,6,0,L|40:300,1,144,4|0,0:0|0:0,0:0:0:0:
104,360,53753,1,0,0:0:0:0:
196,336,53903,2,0,B|236:336|256:369|256:369|276:336|316:336,1,144,8|0,0:0|0:0,0:0:0:0:
408,360,54353,1,8,0:0:0:0:
256,260,54503,5,0,0:0:0:0:
192,192,54653,1,8,0:3:0:0:
192,192,54728,1,8,0:3:0:0:
192,192,54803,2,0,L|140:140,1,72,8|8,0:3|0:3,0:0:0:0:
370,141,55103,2,0,L|320:192,1,72,8|8,0:3|0:3,0:0:0:0:
256,124,55403,2,0,L|256:48,1,72,8|8,0:3|0:3,0:0:0:0:
328,316,55703,6,0,B|256:370|256:370|184:316,1,180,4|8,0:0|0:0,0:0:0:0:
343,288,56153,6,0,B|256:352|256:352|169:288,1,215.999993408203,4|8,0:0|0:0,0:0:0:0:
357,258,56603,6,0,B|256:333|256:333|155:258,1,251.999992309571,4|8,0:0|0:0,0:0:0:0:
372,228,57053,6,0,B|256:313|256:313|140:228,1,288,4|8,0:0|0:0,0:0:0:0:
388,196,57503,5,8,0:0:0:0:
388,196,57803,5,0,0:0:0:0:
256,64,57953,1,0,0:0:0:0:
124,196,58103,6,0,P|89:276|124:356,1,180,4|8,0:0|0:0,0:0:0:0:
184,276,58553,1,0,0:0:0:0:
12,232,58703,2,0,B|1:276|1:276|12:320,1,90,2|0,0:0|0:0,0:0:0:0:
124,196,59003,2,0,B|135:152|135:152|124:108,1,90,8|0,0:0|0:0,0:0:0:0:
52,40,59303,6,0,B|84:84|132:84|132:84|216:84,1,180,4|8,0:0|0:0,0:0:0:0:
304,36,59753,1,0,0:0:0:0:
380,96,59903,2,0,L|324:272,1,180,2|8,0:0|0:0,0:0:0:0:
243,323,60353,1,0,0:0:0:0:
243,323,60503,6,0,P|323:288|402:324,1,180,4|8,0:0|0:0,0:0:0:0:
484,380,60953,1,0,0:0:0:0:
445,245,61103,2,0,L|402:324,1,90,2|0,0:0|0:0,0:0:0:0:
360,192,61403,2,0,L|403:113,1,90,8|0,0:0|0:0,0:0:0:0:
488,64,61703,6,0,B|456:16|400:16|400:16|320:16,1,180,4|8,0:0|0:0,0:0:0:0:
256,88,62153,1,0,0:0:0:0:
187,16,62303,2,0,B|112:16|112:16|56:16|24:64,1,180,2|8,0:0|0:0,0:0:0:0:
33,73,62678,1,0,0:0:0:0:
42,82,62753,1,0,0:0:0:0:
213,280,62903,6,0,P|256:291|299:280,1,90,4|0,0:0|0:0,0:0:0:0:
256,192,63203,1,8,0:0:0:0:
170,360,63353,2,0,P|256:382|342:360,1,180,2|0,0:0|0:0,0:0:0:0:
404,284,63803,1,8,0:0:0:0:
404,284,63953,1,0,0:0:0:0:
299,104,64103,6,0,P|256:93|213:104,1,90,4|0,0:0|0:0,0:0:0:0:
256,192,64403,1,8,0:0:0:0:
342,24,64553,2,0,P|256:2|170:24,1,180,2|0,0:0|0:0,0:0:0:0:
108,100,65003,1,8,0:0:0:0:
108,100,65153,1,0,0:0:0:0:
27,340,65303,6,0,P|107:375|188:340,1,180,12|8,0:0|0:0,0:0:0:0:
256,268,65753,1,0,0:0:0:0:
324,340,65903,2,0,P|404:375|484:340,1,180,8|8,0:0|0:0,0:0:0:0:
406,192,66353,1,0,0:0:0:0:
406,192,66503,6,0,B|398:236|398:236|406:280,1,90,8|0,0:0|0:0,0:0:0:0:
488,132,66803,2,0,B|496:88|496:88|488:44,1,90,8|0,0:0|0:0,0:0:0:0:
396,216,67103,6,0,B|388:260|388:260|396:304,1,90,8|8,0:0|0:0,0:0:0:0:
478,156,67404,2,0,B|486:112|486:112|478:68,1,90,8|8,0:0|0:0,0:0:0:0:
256,16,67703,6,0,B|166:16|166:16|108:84,1,180,4|8,0:0|0:0,0:0:0:0:
12,56,68153,1,0,0:0:0:0:
216,116,68303,2,0,B|248:116|248:116|256:120|256:120|256:112|256:112|264:116|264:116|296:116,1,90,2|0,0:0|0:0,0:0:0:0:
136,192,68603,2,0,B|104:192|104:192|96:188|96:188|96:196|96:196|88:192|88:192|56:192,1,90,8|0,0:0|0:0,0:0:0:0:
216,268,68903,6,0,B|248:268|248:268|256:264|256:264|256:272|256:272|264:268|264:268|296:268,1,90,4|0,0:0|0:0,0:0:0:0:
366,338,69203,1,8,0:0:0:0:
436,267,69353,1,0,0:0:0:0:
436,267,69503,2,0,B|448:216|481:192|481:192|448:168|436:116,1,180,2|8,0:0|0:0,0:0:0:0:
366,46,69953,1,0,0:0:0:0:
436,116,70103,6,0,L|486:41,1,90,4|0,0:0|0:0,0:0:0:0:
436,268,70403,2,0,L|486:342,1,90,8|0,0:0|0:0,0:0:0:0:
404,128,70703,2,0,L|454:53,1,90,2|0,0:0|0:0,0:0:0:0:
404,256,71003,2,0,L|454:330,1,90,8|0,0:0|0:0,0:0:0:0:
492,192,71303,6,0,L|312:192,1,180,4|8,0:0|0:0,0:0:0:0:
256,272,71753,1,0,0:0:0:0:
200,192,71903,2,0,P|188:149|200:106,1,90,2|0,0:0|0:0,0:0:0:0:
312,106,72203,2,0,P|323:149|312:192,1,90,8|0,0:0|0:0,0:0:0:0:
170,28,72503,6,0,P|256:6|342:28,1,180,4|8,0:0|0:0,0:0:0:0:
412,100,72953,1,0,0:0:0:0:
342,170,73103,2,0,P|255:192|169:170,1,180,2|8,0:0|0:0,0:0:0:0:
100,100,73553,1,0,0:0:0:0:
256,224,73703,6,0,L|228:312,1,90,8|8,0:0|0:0,0:0:0:0:
8,380,74003,2,0,L|35:294,1,90,8|8,0:0|0:0,0:0:0:0:
256,248,74304,6,0,L|228:333,1,90,8|8,0:0|0:0,0:0:0:0:
8,356,74603,2,0,L|36:268,1,90,8|8,0:0|0:0,0:0:0:0:
304,44,74903,6,0,P|392:44|368:100,1,180,4|8,0:0|0:0,0:0:0:0:
208,44,75353,2,0,P|120:44|144:100,1,180,4|8,0:0|0:0,0:0:0:0:
316,172,75803,6,0,B|388:120|388:120|480:120,1,180,4|8,0:0|0:0,0:0:0:0:
196,172,76253,2,0,B|124:120|124:120|32:120,1,180,4|8,0:0|0:0,0:0:0:0:
256,248,76703,1,4,0:0:0:0:
256,256,77003,1,8,0:0:0:0:
256,260,77078,1,0,0:0:0:0:
256,264,77153,1,0,0:0:0:0:
336,336,77303,6,0,B|288:336|256:370|256:370|224:336|176:336,1,180,4|8,0:0|0:3,0:0:0:0:
84,292,77753,1,0,0:0:0:0:
84,292,77903,2,0,P|76:336|84:380,1,90,2|2,0:3|0:3,0:0:0:0:
163,219,78203,2,0,P|171:174|162:130,1,90,8|2,0:3|0:0,0:0:0:0:
92,64,78503,6,0,B|124:32|124:32|168:32,1,90
349,131,78803,1,0,0:0:0:0:
256,168,78953,1,2,0:0:0:0:
163,131,79103,1,0,0:0:0:0:
344,32,79253,2,0,B|388:32|388:32|420:64,1,90
328,236,79553,6,0,B|296:276|256:288|256:288|216:276|184:236,1,180,4|0,0:0|0:0,0:0:0:0:
256,168,80003,1,0,0:0:0:0:
340,348,80153,2,0,P|256:376|172:348,1,180,2|0,0:3|0:0,0:0:0:0:
104,276,80603,1,0,0:0:0:0:
52,192,80753,1,2,0:0:0:0:
52,192,80903,6,0,P|41:149|52:106,1,90
144,60,81203,2,0,P|155:103|144:146,1,90,0|2,0:0|0:0,0:0:0:0:
52,104,81503,2,0,L|232:104,1,180
296,24,81953,6,0,L|256:200,1,180,2|0,0:0|0:0,0:0:0:0:
188,272,82403,1,0,0:0:0:0:
332,120,82553,1,0,0:0:0:0:
332,120,82703,2,0,P|375:109|418:120,1,90,2|2,0:3|0:3,0:0:0:0:
418,263,83003,2,0,P|375:274|332:264,1,90,0|2,0:0|0:0,0:0:0:0:
476,192,83303,6,0,L|416:364,1,180
372,192,83753,1,2,0:0:0:0:
372,192,83903,2,0,L|401:107,1,90
268,204,84203,2,0,L|238:288,1,90
48,372,84503,5,4,0:0:0:0:
256,192,84578,12,0,88103,0:0:0:0:
