osu file format v14

[General]
AudioFilename: Yusuke - V.mp3
AudioLeadIn: 2000
PreviewTime: 57728
Countdown: 0
SampleSet: Normal
StackLeniency: 0.3
Mode: 0
LetterboxInBreaks: 0
WidescreenStoryboard: 0

[Editor]
Bookmarks: 503,88103
DistanceSpacing: 1.1
BeatDivisor: 4
GridSize: 4
TimelineZoom: 1.1

[Metadata]
Title:V
TitleUnicode:V
Artist:Yusuke
ArtistUnicode:遊助
Creator:Gero
Version:Easy
Source:ポケットモンスター XY
Tags:[_Zzz_] Dariano pkhg HabiHolic Fatfan_Kolek Irreversible Kamiji 上地 Volt (ボルト) Bolt ボルト V / Jikyuu 850 yen no Santa Claus 時給850円のサンタクロース TV Size TVサイズ Pokémon the Series: XY Pokemon Pocket Monsters XY エックスワイ (エックスワイ) (ExWye) Nintendo GAME FREAK J-Pop Jpop ジェイポップ TVアニメ
BeatmapID:557549
BeatmapSetID:224136

[Difficulty]
HPDrainRate:2
CircleSize:3
OverallDifficulty:2
ApproachRate:3
SliderMultiplier:0.8
SliderTickRate:2

[Events]
//Background and Video events
Video,133,"Video.avi"
0,0,"BG.jpg",0,0
//Break Periods
//Storyboard Layer 0 (Background)
//Storyboard Layer 1 (Fail)
//Storyboard Layer 2 (Pass)
//Storyboard Layer 3 (Foreground)
//Storyboard Sound Samples

[TimingPoints]
503,300,4,1,1,70,1,0
5303,-100,4,1,1,80,0,0
48503,-100,4,1,1,80,0,0
54653,-100,4,1,1,45,0,0
54803,-100,4,1,1,50,0,0
54953,-100,4,1,1,55,0,0
55103,-100,4,1,1,60,0,0
55703,-100,4,1,1,80,0,0
58103,-100,4,1,1,90,0,1
67628,-100,4,1,1,90,0,0
67703,-100,4,1,1,90,0,1
74903,-100,4,1,1,80,0,0
77303,-100,4,1,1,70,0,0
84803,-100,4,1,1,60,0,0
85103,-100,4,1,1,50,0,0
85403,-100,4,1,1,40,0,0
85703,-100,4,1,1,30,0,0
86003,-100,4,1,1,25,0,0
86303,-100,4,1,1,20,0,0
86603,-100,4,1,1,10,0,0
86903,-100,4,1,100,5,0,0

[Colours]
Combo1 : 241,156,154
Combo2 : 120,175,220
Combo3 : 255,0,0
Combo4 : 242,226,115
Combo5 : 136,136,136
Combo6 : 0,128,192
Combo7 : 67,197,89
Combo8 : 190,148,109

[HitObjects]
100,288,503,6,0,B|196:260|256:346|256:346|316:260|412:288,1,360,4|4,0:0|0:0,0:0:0:0:
412,96,2903,2,0,B|316:124|256:38|256:38|196:124|100:96,1,360,4|4,0:0|0:0,0:0:0:0:
256,360,5303,5,4,0:0:0:0:
326,307,5603,2,0,P|256:274|186:307,1,160,8|8,0:0|0:0,0:0:0:0:
52,192,6803,2,0,B|92:150|92:150|133:109|192:121,1,160,8|8,0:0|0:0,0:0:0:0:
256,172,7703,1,4,0:0:0:0:
326,119,8003,2,0,B|379:109|420:150|420:150|460:192,1,160,8|8,0:0|0:0,0:0:0:0:
292,276,9203,2,0,B|256:259|256:259|220:276,2,80,8|8|8,0:0|0:0|0:0,0:0:0:0:
332,356,10103,6,0,P|256:378|180:356,1,160,4|2,0:0|0:3,0:0:0:0:
124,192,11303,2,0,B|196:176|256:221|256:221|316:176|388:192,1,280,0|4,0:0|0:0,0:0:0:0:
344,24,12953,2,0,B|256:72|256:72|168:24,1,200,0|0,0:0|0:0,0:0:0:0:
124,192,14303,1,0,0:0:0:0:
256,308,14903,2,0,B|308:308|308:308|364:308|396:252,1,160,4|2,0:0|0:3,0:0:0:0:
340,88,16103,2,0,B|288:88|288:88|232:88|200:144,1,160,0|8,0:0|0:3,0:0:0:0:
312,212,17153,6,0,L|500:312,1,200,4|4,0:0|0:0,0:0:0:0:
364,352,18353,2,0,L|176:252,1,200,4|4,0:0|0:0,0:0:0:0:
84,176,19553,6,0,B|44:200|28:256|28:256|44:312|84:336,1,200,4|2,0:0|0:3,0:0:0:0:
244,264,20903,2,0,B|312:264|312:264|336:272|336:272|408:272,1,160,0|0,0:0|0:0,0:0:0:0:
324,116,22103,2,0,B|256:116|256:116|232:108|232:108|160:108,1,160,0|2,0:0|0:3,0:0:0:0:
8,192,23303,1,0,0:0:0:0:
165,276,23903,1,0,0:0:0:0:
347,276,24503,5,0,0:0:0:0:
504,192,25103,1,0,0:0:0:0:
356,96,25703,2,0,P|256:40|156:96,1,240,0|8,0:0|0:0,0:0:0:0:
156,184,26903,2,0,P|256:240|356:184,1,240,0|8,0:0|0:0,0:0:0:0:
436,144,28103,2,0,B|456:184|436:224|436:224|456:256,1,120,0|2,0:0|0:0,0:0:0:0:
512,324,28853,2,0,P|476:340|436:340,1,80,8|4,0:0|0:0,0:0:0:0:
316,288,29603,6,0,P|236:288|140:356,1,200,8|2,0:0|0:0,0:0:0:0:
40,268,30803,1,8,0:0:0:0:
120,228,31103,2,0,L|100:148,1,80,2|8,0:3|0:0,0:0:0:0:
36,92,31703,2,0,B|64:60|112:60|112:60|196:60,1,160,0|2,0:0|0:3,0:0:0:0:
325,60,32753,2,0,B|400:60|400:60|448:60|476:92,1,160,2|2,0:0|0:0,0:0:0:0:
360,280,34103,6,0,P|256:331|152:280,1,240,0|8,0:0|0:0,0:0:0:0:
152,192,35303,2,0,P|256:140|360:191,1,240,0|8,0:0|0:3,0:0:0:0:
440,232,36503,6,0,B|460:184|432:140|432:140|488:104,1,160,4|4,0:0|0:0,0:0:0:0:
384,20,37553,2,0,L|215:131,1,200,4|4,0:0|0:0,0:0:0:0:
76,236,38903,5,4,0:0:0:0:
80,328,39203,2,0,B|132:324|160:276|160:276|220:268|248:320|256:358|256:358|264:320|292:268|352:276|352:276|380:324|432:328,1,480,8|8,0:0|0:0,0:0:0:0:
436,236,41303,6,0,P|454:179|436:123,2,120,0|0|8,0:0|0:0|0:0,0:0:0:0:
492,304,42503,2,0,B|424:304|424:304|376:304|340:348,1,160
256,360,43403,1,0,0:0:0:0:
167,343,43703,2,0,B|136:304|88:304|88:304|20:304,1,160,4|0,0:0|0:0,0:0:0:0:
152,168,44903,6,0,B|188:152|188:152|212:120,1,80,0|8,0:0|0:0,0:0:0:0:
300,120,45503,2,0,B|324:152|324:152|360:168,1,80,0|8,0:0|0:0,0:0:0:0:
420,236,46103,2,0,B|380:272|332:256|332:256|296:240|296:240|332:280|332:352|256:392|180:352|180:280|216:240|216:240|180:256|180:256|132:272|92:236,1,560,4|8,0:0|0:3,0:0:0:0:
92,148,48503,6,0,B|132:112|180:128|180:128|216:144|216:144|180:104|180:32|256:-8|332:32|332:104|296:144|296:144|332:128|332:128|380:112|420:148,1,560,4|8,0:0|0:3,0:0:0:0:
476,216,50903,6,0,P|256:362|36:216,1,560,4|8,0:0|0:3,0:0:0:0:
92,148,53303,6,0,B|96:84|168:44|244:76|256:147|256:147|268:76|344:44|416:84|420:148,1,480,4|8,0:0|0:3,0:0:0:0:
312,288,55703,6,0,B|256:267|256:267|200:288,3,120,4|4|4|4,0:0|0:0|0:0|0:0,0:0:0:0:
108,192,57503,1,8,0:0:0:0:
256,100,58103,6,0,B|336:100|336:100|400:52,1,160,4|2,0:0|0:0,0:0:0:0:
504,192,59303,1,4,0:0:0:0:
400,332,59903,2,0,B|336:284|336:284|256:284,1,160,2|4,0:0|0:0,0:0:0:0:
108,192,61103,1,2,0:0:0:0:
256,100,61703,2,0,B|336:100|336:100|400:52,1,160,4|2,0:0|0:0,0:0:0:0:
504,192,62903,6,0,P|460:292|360:252,1,240,4|8,0:0|0:0,0:0:0:0:
316,176,64103,2,0,B|256:280|256:280|196:176,1,240,4|8,0:0|0:0,0:0:0:0:
152,251,65303,2,0,P|51:291|8:192,1,240,12|8,0:0|0:0,0:0:0:0:
44,112,66503,2,0,B|64:64|108:52|108:52|176:36,1,160,8|8,0:0|0:0,0:0:0:0:
256,68,67403,1,8,0:0:0:0:
336,36,67703,6,0,B|404:52|404:52|448:64|468:112,1,160,4|2,0:0|0:0,0:0:0:0:
396,272,68903,2,0,P|256:338|116:272,1,320,4|4,0:0|0:0,0:0:0:0:
16,128,70703,1,2,0:0:0:0:
184,72,71303,2,0,P|256:42|328:72,1,160,4|2,0:0|0:0,0:0:0:0:
496,128,72503,5,4,0:0:0:0:
344,220,73103,1,2,0:0:0:0:
168,220,73703,1,8,0:0:0:0:
16,128,74303,1,8,0:0:0:0:
152,16,74903,6,0,B|232:44|256:153|256:153|280:44|360:16,1,360,4|4,0:0|0:0,0:0:0:0:
424,316,77303,6,0,B|376:364|304:384|116:336|140:200|256:136|372:200|396:336|208:384|136:364|88:316,1,600,4|4,0:0|0:0,0:0:0:0:
168,160,80153,2,0,B|256:112|256:112|344:160,1,200,2|0,0:3|0:0,0:0:0:0:
256,312,81503,1,0,0:0:0:0:
168,160,82103,2,0,P|146:85|168:8,1,160,0|2,0:0|0:3,0:0:0:0:
344,8,83303,2,0,P|366:84|344:160,1,160,0|0,0:0|0:0,0:0:0:0:
256,312,84503,5,4,0:0:0:0:
256,192,84653,12,0,88103,0:0:0:0:
