osu file format v9

[General]
AudioFilename: ZERO - Stardust Dreams.mp3
AudioLeadIn: 1000
PreviewTime: 79335
Countdown: 0
SampleSet: Soft
StackLeniency: 0.4
Mode: 0
LetterboxInBreaks: 1

[Editor]
Bookmarks: 63216,77544,78216,78440,78775,79111,79335,152768
DistanceSpacing: 1
BeatDivisor: 4
GridSize: 8

[Metadata]
Title:Stardust Dreams
Artist:Yurika
Creator:_LRJ_
Version:Normal
Source:Touhou
Tags:flandre scarlet vocal th06 dagonpater Jeet Singh

[Difficulty]
HPDrainRate:3
CircleSize:3
OverallDifficulty:3
ApproachRate:4
SliderMultiplier:0.9
SliderTickRate:1

[Events]
//Background and Video events
0,0,"Scarlet Sisters.jpg"
//Break Periods
2,18634,31441
2,63409,69053
2,108185,120993
2,152961,158605
//Storyboard Layer 0 (Background)
//Storyboard Layer 1 (Fail)
//Storyboard Layer 2 (Pass)
//Storyboard Layer 3 (Foreground)
//Storyboard Sound Samples
//Background Colour Transformations
3,100,163,162,255

[TimingPoints]
1642,468.75,4,2,0,100,1,0
16642,447.761194029851,4,1,0,100,1,0
77537,-200,4,1,0,80,0,0
78209,-100,4,1,0,0,0,0
78433,-100,4,1,0,80,0,0
79328,-100,4,1,0,80,0,1
107985,-100,4,1,0,80,0,0
167089,-200,4,1,0,80,0,0
167761,-100,4,1,0,0,0,0
167985,-100,4,1,0,80,0,0
168880,-100,4,1,0,80,0,1
199328,-100,4,1,0,80,0,0

[Colours]
Combo1 : 73,41,80
Combo2 : 224,67,122
Combo3 : 219,174,255
Combo4 : 165,53,255

[HitObjects]
256,104,1642,1,4
336,144,2110,1,2
336,240,2579,1,0
256,280,3048,1,2
176,232,3517,1,0
176,144,3985,2,0,B|176:80,2,45,2|0|0
104,192,4923,1,2
104,280,5392,6,0,B|48:280|24:224,2,90,4|2|0
192,280,6798,1,2
280,280,7267,2,0,B|320:320,2,45,0|0|2
280,192,8204,2,0,B|320:152,2,45,2|0|2
192,192,9142,6,0,B|192:96,2,90,0|2|0
120,248,10548,1,2
192,304,11017,1,0
264,248,11485,2,0,B|296:280,2,45,2|0|0
336,192,12423,1,2
264,136,12892,6,0,B|304:88|360:104,2,90,4|2|0
192,192,14298,1,2
256,192,14767,8,0,16642
256,192,16753,8,4,18434
256,192,32761,12,4,34552
256,120,35000,6,0,B|256:48,2,67.5,8|2|2
256,168,35895,1,8
224,248,36343,2,2,B|256:264|288:248,2,67.5
176,248,37238,2,0,B|120:216|120:128|176:96,1,180,2|2
224,176,38582,6,0,B|256:200|264:240,2,67.5,8|2|2
224,128,39477,1,8
144,80,39925,2,2,B|168:48|208:40,2,67.5
136,128,40821,2,2,B|136:184|176:200,2,67.5
104,96,41716,6,0,B|56:80|-16:144|24:224,1,180,2|2
96,176,43059,1,8
88,264,43507,2,0,B|136:280|208:216|168:136,1,180,2|2
256,112,44850,1,8
336,144,45298,2,0,B|304:216|376:280|424:264,1,180,2|2
416,176,46641,1,8
416,88,47089,2,2,B|456:88|480:120,2,67.5
368,88,47985,1,2
192,88,48880,6,0,B|151:59|104:88,1,90,2|8
72,144,49664,1,2
104,200,50000,2,0,B|104:256,2,45,2|8|0
152,200,50671,2,0,B|184:216|216:200,2,67.5,2|2|2
152,152,51567,2,0,B|128:72|208:24|264:64,1,180,2|2
344,56,52910,6,0,B|416:56,2,67.5,8|2|2
344,104,53806,2,0,B|344:152,1,45,8|0
344,192,54253,2,2,B|376:192|416:216,2,67.5
296,192,55149,2,2,B|264:192|224:216,2,67.5
320,232,56044,6,0,B|360:272|336:344|288:344,1,135,2|0
256,344,56940,2,2,B|240:304|256:264,2,67.5
208,344,57835,2,0,B|136:344|136:344|80:296,1,135,2|0
56,272,58731,2,2,B|24:248|24:200,2,67.5
96,248,59627,6,0,B|168:224|176:128,1,135,2|0
176,104,60522,2,0,B|272:104,1,90,2|8
256,192,61418,8,8,62761
256,192,63209,5,4
256,64,70373,6,0,B|256:152,1,90,4|8
216,240,71268,2,2,B|256:256|296:240,2,67.5
168,240,72164,2,0,B|120:240|120:240|80:208,1,90,2|8
88,120,73059,2,2,B|88:72|40:72,2,67.5
136,120,73955,2,0,B|240:120,1,90,2|8
320,120,74850,2,2,B|368:120|392:152,2,67.5
296,160,75746,6,2,B|248:160|224:128,2,67.5,2|2|2
320,200,76641,2,2,B|320:272,1,67.5
256,296,77313,1,2
208,296,77537,2,0,B|200:288|200:288|192:296|192:296|184:288|184:288|176:296|176:296|168:288|168:288|160:296|160:296,1,67.5,2|0
112,296,78433,5,2
72,240,78768,1,2
112,184,79104,1,2
160,184,79328,6,0,B|204:156|248:184,1,90,4|8
200,264,80224,2,0,B|244:292|288:264,1,90,0|8
328,184,81119,1,0
416,184,81567,2,0,B|448:216,2,45,8|0|0
371,105,82462,1,8
280,104,82910,6,0,B|280:48|332:22,2,90,4|8|0
192,104,84253,1,8
235,182,84701,2,0,B|235:230,2,45,0|0|8
144,184,85597,2,0,B|96:184,2,45,8|0|8
144,272,86492,6,0,B|168:320|224:328,1,90,0|8
304,328,87388,2,0,B|352:320|376:272,1,90,0|8
304,224,88283,1,0
256,152,88731,2,0,B|256:104,2,45,8|0|0
208,224,89627,1,8
160,152,90074,6,0,B|120:181|120:240,2,90,4|8|0
120,72,91418,1,8
256,192,91865,8,8,93209
208,120,93656,6,0,B|252:89|296:120,1,90,4|8
249,197,94552,2,0,B|205:228|161:197,1,90,0|8
128,120,95447,1,0
88,200,95895,2,0,B|64:200|48:176,2,45,8|0|0
128,280,96791,1,8
216,304,97238,6,0,B|200:352|152:368,2,90,4|8|0
304,280,98582,1,8
352,200,99030,2,0,B|384:208|400:240,2,45,0|0|8
304,120,99925,2,0,B|304:96|336:80,2,45,8|0|8
256,200,100821,6,0,B|214:173|172:200,1,90,0|8
213,279,101716,2,0,B|171:306|129:279,1,90,0|8
88,200,102612,1,0
128,120,103059,2,0,B|112:96|80:96,2,45,8|0|0
216,120,103955,1,8
304,120,104403,6,0,B|304:72|264:40,2,90,4|8|0
304,208,105746,1,8
256,192,106194,8,4,107985
256,192,122313,12,4,124104
224,272,124552,6,0,B|256:288|288:272,2,67.5,8|2|2
192,240,125447,1,8
128,176,125895,2,2,B|96:200|96:240,2,67.5
160,144,126791,2,0,B|200:88|272:88|312:144,1,180,2|2
237,194,128134,6,0,B|213:226|173:242,2,67.5,8|2|2
272,224,129030,1,8
360,224,129477,2,2,B|360:272|328:296,2,67.5
360,176,130373,2,2,B|360:128|328:104,2,67.5
400,200,131268,6,0,B|456:200|472:152,1,90,2|8
400,96,132164,2,2,B|416:64|464:56,2,67.5
352,96,133059,2,0,B|256:96,1,90,2|8
216,96,133731,1,0
168,96,133955,2,2,B|96:96,2,67.5
168,144,134850,6,0,B|168:184|128:184|128:224,1,90,2|8
168,304,135746,2,0,B|136:320|104:304,2,67.5,2|2|2
216,304,136641,2,2,B|248:320|280:304,2,67.5
216,256,137537,1,2
256,80,138433,6,0,B|352:80,1,90,2|8
416,80,139216,1,2
416,144,139552,2,0,B|472:144,2,45,2|8|0
416,192,140224,2,2,B|432:224|416:256,2,67.5
368,192,141119,2,0,B|320:192|320:192|288:232,1,90,2|8
256,304,142015,1,2
216,224,142462,6,0,B|184:224|160:256,2,67.5,8|2|2
216,176,143358,1,8
216,88,143806,2,2,B|264:88|288:128,2,67.5
168,88,144701,2,2,B|120:88|96:48,2,67.5
168,136,145597,6,0,B|168:240,1,90,2|8
168,320,146492,2,2,B|128:320|96:280,2,67.5
216,320,147388,2,0,B|304:320,1,90,2|8
392,320,148283,2,0,B|392:272|360:256,2,67.5,2|2|2
440,320,149179,6,0,B|488:272|488:272|488:192,1,135,2|8
488,160,150074,2,0,B|400:160,1,90,2|8
256,192,150970,8,8,152313
256,192,152761,5,4
256,264,159925,6,0,B|256:160,1,90,4|8
288,88,160821,2,2,B|256:72|224:88,2,67.5
336,88,161716,2,0,B|384:88|384:88|400:128,1,90,2|8
400,216,162612,2,2,B|400:264|376:288,2,67.5
352,216,163507,2,0,B|308:192|264:216,1,90,2|8
304,296,164403,2,2,B|304:352|264:368,2,67.5
256,296,165298,5,2
192,312,165634,1,2
128,296,165970,1,2
96,264,166194,2,2,B|64:240|64:200,2,67.5
128,232,167089,2,0,B|136:224|136:224|144:232|144:232|152:224|152:224|160:232|160:232|168:224|168:224|176:232|176:232,1,67.5,2|0
224,232,167985,5,2
288,256,168321,1,2
352,232,168656,1,2
352,184,168880,6,0,B|374:142|352:99,1,90,4|8
272,56,169776,2,0,B|250:98|272:141,1,90,0|8
288,232,170671,1,0
208,280,171119,2,0,B|224:304|256:312,2,45,8|0|0
128,232,172015,1,8
200,184,172462,6,0,B|176:144|120:144,2,90,4|8|0
256,112,173806,1,8
312,184,174253,2,0,B|328:152|360:152,2,45,0|0|8
344,272,175149,2,0,B|328:304|296:304,2,45,8|0|8
416,216,176044,6,0,B|464:216|496:176,1,90,0|8
416,128,176940,2,0,B|368:128|336:168,1,90,0|8
264,216,177835,1,0
264,304,178283,2,0,B|288:304|312:288,2,45,8|0|0
184,260,179179,1,8
93,260,179627,6,0,B|93:316|141:332,2,90,4|8|0
139,182,180970,1,8
256,192,181418,8,8,182761
256,192,183209,6,0,B|212:170|168:192,1,90,4|8
216,272,184104,2,0,B|260:294|304:272,1,90,0|8
352,192,185000,1,0
304,120,185447,2,0,B|320:96|352:96,2,45,8|0|0
216,120,186343,1,8
168,192,186791,6,0,B|128:160|128:104,2,90,4|8|0
216,264,188134,1,8
304,264,188582,2,0,B|304:296|280:312,2,45,0|0|8
352,192,189477,2,0,B|376:192|400:208,2,45,8|0|8
304,120,190373,6,0,B|208:120,1,90,0|8
176,200,191268,2,0,B|272:200,1,90,0|8
304,280,192164,1,0
216,280,192612,2,0,B|216:320|240:336,2,45,8|0|0
128,280,193507,1,8
40,280,193955,6,0,B|40:224|96:192,2,90,4|8|0
128,280,195298,1,8
256,192,195746,8,4,199328
