osu file format v14

[General]
AudioFilename: Stardust Dreams.mp3
AudioLeadIn: 0
PreviewTime: 71517
Countdown: 0
SampleSet: Soft
StackLeniency: 0.7
Mode: 0
LetterboxInBreaks: 0
WidescreenStoryboard: 0

[Editor]
DistanceSpacing: 1
BeatDivisor: 4
GridSize: 4
TimelineZoom: 1

[Metadata]
Title:Stardust Dreams
TitleUnicode:Stardust Dreams
Artist:Yurika
ArtistUnicode:Yurika
Creator:Number5
Version:Normal
Source:Touhou
Tags:Flandre Scarlet U.N. Owen was her? koumakyou th06 hanatan the Embodiment of Scarlet Devil MargaritaV
BeatmapID:522188
BeatmapSetID:223559

[Difficulty]
HPDrainRate:3
CircleSize:3
OverallDifficulty:4
ApproachRate:4
SliderMultiplier:1.2
SliderTickRate:1

[Events]
//Background and Video events
0,0,"899-99d15.jpg",0,0
//Break Periods
//Storyboard Layer 0 (Background)
//Storyboard Layer 1 (Fail)
//Storyboard Layer 2 (Pass)
//Storyboard Layer 3 (Foreground)
//Storyboard Sound Samples

[TimingPoints]
15995,447.761194029851,4,2,2,60,1,0
26741,-100,4,2,2,40,0,0
69726,-100,4,2,2,80,0,0
71517,-90.9090909090909,4,1,5,60,0,1
101965,-100,4,1,5,60,0,0

[Colours]
Combo1 : 238,221,187
Combo2 : 187,238,204
Combo3 : 187,204,238
Combo4 : 238,238,187
Combo5 : 238,85,85

[HitObjects]
228,248,17786,6,0,P|160:240|104:192,2,120,0|8|0,0:0|0:0|0:0,0:0:0:0:
212,120,19129,1,8,0:0:0:0:
328,88,19577,6,0,B|372:80|384:56|384:56|420:104,1,120,0|8,0:0|0:0,0:0:0:0:
440,152,20248,1,0,0:0:0:0:
416,208,20472,2,0,B|384:250|384:250|372:226|328:218,1,120,0|8,0:0|0:0,0:0:0:0:
208,232,21368,6,0,P|152:256|96:204,1,120,0|8,0:0|0:0,0:0:0:0:
72,180,22039,1,0,0:0:0:0:
88,120,22263,2,0,L|148:64,1,60
220,108,22711,2,0,L|160:164,1,60,8|0,0:0|0:0,0:0:0:0:
208,232,23159,6,0,P|227:297|273:174,1,360,0|8,0:0|0:0,0:0:0:0:
256,192,24950,12,0,25845,0:0:0:0:
132,312,26741,6,0,P|68:304|76:200,1,180
140,176,27636,2,0,L|208:156,1,60
276,160,28084,2,0,L|333:176,1,60
408,160,28532,6,0,P|404:208|368:244,2,90,0|0|0,0:0|0:0|0:0,0:0:0:0:
380,88,29427,2,0,P|328:68|264:80,1,120
112,108,30323,6,0,P|128:200|212:220,1,180
188,144,31218,2,0,L|252:124,1,60
276,200,31666,2,0,L|340:180,1,60
408,160,32114,6,0,P|404:216|368:252,2,90,0|0|0,0:0|0:0|0:0,0:0:0:0:
408,84,33009,2,0,P|408:28|372:-16,2,90,0|0|0,0:0|0:0|0:0,0:0:0:0:
332,56,33905,6,0,L|212:84,1,120
148,124,34577,1,0,0:0:0:0:
132,200,34800,2,0,P|120:240|60:268,2,90,0|0|0,0:0|0:0|0:0,0:0:0:0:
208,220,35696,6,0,L|340:240,1,120
352,164,36368,1,0,0:0:0:0:
420,124,36592,2,0,P|376:88|324:88,2,90,0|0|0,0:0|0:0|0:0,0:0:0:0:
420,204,37487,6,0,L|444:336,1,120
364,336,38159,1,0,0:0:0:0:
292,312,38383,2,0,P|220:292|180:304,2,90,0|0|0,0:0|0:0|0:0,0:0:0:0:
348,256,39278,6,0,L|331:167,2,90,0|0|0,0:0|0:0|0:0,0:0:0:0:
292,312,40174,1,0,0:0:0:0:
188,196,40621,1,0,0:0:0:0:
272,64,41069,5,0,0:0:0:0:
272,64,41517,2,0,P|320:44|396:80,1,120
328,124,42189,2,0,L|316:200,2,60,0|0|0,0:0|0:0|0:0,0:0:0:0:
400,152,42860,6,0,P|440:164|500:152,2,90,0|0|0,0:0|0:0|0:0,0:0:0:0:
380,232,43756,2,0,P|348:256|260:240,1,120
156,148,44651,5,0,0:0:0:0:
156,148,45099,2,0,P|220:128|276:144,1,120
300,212,45771,2,0,L|312:284,2,60,0|0|0,0:0|0:0|0:0,0:0:0:0:
220,208,46442,6,0,L|236:324,2,90,0|0|0,0:0|0:0|0:0,0:0:0:0:
300,212,47338,2,0,P|336:184|344:124,2,90,0|0|0,0:0|0:0|0:0,0:0:0:0:
300,212,48233,6,0,L|420:220,1,120
464,156,48905,1,0,0:0:0:0:
464,156,49129,2,0,B|480:124|460:80|460:80|480:64,2,90,0|0|0,0:0|0:0|0:0,0:0:0:0:
392,124,50024,6,0,L|264:120,1,120
192,120,50696,1,0,0:0:0:0:
128,168,50920,2,0,P|114:125|123:82,2,90,0|0|0,0:0|0:0|0:0,0:0:0:0:
192,216,51815,6,0,B|232:208|260:224|260:224|240:260|256:288,1,120
327,267,52487,1,0,0:0:0:0:
404,280,52711,2,0,B|411:256|392:223|392:223|420:207|460:215,1,120
400,76,53606,6,0,P|336:100|264:20,1,180
188,40,54502,2,0,L|164:120,1,60
88,104,54950,2,0,L|76:176,1,60,8|8,0:0|0:0,0:0:0:0:
156,184,55397,6,0,P|148:232|172:280,2,90,8|8|8,0:0|0:0|0:0,0:0:0:0:
228,220,56293,2,0,L|336:220,2,90,8|8|8,0:0|0:0|0:0,0:0:0:0:
236,296,57189,6,0,P|208:332|160:348,2,90,8|8|8,0:0|0:0|0:0,0:0:0:0:
316,292,58084,2,0,L|384:328,1,60,0|8,0:0|0:0,0:0:0:0:
424,260,58532,2,0,L|370:231,1,60,8|0,0:0|0:0,0:0:0:0:
360,156,58980,6,0,P|317:177|295:221,2,90,8|8|8,0:0|0:0|0:0,0:0:0:0:
328,84,59875,2,0,P|285:63|263:19,2,90,8|8|8,0:0|0:0|0:0,0:0:0:0:
340,8,60771,6,0,B|404:20|404:20|456:60,1,120,8|8,0:0|0:0,0:0:0:0:
464,129,61442,1,0,0:0:0:0:
448,205,61666,2,0,B|404:238|404:238|340:250,1,120,8|8,0:0|0:0,0:0:0:0:
280,200,62338,1,8,0:0:0:0:
240,132,62562,6,0,P|192:100|124:116,1,120,8|8,0:0|0:0,0:0:0:0:
96,180,63233,1,0,0:0:0:0:
176,176,63457,2,0,L|152:280,2,90,8|8|8,0:0|0:0|0:0,0:0:0:0:
240,132,64353,6,0,P|288:156|340:108,1,120,8|8,0:0|0:0,0:0:0:0:
412,144,65024,1,0,0:0:0:0:
436,220,65248,2,0,L|464:328,2,90,8|8|8,0:0|0:0|0:0,0:0:0:0:
376,172,66144,6,0,B|348:208|364:248|364:248|304:256,1,120,8|8,0:0|0:0,0:0:0:0:
248,232,66815,1,0,0:0:0:0:
172,212,67039,2,0,P|156:160|160:116,2,90,8|8|8,0:0|0:0|0:0,0:0:0:0:
104,248,67935,6,0,P|96:304|116:340,2,90,8|8|8,0:0|0:0|0:0,0:0:0:0:
176,284,68830,2,0,P|232:296|268:272,2,90,8|8|8,0:0|0:0|0:0,0:0:0:0:
216,216,69726,5,4,0:0:0:0:
216,216,70621,6,0,P|224:164|216:112,2,90,12|12|12,0:0|0:0|0:0,0:0:0:0:
300,204,71517,6,0,P|352:236|428:192,1,132.00000402832,0|8,0:0|0:0,0:0:0:0:
272,72,72412,2,0,P|212:48|157:81,1,132.00000402832,0|8,0:0|0:0,0:0:0:0:
96,240,73308,6,0,P|140:248|160:328,1,132.00000402832,0|8,0:0|0:0,0:0:0:0:
248,336,73980,1,0,0:0:0:0:
332,328,74203,2,0,P|339:265|398:244,1,132.00000402832,8|8,0:0|0:0,0:0:0:0:
344,80,75099,6,0,P|304:120|224:112,1,132.00000402832,0|8,0:0|0:0,0:0:0:0:
272,48,75771,1,0,0:0:0:0:
188,48,75995,2,0,L|100:44,1,66.0000020141602,0|0,0:0|0:0,0:0:0:0:
148,128,76442,2,0,L|64:124,1,66.0000020141602,8|0,0:0|0:0,0:0:0:0:
48,204,76890,6,0,P|24:264|68:320,1,132.00000402832,0|8,0:0|0:0,0:0:0:0:
144,312,77562,1,0,0:0:0:0:
228,296,77786,2,0,L|304:284,2,66.0000020141602,0|0|8,0:0|0:0|0:0,0:0:0:0:
272,132,78681,6,0,P|324:120|368:188,2,132.00000402832,0|8|0,0:0|0:0|0:0,0:0:0:0:
116,60,80024,1,8,0:0:0:0:
156,228,80472,6,0,B|196:216|224:240|224:240|212:268|224:304,1,132.00000402832,0|8,0:0|0:0,0:0:0:0:
304,280,81144,1,0,0:0:0:0:
388,300,81368,2,0,B|396:276|382:241|382:241|410:217|450:229,1,132.00000402832,0|8,0:0|0:0,0:0:0:0:
400,64,82263,6,0,P|328:48|316:48,1,66.0000020141602
348,132,82711,2,0,P|282:166|273:173,1,66.0000020141602,8|0,0:0|0:0,0:0:0:0:
344,228,83159,2,0,P|296:248|232:220,2,99.0000030212403,0|0|0,0:0|0:0|0:0,0:0:0:0:
428,224,84054,6,0,B|420:192|412:180|412:180|428:160|428:140|428:140|464:128|496:84|480:32,1,198.000006042481
400,64,84950,2,0,B|368:56|356:48|356:48|336:64|316:64|316:64|304:100|260:132|208:116,1,198.000006042481
228,36,85845,6,0,P|172:60|148:124,2,132.00000402832,0|8|0,0:0|0:0|0:0,0:0:0:0:
388,96,87189,1,8,0:0:0:0:
304,240,87636,6,0,P|260:193|196:192,1,132.00000402832,0|8,0:0|0:0,0:0:0:0:
224,272,88308,1,0,0:0:0:0:
252,352,88532,2,0,P|204:356|144:304,1,132.00000402832,0|8,0:0|0:0,0:0:0:0:
36,168,89427,6,0,L|84:96,1,66.0000020141602
148,68,89875,2,0,L|225:29,1,66.0000020141602,8|0,0:0|0:0,0:0:0:0:
292,24,90323,2,0,P|360:24|408:88,1,132.00000402832,0|8,0:0|0:0,0:0:0:0:
324,108,90995,1,0,0:0:0:0:
248,144,91218,6,0,L|220:228,1,66.0000020141602
312,228,91666,2,0,L|314:316,1,66.0000020141602,8|0,0:0|0:0,0:0:0:0:
400,280,92114,2,0,L|432:362,2,66.0000020141602,0|0|8,0:0|0:0|0:0,0:0:0:0:
412,108,93009,6,0,P|400:64|304:24,2,132.00000402832,0|8|0,0:0|0:0|0:0,0:0:0:0:
248,144,94353,1,8,0:0:0:0:
108,240,94800,6,0,P|176:248|248:220,1,132.00000402832,0|8,0:0|0:0,0:0:0:0:
248,144,95472,1,0,0:0:0:0:
268,60,95696,2,0,P|330:39|395:48,1,132.00000402832,0|8,0:0|0:0,0:0:0:0:
472,212,96592,6,0,L|444:296,1,66.0000020141602
380,328,97039,2,0,L|356:240,1,66.0000020141602,8|0,0:0|0:0,0:0:0:0:
272,248,97487,2,0,L|266:332,1,66.0000020141602
192,356,97935,2,0,L|149:278,1,66.0000020141602,8|0,0:0|0:0,0:0:0:0:
80,264,98383,6,0,B|92:200|64:108|64:108|144:156|196:136|196:136|208:188|256:220,1,396.000012084961
420,264,100174,6,0,B|408:200|436:108|436:108|356:156|304:136|304:136|292:188|244:220,1,396.000012084961
320,308,101965,5,4,0:0:0:0:
