osu file format v13

[General]
AudioFilename: Stardust Dreams.mp3
AudioLeadIn: 0
PreviewTime: 71517
Countdown: 0
SampleSet: Soft
StackLeniency: 0.7
Mode: 0
LetterboxInBreaks: 0
WidescreenStoryboard: 0

[Editor]
DistanceSpacing: 1
BeatDivisor: 4
GridSize: 4
TimelineZoom: 1

[Metadata]
Title:Stardust Dreams
TitleUnicode:Stardust Dreams
Artist:Yurika
ArtistUnicode:Yurika
Creator:Number5
Version:Lunatic
Source:Touhou
Tags:Flandre Scarlet U.N. Owen was her? koumakyou th06 hanatan the Embodiment of Scarlet Devil MargaritaV
BeatmapID:522187
BeatmapSetID:223559

[Difficulty]
HPDrainRate:7
CircleSize:4
OverallDifficulty:7
ApproachRate:9
SliderMultiplier:1.8
SliderTickRate:1

[Events]
//Background and Video events
0,0,"899-99d15.jpg",0,0
//Break Periods
//Storyboard Layer 0 (Background)
//Storyboard Layer 1 (Fail)
//Storyboard Layer 2 (Pass)
//Storyboard Layer 3 (Foreground)
//Storyboard Sound Samples

[TimingPoints]
15995,447.761194029851,4,2,2,60,1,0
26741,-100,4,2,2,40,0,0
69726,-100,4,2,2,80,0,0
71517,-90.9090909090909,4,1,5,60,0,1
72972,-90.9090909090909,4,2,2,80,0,1
73308,-90.9090909090909,4,1,5,60,0,1
81927,-90.9090909090909,4,2,2,80,0,1
82263,-90.9090909090909,4,1,5,60,0,1
82711,-83.3333333333333,4,1,5,60,0,1
83159,-76.9230769230769,4,1,5,60,0,1
83606,-71.4285714285714,4,1,5,60,0,1
84054,-66.6666666666667,4,1,5,60,0,1
85174,-71.4285714285714,4,1,5,60,0,1
85397,-76.9230769230769,4,1,5,60,0,1
85621,-83.3333333333333,4,1,5,60,0,1
85845,-90.9090909090909,4,1,5,60,0,1
89092,-90.9090909090909,4,2,2,60,0,1
89427,-90.9090909090909,4,1,5,60,0,1
99054,-90.9090909090909,4,2,2,60,0,1
99166,-90.9090909090909,4,1,5,60,0,1
99390,-90.9090909090909,4,2,2,60,0,1
99502,-90.9090909090909,4,1,5,60,0,1
99726,-90.9090909090909,4,2,2,60,0,1
99838,-90.9090909090909,4,1,5,60,0,1
100062,-90.9090909090909,4,2,2,60,0,1
100174,-90.9090909090909,4,1,5,60,0,1
101965,-100,4,1,5,60,0,0

[Colours]
Combo1 : 238,221,187
Combo2 : 187,238,204
Combo3 : 187,204,238
Combo4 : 238,238,187
Combo5 : 238,85,85

[HitObjects]
76,156,15995,5,8,0:0:0:0:
248,88,16218,1,8,0:0:0:0:
178,206,16442,1,0,0:0:0:0:
178,206,16554,2,0,P|178:254|190:318,1,90,8|8,0:0|0:0,0:0:0:0:
184,296,16890,2,0,L|196:352,1,45,8|0,0:0|0:0,0:0:0:0:
264,312,17114,2,0,L|276:368,1,45,8|0,0:0|0:0,0:0:0:0:
352,324,17338,2,0,L|364:268,1,45,8|0,0:0|0:0,0:0:0:0:
432,308,17562,2,0,L|444:252,1,45,8|0,0:0|0:0,0:0:0:0:
440,220,17786,5,8,0:0:0:0:
280,184,18009,1,0,0:0:0:0:
440,220,18233,1,8,0:0:0:0:
440,220,18345,2,0,P|448:164|432:128,1,90
376,44,18681,6,0,P|320:40|280:52,1,90,8|0,0:0|0:0,0:0:0:0:
272,56,19017,1,0,0:0:0:0:
256,64,19129,2,0,P|204:92|176:120,1,90,8|0,0:0|0:0,0:0:0:0:
56,228,19577,6,0,P|100:248|168:224,1,90,8|0,0:0|0:0,0:0:0:0:
324,192,20024,2,0,P|280:172|212:196,1,90,8|0,0:0|0:0,0:0:0:0:
268,260,20472,1,0,0:0:0:0:
268,260,20584,2,0,P|312:280|364:272,1,90,8|0,0:0|0:0,0:0:0:0:
400,260,20920,2,0,L|416:168,1,90,8|8,0:0|0:0,0:0:0:0:
464,112,21368,6,0,P|404:96|364:112,1,90,8|0,0:0|0:0,0:0:0:0:
280,140,21815,2,0,L|336:220,1,90,8|0,0:0|0:0,0:0:0:0:
400,260,22263,1,0,0:0:0:0:
184,240,22487,1,0,0:0:0:0:
180,268,22599,1,0,0:0:0:0:
176,296,22711,1,8,0:0:0:0:
400,260,22935,1,8,0:0:0:0:
456,120,23159,5,0,0:0:0:0:
280,140,23383,1,8,0:0:0:0:
140,104,23606,5,0,0:0:0:0:
140,104,23718,2,0,L|136:164,1,45,8|0,0:0|0:0,0:0:0:0:
184,240,23942,5,0,0:0:0:0:
184,240,24054,2,0,L|188:300,1,45,8|0,0:0|0:0,0:0:0:0:
304,312,24278,5,0,0:0:0:0:
304,312,24390,2,0,L|353:345,1,45,8|0,0:0|0:0,0:0:0:0:
436,272,24614,5,0,0:0:0:0:
436,272,24726,2,0,L|496:276,1,45,8|0,0:0|0:0,0:0:0:0:
404,176,24950,5,8,0:0:0:0:
256,192,25062,12,0,26293,0:0:0:0:
104,188,26741,6,0,P|88:248|104:308,1,90,4|0,0:0|0:0,0:0:0:0:
200,344,27189,2,0,P|216:284|200:224,1,90
240,220,27524,2,0,P|288:188|368:200,1,135
480,160,28084,2,0,L|472:280,1,90
424,328,28532,6,0,P|376:336|316:324,1,90
284,284,28868,2,0,P|236:276|176:288,1,90,0|0,0:0|0:0,0:0:0:0:
136,316,29203,2,0,L|88:328,1,45
44,264,29427,2,0,P|32:192|52:160,1,90
128,104,29875,2,0,P|140:176|120:208,1,90
224,204,30323,6,0,P|276:212|336:196,1,90
392,160,30771,2,0,L|400:56,1,90
372,36,31106,2,0,P|304:20|228:56,1,135
136,112,31666,1,0,0:0:0:0:
224,204,31890,1,0,0:0:0:0:
392,160,32114,6,0,P|400:216|372:296,2,135,0|0|0,0:0|0:0|0:0,0:0:0:0:
224,204,33009,1,0,0:0:0:0:
311,36,33345,1,0,0:0:0:0:
413,195,33681,1,0,0:0:0:0:
336,276,33905,6,0,L|256:316,2,90,0|0|0,0:0|0:0|0:0,0:0:0:0:
413,195,34577,1,0,0:0:0:0:
416,180,34689,1,0,0:0:0:0:
416,168,34800,2,0,P|416:112|392:76,1,90
356,68,35136,2,0,L|192:56,1,135
140,96,35696,6,0,P|132:168|152:208,2,90,0|0|0,0:0|0:0|0:0,0:0:0:0:
216,144,36368,1,0,0:0:0:0:
228,148,36480,1,0,0:0:0:0:
240,152,36592,2,0,L|336:180,1,90
348,216,36927,2,0,P|348:280|280:320,1,135
204,320,37487,6,0,L|116:280,2,90,0|0|0,0:0|0:0|0:0,0:0:0:0:
208,228,38159,1,0,0:0:0:0:
208,216,38271,1,0,0:0:0:0:
208,204,38383,2,0,L|208:108,1,90
200,68,38718,2,0,P|276:44|340:72,1,135
400,112,39278,6,0,P|380:184|404:240,2,135,0|0|0,0:0|0:0|0:0,0:0:0:0:
464,176,40174,2,0,L|500:280,1,90
432,322,40621,2,0,L|396:218,1,90
300,204,41069,6,0,P|232:188|184:200,1,90
136,264,41517,2,0,P|204:280|252:268,1,90,0|0,0:0|0:0,0:0:0:0:
268,284,41853,2,0,L|412:300,1,135
456,200,42412,2,0,P|463:155|454:112,1,90
340,124,42860,6,0,L|196:172,2,135,0|0|0,0:0|0:0|0:0,0:0:0:0:
400,48,43756,2,0,P|428:92|428:148,1,90
308,205,44203,2,0,P|314:160|339:124,1,90
396,196,44651,6,0,L|504:240,1,90
416,312,45099,2,0,P|352:328|316:316,1,90
288,300,45435,2,0,L|136:328,1,135
108,232,45995,2,0,P|100:180|116:144,1,90
192,196,46442,6,0,L|344:200,2,135,0|0|0,0:0|0:0|0:0,0:0:0:0:
236,116,47338,2,0,L|84:112,2,135,0|0|0,0:0|0:0|0:0,0:0:0:0:
276,36,48233,6,0,P|332:24|364:-24,1,90
440,32,48681,2,0,P|452:88|500:120,1,90
480,136,49017,1,0,0:0:0:0:
476,160,49129,2,0,L|444:252,1,90
420,264,49465,2,0,P|372:308|296:312,1,135
252,240,50024,6,0,L|228:152,2,90,0|0|0,0:0|0:0|0:0,0:0:0:0:
332,220,50696,1,0,0:0:0:0:
340,208,50808,1,0,0:0:0:0:
348,196,50920,2,0,P|376:140|372:104,1,90
328,108,51256,2,0,P|264:84|232:24,1,135
144,32,51815,6,0,B|68:32|68:100|68:100|100:128|96:188,1,180
167,210,52487,1,0,0:0:0:0:
87,252,52711,2,0,B|91:279|59:307|59:307|59:375|135:375,1,180
368,144,53606,6,0,P|352:200|368:256,1,90
384,268,53942,2,0,B|392:328|372:352|372:352|328:364|296:332,1,135
216,292,54502,1,0,0:0:0:0:
212,264,54614,1,8,0:0:0:0:
208,236,54726,1,0,0:0:0:0:
368,144,54950,1,8,0:0:0:0:
252,104,55174,1,8,0:0:0:0:
224,96,55286,1,8,0:0:0:0:
196,88,55397,6,0,P|104:80|88:84,1,90,8|0,0:0|0:0,0:0:0:0:
91,121,55733,2,0,P|130:204|141:216,1,90,8|0,0:0|0:0,0:0:0:0:
164,228,56069,2,0,L|232:240,1,45,8|0,0:0|0:0,0:0:0:0:
252,228,56293,2,0,P|304:216|336:188,1,90,8|0,0:0|0:0,0:0:0:0:
360,160,56629,2,0,P|395:186|439:194,1,90,8|0,0:0|0:0,0:0:0:0:
484,204,56965,2,0,L|460:264,1,45,8|0,0:0|0:0,0:0:0:0:
440,280,57189,6,0,P|388:316|304:328,2,135,8|8|8,0:0|0:0|0:0,0:0:0:0:
436,144,58084,2,0,P|448:88|436:40,1,90,8|0,0:0|0:0,0:0:0:0:
316,104,58532,2,0,P|304:160|316:208,1,90,8|0,0:0|0:0,0:0:0:0:
324,200,58868,1,0,0:0:0:0:
340,204,58980,6,0,P|352:256|344:308,1,90,8|0,0:0|0:0,0:0:0:0:
304,284,59315,2,0,P|264:320|215:339,1,90,8|0,0:0|0:0,0:0:0:0:
212,296,59651,2,0,P|160:280|144:268,1,45,8|0,0:0|0:0,0:0:0:0:
124,272,59875,6,0,P|104:216|112:168,1,90,8|0,0:0|0:0,0:0:0:0:
108,140,60211,2,0,P|133:86|173:57,1,90,8|0,0:0|0:0,0:0:0:0:
240,88,60547,1,8,0:0:0:0:
236,104,60659,1,0,0:0:0:0:
232,120,60771,6,0,P|224:168|232:212,1,90,8|0,0:0|0:0,0:0:0:0:
432,172,61218,2,0,P|414:217|386:251,1,90,8|0,0:0|0:0,0:0:0:0:
120,174,61666,2,0,P|137:219|166:253,1,90,8|0,0:0|0:0,0:0:0:0:
320,120,62114,2,0,P|328:168|320:211,1,90,8|0,0:0|0:0,0:0:0:0:
268,280,62562,6,0,P|336:296|412:208,1,180,8|8,0:0|0:0,0:0:0:0:
424,136,63233,1,0,0:0:0:0:
320,120,63457,2,0,P|312:172|324:216,1,90,8|0,0:0|0:0,0:0:0:0:
332,220,63793,1,0,0:0:0:0:
348,224,63905,2,0,P|356:280|336:328,1,90,8|0,0:0|0:0,0:0:0:0:
196,312,64353,6,0,L|92:328,2,90,8|0|8,0:0|0:0|0:0,0:0:0:0:
212,208,65024,1,0,0:0:0:0:
184,96,65248,2,0,P|240:104|316:84,1,135,8|0,0:0|0:0,0:0:0:0:
356,64,65696,2,0,L|344:188,1,90,8|0,0:0|0:0,0:0:0:0:
348,244,66144,6,0,L|364:312,2,45,8|0|0,0:0|0:0|0:0,0:0:0:0:
212,208,66592,1,8,0:0:0:0:
68,168,66815,2,0,L|76:104,2,45,0|0|8,0:0|0:0|0:0,0:0:0:0:
105,314,67263,1,0,0:0:0:0:
212,208,67487,2,0,P|224:144|216:100,1,90,8|0,0:0|0:0,0:0:0:0:
316,36,67935,6,0,P|304:112|312:156,1,90,8|0,0:0|0:0,0:0:0:0:
348,140,68271,2,0,P|360:216|352:260,1,90,8|0,0:0|0:0,0:0:0:0:
324,260,68606,2,0,L|260:284,1,45,8|0,0:0|0:0,0:0:0:0:
240,264,68830,6,0,P|164:276|120:268,1,90,8|0,0:0|0:0,0:0:0:0:
136,232,69166,2,0,P|60:220|16:228,1,90,8|0,0:0|0:0,0:0:0:0:
16,256,69502,2,0,L|40:328,1,45,8|0,0:0|0:0,0:0:0:0:
72,316,69726,5,4,0:0:0:0:
456,36,70621,6,0,P|464:112|452:160,1,90,12|0,0:0|0:0,0:0:0:0:
354,294,70957,2,0,P|342:218|354:182,1,90,12|0,0:0|0:0,0:0:0:0:
212,56,71293,2,0,L|208:116,1,45,12|0,0:0|0:0,0:0:0:0:
200,144,71517,6,0,B|148:184|140:200|140:200|196:244|164:304,1,198.000006042481,4|8,0:0|0:0,0:0:0:0:
264,312,72189,1,0,0:0:0:0:
24,348,72412,1,0,0:0:0:0:
104,264,72636,1,0,0:0:0:0:
184,180,72860,1,8,0:0:0:0:
184,180,72972,2,0,P|236:192|292:180,1,99.0000030212403
324,160,73308,6,0,P|320:220|348:276,1,99.0000030212403
460,324,73756,2,0,P|464:264|436:208,1,99.0000030212403,8|0,0:0|0:0,0:0:0:0:
440,96,74203,1,0,0:0:0:0:
440,96,74651,2,0,B|368:96|368:96|324:72|280:96|280:96|236:96,1,198.000006042481,8|0,0:0|0:0,0:0:0:0:
152,128,75323,5,0,0:0:0:0:
72,188,75547,2,0,P|56:260|76:300,1,99.0000030212403,8|0,0:0|0:0,0:0:0:0:
152,328,75995,1,0,0:0:0:0:
240,244,76218,1,0,0:0:0:0:
252,256,76330,1,0,0:0:0:0:
264,268,76442,2,0,P|328:300|368:304,1,99.0000030212403,8|0,0:0|0:0,0:0:0:0:
348,196,76890,5,0,0:0:0:0:
384,104,77114,1,0,0:0:0:0:
380,243,77338,5,8,0:0:0:0:
351,56,77562,1,0,0:0:0:0:
441,243,77786,5,0,0:0:0:0:
289,55,78010,1,0,0:0:0:0:
479,193,78233,5,8,0:0:0:0:
380,243,78457,1,0,0:0:0:0:
376,256,78569,1,0,0:0:0:0:
372,268,78681,6,0,P|340:316|296:336,1,99.0000030212403
216,180,79129,2,0,P|264:212|284:256,1,99.0000030212403,8|0,0:0|0:0,0:0:0:0:
112,320,79577,2,0,L|204:260,1,99.0000030212403
116,208,80024,2,0,L|24:268,1,99.0000030212403,8|0,0:0|0:0,0:0:0:0:
40,116,80472,5,0,0:0:0:0:
164,60,80696,1,0,0:0:0:0:
288,116,80920,1,8,0:0:0:0:
288,116,81032,2,0,P|296:176|280:236,1,99.0000030212403
168,280,81368,1,0,0:0:0:0:
336,312,81592,1,0,0:0:0:0:
156,199,81815,1,8,0:0:0:0:
156,199,81927,2,0,B|208:200|232:232|232:232|272:212,1,99.0000030212403
380,88,82263,6,0,L|336:192,1,99.0000030212403
412,120,82711,6,0,L|364:228,1,107.999996704102,8|0,0:0|0:0,0:0:0:0:
440,152,83159,6,0,L|392:260,1,116.999994644165
472,184,83495,1,0,0:0:0:0:
472,184,83607,6,0,L|420:300,1,125.999996154785,8|0,0:0|0:0,0:0:0:0:
304,312,84054,5,0,0:0:0:0:
96,292,84278,1,0,0:0:0:0:
40,92,84502,1,8,0:0:0:0:
40,92,84614,2,0,P|112:72|168:96,1,135.000005149842
184,128,84950,6,0,L|192:200,1,67.5000025749208,8|0,0:0|0:0,0:0:0:0:
264,160,85174,6,0,L|272:232,1,62.9999980773926,8|0,0:0|0:0,0:0:0:0:
344,192,85397,6,0,L|352:264,1,58.4999973220826,8|0,0:0|0:0,0:0:0:0:
424,224,85621,6,0,L|432:296,1,53.9999983520508,8|0,0:0|0:0,0:0:0:0:
416,324,85845,6,0,P|344:340|288:312,1,99.0000030212403
72,256,86293,2,0,P|144:240|200:268,1,99.0000030212403,8|0,0:0|0:0,0:0:0:0:
412,136,86741,1,0,0:0:0:0:
412,136,86853,1,8,0:0:0:0:
412,136,86965,1,0,0:0:0:0:
88,96,87189,2,0,L|224:112,1,99.0000030212403,8|0,0:0|0:0,0:0:0:0:
424,232,87636,5,0,0:0:0:0:
116,200,87860,2,0,L|64:188,2,49.5000015106202,0|0|8,0:0|0:0|0:0,0:0:0:0:
400,304,88308,1,0,0:0:0:0:
216,308,88532,1,0,0:0:0:0:
188,144,88756,1,0,0:0:0:0:
308,220,88980,1,8,0:0:0:0:
308,220,89092,2,0,P|344:160|352:100,1,99.0000030212403
255,57,89427,5,0,0:0:0:0:
176,301,89651,1,0,0:0:0:0:
384,150,89875,1,8,0:0:0:0:
127,150,90099,1,0,0:0:0:0:
335,301,90323,1,0,0:0:0:0:
256,57,90547,1,0,0:0:0:0:
259,71,90659,1,0,0:0:0:0:
259,83,90771,2,0,P|239:135|191:175,1,99.0000030212403,8|0,0:0|0:0,0:0:0:0:
52,224,91218,5,0,0:0:0:0:
296,232,91442,1,0,0:0:0:0:
168,288,91666,1,8,0:0:0:0:
296,80,91890,1,0,0:0:0:0:
296,232,92114,1,0,0:0:0:0:
179,17,92338,1,0,0:0:0:0:
51,73,92562,1,8,0:0:0:0:
56,88,92674,1,0,0:0:0:0:
60,104,92786,1,0,0:0:0:0:
64,120,92897,1,0,0:0:0:0:
68,136,93009,6,0,L|96:240,1,99.0000030212403
322,327,93457,2,0,L|294:223,1,99.0000030212403,8|0,0:0|0:0,0:0:0:0:
184,80,93905,1,0,0:0:0:0:
184,80,94017,2,0,P|260:96|308:72,1,99.0000030212403,8|0,0:0|0:0,0:0:0:0:
320,64,94353,2,0,L|312:176,1,99.0000030212403,8|0,0:0|0:0,0:0:0:0:
104,256,94800,5,0,0:0:0:0:
364,192,95024,2,0,L|288:212,2,49.5000015106202,0|0|8,0:0|0:0|0:0,0:0:0:0:
104,160,95472,1,0,0:0:0:0:
256,76,95696,1,0,0:0:0:0:
252,96,95808,1,8,0:0:0:0:
248,116,95920,1,0,0:0:0:0:
244,136,96032,1,0,0:0:0:0:
240,156,96144,2,0,L|212:272,1,99.0000030212403,8|0,0:0|0:0,0:0:0:0:
412,124,96592,6,0,P|424:184|408:252,1,99.0000030212403
92,221,97039,2,0,P|88:171|100:124,1,99.0000030212403,8|0,0:0|0:0,0:0:0:0:
244,136,97487,1,0,0:0:0:0:
244,136,97711,1,0,0:0:0:0:
252,156,97823,1,0,0:0:0:0:
260,176,97935,2,0,P|288:220|360:256,1,99.0000030212403,8|0,0:0|0:0,0:0:0:0:
368,140,98383,5,8,0:0:0:0:
354,256,98606,1,8,0:0:0:0:
206,198,98830,1,0,0:0:0:0:
218,178,98942,2,0,L|250:126,1,49.5000015106202,8|0,0:0|0:0,0:0:0:0:
368,140,99166,1,0,0:0:0:0:
370,162,99278,6,0,L|374:222,1,49.5000015106202,8|0,0:0|0:0,0:0:0:0:
401,312,99502,1,0,0:0:0:0:
386,294,99614,2,0,L|346:247,1,49.5000015106202,8|0,0:0|0:0,0:0:0:0:
202,280,99838,1,0,0:0:0:0:
225,285,99950,2,0,L|284:300,1,49.5000015106202,8|0,0:0|0:0,0:0:0:0:
401,312,100174,5,8,0:0:0:0:
377,319,100285,1,0,0:0:0:0:
353,324,100397,1,8,0:0:0:0:
328,327,100509,1,0,0:0:0:0:
303,327,100621,1,8,0:0:0:0:
279,325,100733,1,0,0:0:0:0:
255,320,100845,1,8,0:0:0:0:
231,313,100957,1,8,0:0:0:0:
208,304,101069,5,8,0:0:0:0:
186,292,101181,1,8,0:0:0:0:
166,278,101293,1,8,0:0:0:0:
147,262,101405,1,8,0:0:0:0:
129,245,101517,1,8,0:0:0:0:
114,226,101629,1,8,0:0:0:0:
100,205,101741,1,8,0:0:0:0:
89,183,101853,1,8,0:0:0:0:
80,160,101965,5,12,0:0:0:0:
