osu file format v13

[General]
AudioFilename: Stardust Dreams.mp3
AudioLeadIn: 0
PreviewTime: 71517
Countdown: 0
SampleSet: Soft
StackLeniency: 0.7
Mode: 0
LetterboxInBreaks: 0
WidescreenStoryboard: 0

[Editor]
DistanceSpacing: 1
BeatDivisor: 4
GridSize: 4
TimelineZoom: 1

[Metadata]
Title:Stardust Dreams
TitleUnicode:Stardust Dreams
Artist:Yurika
ArtistUnicode:Yurika
Creator:Number5
Version:Hard
Source:Touhou
Tags:Flandre Scarlet U.N. Owen was her? koumakyou th06 hanatan the Embodiment of Scarlet Devil MargaritaV
BeatmapID:522186
BeatmapSetID:223559

[Difficulty]
HPDrainRate:4
CircleSize:4
OverallDifficulty:6
ApproachRate:7
SliderMultiplier:1.5
SliderTickRate:1

[Events]
//Background and Video events
0,0,"899-99d15.jpg",0,0
//Break Periods
//Storyboard Layer 0 (Background)
//Storyboard Layer 1 (Fail)
//Storyboard Layer 2 (Pass)
//Storyboard Layer 3 (Foreground)
//Storyboard Sound Samples

[TimingPoints]
15995,447.761194029851,4,2,2,60,1,0
26741,-100,4,2,2,40,0,0
69726,-100,4,2,2,80,0,0
71517,-90.9090909090909,4,1,5,60,0,1
101965,-100,4,1,5,60,0,0

[Colours]
Combo1 : 238,221,187
Combo2 : 187,238,204
Combo3 : 187,204,238
Combo4 : 238,238,187
Combo5 : 238,85,85

[HitObjects]
72,104,15995,5,8,0:0:0:0:
180,136,16218,1,8,0:0:0:0:
288,100,16442,1,0,0:0:0:0:
288,100,16554,2,0,P|336:108|376:136,1,75,8|8,0:0|0:0,0:0:0:0:
388,168,16890,2,0,L|368:228,7,37.5,8|0|8|0|8|0|8|0,0:0|0:0|0:0|0:0|0:0|0:0|0:0|0:0,0:0:0:0:
372,260,17786,6,0,P|316:272|272:248,1,75,8|0,0:0|0:0,0:0:0:0:
200,212,18233,2,0,P|256:200|300:224,1,75,8|0,0:0|0:0,0:0:0:0:
176,136,18681,2,0,P|120:148|76:124,1,75,8|0,0:0|0:0,0:0:0:0:
4,88,19129,2,0,P|60:76|104:100,1,75,8|0,0:0|0:0,0:0:0:0:
188,60,19577,6,0,B|232:44|272:72|272:72|268:104|292:128,1,150,8|8,0:0|0:0,0:0:0:0:
352,192,20248,1,0,0:0:0:0:
348,280,20472,2,0,B|372:304|368:336|368:336|408:364|452:348,1,150,8|8,0:0|0:0,0:0:0:0:
444,168,21368,6,0,L|432:256,1,75,8|0,0:0|0:0,0:0:0:0:
338,206,21815,2,0,L|350:294,1,75,8|0,0:0|0:0,0:0:0:0:
260,292,22263,1,8,0:0:0:0:
172,272,22487,2,0,B|144:312,2,37.5,0|0|8,0:0|0:0|0:0,0:0:0:0:
132,192,22935,1,0,0:0:0:0:
121,105,23159,5,8,0:0:0:0:
189,46,23383,1,8,0:0:0:0:
278,33,23606,1,0,0:0:0:0:
278,33,23718,1,8,0:0:0:0:
360,71,23942,1,0,0:0:0:0:
360,71,24054,1,8,0:0:0:0:
409,146,24278,1,0,0:0:0:0:
409,146,24390,1,8,0:0:0:0:
409,237,24614,1,0,0:0:0:0:
409,237,24726,1,8,0:0:0:0:
348,300,24950,5,8,0:0:0:0:
256,192,25062,12,0,26293,0:0:0:0:
196,84,26741,6,0,P|236:80|288:96,1,75
352,124,27189,2,0,P|324:188|340:248,2,112.5,0|0|0,0:0|0:0|0:0,0:0:0:0:
412,192,28084,2,0,L|500:216,1,75
432,280,28532,6,0,B|391:269|391:269|356:316|300:292,2,112.5,0|0|0,0:0|0:0|0:0,0:0:0:0:
412,192,29427,2,0,L|448:96,1,75
376,60,29875,2,0,L|340:156,1,75,0|0,0:0|0:0,0:0:0:0:
276,100,30323,6,0,L|240:196,1,75,0|0,0:0|0:0,0:0:0:0:
204,228,30771,2,0,B|248:260|296:228|296:228|320:256,2,112.5,0|0|0,0:0|0:0|0:0,0:0:0:0:
128,248,31666,2,0,P|144:176|168:160,1,75
159,109,32114,6,0,B|192:116|212:156|212:156|256:172,2,112.5,0|0|0,0:0|0:0|0:0,0:0:0:0:
140,36,33009,2,0,B|107:43|87:83|87:83|43:99,2,112.5,0|0|0,0:0|0:0|0:0,0:0:0:0:
212,52,33905,6,0,P|244:76|268:108,1,75
340,108,34353,2,0,P|363:78|393:56,1,75
428,144,34800,2,0,P|440:200|432:272,2,112.5,0|0|0,0:0|0:0|0:0,0:0:0:0:
356,196,35696,6,0,P|328:232|324:280,1,75
436,320,36144,2,0,P|418:277|379:250,1,75
256,352,36592,2,0,B|276:344|288:328|288:328|336:348|376:313,2,112.5,0|0|0,0:0|0:0|0:0,0:0:0:0:
228,280,37487,6,0,L|184:196,1,75
244,124,37935,2,0,L|292:212,1,75
324,260,38383,2,0,B|356:240|364:204|364:204|400:228|432:220,2,112.5,0|0|0,0:0|0:0|0:0,0:0:0:0:
228,280,39278,6,0,P|166:286|112:256,2,112.5,0|0|0,0:0|0:0|0:0,0:0:0:0:
204,128,40174,2,0,L|188:208,1,75
284,192,40621,2,0,L|300:112,1,75
332,40,41069,6,0,P|408:28|476:64,1,150
392,136,41741,1,0,0:0:0:0:
392,136,41853,2,0,L|420:272,1,112.5
456,308,42412,2,0,P|404:320|356:296,1,75
312,288,42860,6,0,B|264:268|264:268|244:300|188:308,2,112.5,0|0|0,0:0|0:0|0:0,0:0:0:0:
328,208,43756,2,0,L|244:176,1,75
188,160,44203,2,0,P|192:208|208:236,1,75
128,240,44651,6,0,P|72:232|40:224,1,75
48,152,45099,2,0,P|68:100|72:56,1,75
36,64,45435,2,0,P|104:88|168:88,1,112.5
208,52,45995,1,0,0:0:0:0:
280,72,46218,1,0,0:0:0:0:
356,80,46442,6,0,P|424:80|468:68,2,112.5,0|0|0,0:0|0:0|0:0,0:0:0:0:
308,140,47338,2,0,B|264:156|228:124|228:124|184:160,2,112.5,0|0|0,0:0|0:0|0:0,0:0:0:0:
384,144,48233,6,0,P|364:192|328:216,1,75
168,328,48681,2,0,P|188:280|224:256,1,75,0|0,0:0|0:0,0:0:0:0:
304,268,49129,2,0,P|360:264|404:252,1,75
412,276,49465,2,0,P|424:224|480:224,1,112.5
496,336,50024,6,0,L|412:356,1,75
348,356,50472,2,0,L|275:338,1,75,0|0,0:0|0:0,0:0:0:0:
152,296,50920,2,0,P|68:316|32:356,2,112.5,0|0|0,0:0|0:0|0:0,0:0:0:0:
108,192,51815,6,0,P|176:204|224:136,1,150
332,160,52487,1,0,0:0:0:0:
364,264,52711,2,0,P|296:252|248:320,1,150
108,192,53606,6,0,P|112:140|96:100,1,75
140,100,53942,2,0,P|224:104|272:84,1,112.5
320,120,54502,2,0,L|320:168,2,37.5,0|8|0,0:0|0:0|0:0,0:0:0:0:
420,92,54950,1,8,0:0:0:0:
448,196,55174,1,8,0:0:0:0:
440,208,55286,1,8,0:0:0:0:
432,220,55397,6,0,P|384:264|344:288,2,112.5,8|8|8,0:0|0:0|0:0,0:0:0:0:
252,108,56293,2,0,P|272:172|320:188,2,112.5,8|8|8,0:0|0:0|0:0,0:0:0:0:
104,104,57189,6,0,B|80:220,2,112.5,8|8|8,0:0|0:0|0:0,0:0:0:0:
180,204,58084,2,0,P|212:252|148:320,1,150,0|8,0:0|0:0,0:0:0:0:
280,360,58756,1,0,0:0:0:0:
368,304,58980,6,0,L|424:196,2,112.5,8|8|8,0:0|0:0|0:0,0:0:0:0:
216,360,59875,2,0,B|176:380|128:352|128:352|76:364,2,112.5,8|8|8,0:0|0:0|0:0,0:0:0:0:
292,272,60771,6,0,P|240:216|264:132,1,150,8|8,0:0|0:0,0:0:0:0:
68,80,61666,2,0,P|120:136|96:220,1,150,8|8,0:0|0:0,0:0:0:0:
56,332,62562,6,0,B|68:300|68:300|108:312|144:300|144:300|160:340,1,150,0|8,0:0|0:0,0:0:0:0:
232,308,63233,1,0,0:0:0:0:
308,312,63457,2,0,B|312:284|292:256|292:256|328:236|340:216,2,112.5,8|8|8,0:0|0:0|0:0,0:0:0:0:
216,204,64353,6,0,P|164:184|148:96,1,150,0|8,0:0|0:0,0:0:0:0:
212,132,65024,1,0,0:0:0:0:
284,116,65248,2,0,B|312:112|328:96|328:96|332:144|360:168,2,112.5,8|8|8,0:0|0:0|0:0,0:0:0:0:
268,44,66144,6,0,L|172:40,1,75
408,104,66592,2,0,L|504:108,1,75,8|0,0:0|0:0,0:0:0:0:
472,180,67039,2,0,B|484:220|472:252|472:252|448:244|404:260,2,112.5,8|8|8,0:0|0:0|0:0,0:0:0:0:
452,320,67935,6,0,B|392:328|368:280|368:280|336:300,2,112.5,8|8|8,0:0|0:0|0:0,0:0:0:0:
434,251,68830,2,0,B|442:191|394:167|394:167|414:135,2,112.5,8|8|8,0:0|0:0|0:0,0:0:0:0:
364,232,69726,1,4,0:0:0:0:
252,88,70621,5,12,0:0:0:0:
164,231,70957,1,12,0:0:0:0:
329,255,71293,1,12,0:0:0:0:
329,255,71517,6,0,P|376:200|372:168,1,82.5000025177003
384,64,71965,2,0,P|337:119|341:151,1,82.5000025177003,8|0,0:0|0:0,0:0:0:0:
260,164,72412,2,0,L|172:176,1,82.5000025177003
56,272,72860,2,0,L|160:284,1,82.5000025177003,8|0,0:0|0:0,0:0:0:0:
380,192,73308,6,0,P|316:224|260:160,1,165.000005035401,0|8,0:0|0:0,0:0:0:0:
168,236,73980,1,0,0:0:0:0:
184,60,74203,1,8,0:0:0:0:
184,60,74651,2,0,P|248:28|304:92,1,165.000005035401,8|0,0:0|0:0,0:0:0:0:
244,192,75323,5,0,0:0:0:0:
408,164,75547,1,8,0:0:0:0:
296,280,75771,1,0,0:0:0:0:
400,260,75995,1,0,0:0:0:0:
320,116,76218,2,0,L|324:68,2,41.2500012588501,0|0|8,0:0|0:0|0:0,0:0:0:0:
296,280,76666,1,0,0:0:0:0:
216,256,76890,5,0,0:0:0:0:
216,256,77114,1,0,0:0:0:0:
128,164,77338,1,8,0:0:0:0:
128,164,77562,1,0,0:0:0:0:
240,108,77786,2,0,P|292:120|344:108,2,82.5000025177003,0|0|8,0:0|0:0|0:0,0:0:0:0:
128,164,78457,1,0,0:0:0:0:
124,176,78569,1,0,0:0:0:0:
120,188,78681,6,0,P|144:264|223:248,1,165.000005035401,0|8,0:0|0:0,0:0:0:0:
272,196,79353,1,0,0:0:0:0:
328,256,79577,2,0,P|403:261|424:188,1,165.000005035401,0|8,0:0|0:0,0:0:0:0:
260,64,80472,6,0,L|208:148,1,82.5000025177003
272,196,80920,2,0,L|324:112,1,82.5000025177003,8|0,0:0|0:0,0:0:0:0:
348,52,81368,2,0,P|408:36|476:120,1,165.000005035401,0|8,0:0|0:0,0:0:0:0:
428,260,82263,6,0,P|376:296|344:300,1,82.5000025177003
192,276,82711,2,0,P|244:240|276:236,1,82.5000025177003,8|0,0:0|0:0,0:0:0:0:
332,152,83159,1,0,0:0:0:0:
180,120,83383,2,0,L|112:124,2,41.2500012588501,0|0|8,0:0|0:0|0:0,0:0:0:0:
320,64,83830,1,0,0:0:0:0:
460,104,84054,6,0,P|472:156|468:208,1,82.5000025177003
400,228,84502,2,0,P|388:280|392:332,1,82.5000025177003,8|0,0:0|0:0,0:0:0:0:
272,312,84950,1,8,0:0:0:0:
160,284,85174,1,8,0:0:0:0:
112,180,85397,1,8,0:0:0:0:
46,274,85621,1,8,0:0:0:0:
160,284,85845,6,0,P|216:240|228:212,1,82.5000025177003
236,204,86181,1,0,0:0:0:0:
248,176,86293,2,0,P|284:144|332:136,1,82.5000025177003,8|0,0:0|0:0,0:0:0:0:
452,116,86741,2,0,L|440:204,1,82.5000025177003
336,292,87189,2,0,L|320:200,1,82.5000025177003,8|0,0:0|0:0,0:0:0:0:
248,176,87636,6,0,P|212:144|164:136,1,82.5000025177003,0|0,0:0|0:0,0:0:0:0:
152,136,87972,1,0,0:0:0:0:
124,140,88084,2,0,P|84:151|55:180,1,82.5000025177003,8|0,0:0|0:0,0:0:0:0:
132,296,88532,1,0,0:0:0:0:
264,280,88756,1,0,0:0:0:0:
380,212,88980,2,0,L|348:176,3,41.2500012588501,8|0|0|0,0:0|0:0|0:0|0:0,0:0:0:0:
328,148,89427,6,0,P|248:128|220:132,1,82.5000025177003
112,216,89875,2,0,P|192:236|220:232,1,82.5000025177003,8|0,0:0|0:0,0:0:0:0:
328,148,90323,1,0,0:0:0:0:
324,296,90547,2,0,L|288:336,2,41.2500012588501,0|0|8,0:0|0:0|0:0,0:0:0:0:
464,248,90995,1,0,0:0:0:0:
328,148,91218,6,0,P|312:96|292:64,1,82.5000025177003
200,44,91666,2,0,P|216:96|236:128,1,82.5000025177003,8|0,0:0|0:0,0:0:0:0:
188,220,92114,1,8,0:0:0:0:
188,220,92338,1,8,0:0:0:0:
312,264,92562,1,8,0:0:0:0:
312,264,92786,1,0,0:0:0:0:
420,192,93009,6,0,P|436:124|348:76,1,165.000005035401,0|8,0:0|0:0,0:0:0:0:
264,128,93681,1,0,0:0:0:0:
160,76,93905,2,0,P|94:117|107:194,1,165.000005035401,0|8,0:0|0:0,0:0:0:0:
312,264,94800,6,0,B|356:284|392:268|392:268|436:280|472:252,1,165.000005035401,0|8,0:0|0:0,0:0:0:0:
480,152,95472,1,0,0:0:0:0:
465,50,95696,2,0,B|432:24|388:36|388:36|352:20|308:40,1,165.000005035401,0|8,0:0|0:0,0:0:0:0:
80,104,96592,6,0,L|112:196,1,82.5000025177003
176,148,97039,2,0,L|230:228,1,82.5000025177003,8|0,0:0|0:0,0:0:0:0:
292,184,97487,2,0,L|365:247,1,82.5000025177003
396,173,97935,2,0,L|483:215,1,82.5000025177003,8|0,0:0|0:0,0:0:0:0:
440,111,98383,5,8,0:0:0:0:
377,56,98606,1,8,0:0:0:0:
295,45,98830,1,0,0:0:0:0:
295,45,98942,1,8,0:0:0:0:
220,79,99166,1,0,0:0:0:0:
220,79,99278,1,8,0:0:0:0:
176,148,99502,1,0,0:0:0:0:
176,148,99614,1,8,0:0:0:0:
176,231,99838,1,0,0:0:0:0:
176,231,99950,1,8,0:0:0:0:
256,220,100174,6,0,P|300:216|344:224,1,82.5000025177003,8|8,0:0|0:0,0:0:0:0:
420,220,100621,1,0,0:0:0:0:
420,220,100733,1,8,0:0:0:0:
384,296,100957,1,0,0:0:0:0:
384,296,101069,2,0,L|360:348,8,41.2500012588501,8|0|8|0|8|8|8|8|12,0:0|0:0|0:0|0:0|0:0|0:0|0:0|0:0|0:0,0:0:0:0:
