osu file format v7

[General]
AudioFilename: You (TV_Size).mp3
AudioLeadIn: 0
PreviewTime: 55865
Countdown: 0
SampleSet: Soft
StackLeniency: 0.7
Mode: 0
LetterboxInBreaks: 1

[Editor]
Bookmarks: 22756,28866,36693,56558,58791,63596,86097
DistanceSpacing: 0.800000011920929
BeatDivisor: 4
GridSize: 8

[Metadata]
Title:You (TV Size)
Artist:Yuria
Creator:roflninja
Version:Normal
Source:Shuffle!
Tags:Navel Teras

[Difficulty]
HPDrainRate:3
CircleSize:4
OverallDifficulty:3
SliderMultiplier:1
SliderTickRate:1

[Events]
//Background and Video events
0,0,"shuffle.jpg"
Video,0,"Shuffle! (Opening)_xvid.avi"
//Break Periods
//Storyboard Layer 0 (Background)
//Storyboard Layer 1 (Fail)
//Storyboard Layer 2 (Pass)
//Storyboard Layer 3 (Foreground)
//Storyboard Sound Samples
//Background Colour Transformations
3,100,163,162,255

[TimingPoints]
2086,461.538461538462,4,2,0,100,1,0
56558,461.538461538462,4,2,0,100,1,1
86097,461.538461538462,4,2,0,100,1,0

[Colours]
Combo1 : 225,150,0
Combo2 : 238,17,117
Combo3 : 128,64,64
Combo4 : 179,132,170

[HitObjects]
43,56,26086,2,0,B|147:56,1,100
144,56,26778,2,2,B|264:56,1,100
272,128,27701,6,2,B|112:128,2,150
312,64,29547,5,8
312,64,29778,1,0
312,144,30239,1,2
312,224,30701,2,8,B|88:224,2,200,8|0|8
304,104,33239,5,2
304,104,33470,1,8
304,184,33932,1,2
384,184,34393,1,8
384,184,34624,1,2
440,240,35086,5,8
416,272,35316,1,0
392,304,35547,1,8
312,304,36009,2,0,B|256:344|200:288,1,100
136,304,36932,5,8
96,304,37162,1,8
96,224,37624,1,0
96,144,38086,1,0
96,144,38316,1,2
176,144,38778,6,2,B|448:144,1,250
424,304,40855,5,8
344,304,41316,1,0
264,304,41778,1,8
184,304,42239,1,4
104,304,42701,6,2,B|104:144,2,150,2|2|4
184,304,44547,1,8
264,304,45009,1,0
344,304,45470,1,8
424,304,45932,1,4
424,224,46393,2,0,B|312:176|208:232,1,200
232,64,48239,5,8
232,144,48701,1,2
232,224,49162,1,0
312,224,49624,1,2
312,224,50086,6,2,B|176:120,2,150
312,224,51932,2,2,B|312:64|312:64|184:64|184:64|184:160|184:160|184:184,1,400
256,192,54009,12,0,55624
256,160,56086,5,0
256,160,56558,1,4
336,160,57019,5,0
416,160,57481,2,8,B|416:384,2,200,8|0|8
368,224,59788,5,2
368,144,60250,1,4
304,192,60711,5,8
224,192,61173,1,0
144,192,61634,1,8
144,112,62096,2,0,B|216:88|302:114,1,150
291,111,63019,1,4
296,192,63481,6,0,B|352:232|408:176,1,100,0|0
392,112,64404,1,8
312,112,64865,1,0
312,192,65327,1,8
232,192,65788,2,2,B|152:192,2,75
232,192,66711,1,4
159,192,67173,6,2,B|159:96,1,75
256,112,68096,1,8
336,112,68557,1,4
256,192,69019,12,0,70404
136,176,70865,6,4,B|232:176,1,75,0|4
280,248,71788,1,8
200,248,72250,1,0
120,248,72711,1,8
120,168,73173,1,0
200,168,73634,1,8
280,168,74096,1,4
360,168,74557,6,2,B|360:264,1,75
264,240,75481,1,8
264,320,75942,1,0
344,320,76404,1,8
424,320,76865,1,0
424,240,77327,1,8
424,160,77788,1,4
344,160,78250,6,2,B|344:264,1,100
344,344,79173,1,8
264,344,79634,1,0
184,344,80096,1,8
184,264,80557,2,0,B|280:264,2,75
184,264,81481,1,4
184,184,81942,2,0,B|240:144|296:200,1,100
276,263,82865,2,0,B|220:303|164:247,1,100
256,192,83788,12,4,86097
