osu file format v5

[General]
AudioFilename: Yuria - You.mp3
AudioLeadIn: 0
PreviewTime: -1
Countdown: 1
SampleSet: Normal
StackLeniency: 0.7
Mode: 0
LetterboxInBreaks: 1

[Editor]
Bookmarks: 20184,41415,58030
DistanceSpacing: 0.800000011920929
BeatDivisor: 2
GridSize: 32

[Metadata]
Title:You
Artist:Yuria
Creator:Natteke desu
Version:Normal
Source:
Tags:

[Difficulty]
HPDrainRate:5
CircleSize:5
OverallDifficulty:7
SliderMultiplier:1.3
SliderTickRate:2

[Events]
//Background and Video events
0,0,"shuffle.jpg"
//Break Periods
//Storyboard Layer 0 (Background)
//Storyboard Layer 1 (Fail)
//Storyboard Layer 2 (Pass)
//Storyboard Layer 3 (Foreground)
//Storyboard Sound Samples
//Background Colour Transformations
3,100,163,162,255

[TimingPoints]
12800,461.538461538462,4,1,0,100,1,0

[HitObjects]
256,192,12800,12,0,19723
256,192,20184,5,0
288,192,20415,1,0
320,192,20646,1,0
352,192,20876,1,0
384,192,21107,1,0
416,192,21338,1,0
448,192,21569,1,0
480,192,21800,1,0
480,256,22030,5,0
448,256,22261,1,0
416,256,22492,1,0
384,256,22723,1,0
352,256,22953,1,0
320,256,23184,1,0
288,256,23415,1,0
256,256,23646,1,0
256,192,23876,2,0,B|160:192,1,65
256,128,24338,2,0,B|160:128,1,65
256,64,24800,2,0,B|160:64|128:64,1,65
256,192,25261,12,0,27107
256,192,27569,5,0
256,192,28492,1,0
256,192,29415,1,0
288,192,29646,1,0
320,192,29876,1,0
352,192,30107,1,0
384,192,30338,1,0
416,192,30569,1,0
416,224,30800,1,0
96,96,31261,5,0
192,96,32184,1,0
128,96,33107,1,0
192,96,33338,1,0
128,96,33569,1,0
192,96,33800,1,0
128,96,34030,1,0
416,96,34953,6,0,B|416:320|416:320|96:320,2,520
256,192,39107,12,0,40953
256,192,41415,5,8
64,64,41876,5,8
128,64,42107,1,8
192,64,42338,1,8
288,64,42800,2,8,B|288:352|288:352|480:352|480:352|480:32|480:32|352:32|352:32|352:160,1,1040
416,128,46953,1,8
320,128,47261,1,8
416,224,47876,5,8
352,224,48107,1,8
288,224,48338,1,8
224,224,48569,1,8
160,224,48800,1,8
64,224,49261,1,8
64,128,49723,1,2
160,128,50184,1,0
256,128,50646,1,0
320,128,50953,1,0
416,192,51338,1,0
416,256,51569,1,0
352,256,51800,1,0
288,256,52030,1,0
224,256,52261,1,0
160,256,52492,1,0
64,256,52800,1,8
96,160,53415,5,0
160,160,53876,1,0
224,160,54338,1,0
96,224,54800,1,0
128,224,55030,1,0
160,224,55261,1,0
192,224,55492,1,0
224,224,55723,1,0
256,224,55953,1,0
288,224,56184,1,0
320,224,56646,1,10
256,192,58030,5,0
352,192,58338,1,0
352,288,58723,1,0
288,288,58953,1,0
224,288,59261,1,0
224,224,59646,1,0
288,224,59876,1,0
352,224,60184,1,0
352,160,60569,1,0
288,160,60800,1,0
224,160,61261,1,0
224,224,61723,5,0
288,224,62030,1,0
352,224,62415,1,0
416,224,62646,1,0
480,224,62953,1,0
480,160,63338,1,0
480,288,63569,1,0
448,288,63800,1,0
352,288,64030,1,0
320,288,64261,1,0
256,288,64492,1,0
64,96,65415,6,0,B|352:96|352:96|352:352|352:352|96:352|96:352|96:96,1,1040
96,96,69569,5,0
160,96,69800,1,0
224,96,70030,1,0
352,96,70492,5,0
352,160,70723,1,0
352,224,70953,2,0,B|64:224,2,260
256,32,73261,5,0
256,96,73492,1,0
256,160,73723,1,0
256,224,73953,1,0
320,224,74184,1,0
384,224,74415,1,0
448,224,74646,1,0
448,288,74876,1,0
384,288,75107,1,0
320,288,75338,1,0
256,288,75569,1,0
256,192,75800,12,0,77876
256,192,78338,12,0,80184
64,64,80646,6,0,B|352:352|448:128|448:128|96:128|96:128|160:352,1,1040
256,192,84800,5,0
256,192,85723,5,2
320,192,85953,5,2
320,256,86184,1,2
256,256,86415,1,2
288,320,86646,1,6
