osu file format v14

[General]
AudioFilename: rabbit.mp3
AudioLeadIn: 0
PreviewTime: 67263
Countdown: 0
SampleSet: Normal
StackLeniency: 0.7
Mode: 1
LetterboxInBreaks: 0
WidescreenStoryboard: 0

[Editor]
DistanceSpacing: 0.5
BeatDivisor: 4
GridSize: 32
TimelineZoom: 2.3

[Metadata]
Title:Wakusei Rabbit (feat. TORIENA)
TitleUnicode:惑星ラビット (feat. TORIENA)
Artist:Yunomi
ArtistUnicode:Yunomi
Creator:Franklin_DeJavu
Version:yzrin's Rabbit Oni
Source:
Tags:planet rabbit fdjv yuzu__rinrin yzrin [R] Ron's
BeatmapID:1357109
BeatmapSetID:639535

[Difficulty]
HPDrainRate:6
CircleSize:2
OverallDifficulty:6
ApproachRate:10
SliderMultiplier:1.4
SliderTickRate:1

[Events]
//Background and Video events
0,0,"LB.jpg",0,30
//Break Periods
//Storyboard Layer 0 (Background)
//Storyboard Layer 1 (Fail)
//Storyboard Layer 2 (Pass)
//Storyboard Layer 3 (Foreground)
//Storyboard Sound Samples

[TimingPoints]
2781,344.827586206897,4,1,0,70,1,0
13815,-100,4,1,0,70,0,0
24849,-100,4,1,0,70,0,0
46918,-100,4,1,0,60,0,0
68987,-100,4,1,0,70,0,1
91056,-100,4,1,0,70,0,0
124160,-100,4,1,0,70,0,1
133815,-100,4,1,0,70,0,0
135194,-100,4,1,0,70,0,1
146229,-100,4,1,0,60,0,0
157263,-100,4,1,0,70,0,0
168298,-100,4,1,0,70,0,1
190367,-100,4,1,0,70,0,0

[HitObjects]
256,192,2781,5,8,0:0:0:0:
256,192,3125,1,8,0:0:0:0:
256,192,3298,1,0,0:0:0:0:
256,192,3470,1,8,0:0:0:0:
256,192,3643,1,0,0:0:0:0:
256,192,3815,1,8,0:0:0:0:
256,192,3901,1,8,0:0:0:0:
256,192,3987,1,0,0:0:0:0:
256,192,4160,1,0,0:0:0:0:
256,192,4332,1,0,0:0:0:0:
256,192,4418,1,0,0:0:0:0:
256,192,4505,1,8,0:0:0:0:
256,192,4677,1,0,0:0:0:0:
256,192,4849,1,8,0:0:0:0:
256,192,4936,1,0,0:0:0:0:
256,192,5022,1,8,0:0:0:0:
256,192,5194,1,8,0:0:0:0:
256,192,5281,1,8,0:0:0:0:
256,192,5367,1,8,0:0:0:0:
256,192,5539,1,0,0:0:0:0:
256,192,5884,1,8,0:0:0:0:
256,192,6056,1,0,0:0:0:0:
256,192,6229,1,8,0:0:0:0:
256,192,6401,1,0,0:0:0:0:
256,192,6574,1,8,0:0:0:0:
256,192,6660,1,8,0:0:0:0:
256,192,6746,1,0,0:0:0:0:
256,192,6918,1,0,0:0:0:0:
256,192,7263,1,8,0:0:0:0:
256,192,7436,1,0,0:0:0:0:
256,192,7608,1,8,0:0:0:0:
256,192,7781,1,8,0:0:0:0:
256,192,7867,1,8,0:0:0:0:
256,192,7953,1,0,0:0:0:0:
256,192,8039,1,0,0:0:0:0:
256,192,8125,1,0,0:0:0:0:
256,192,8212,1,8,0:0:0:0:
256,192,8298,1,8,0:0:0:0:
256,192,8556,1,8,0:0:0:0:
256,192,8643,1,8,0:0:0:0:
256,192,8815,1,8,0:0:0:0:
256,192,8901,1,8,0:0:0:0:
256,192,8987,1,0,0:0:0:0:
256,192,9074,1,8,0:0:0:0:
256,192,9160,1,0,0:0:0:0:
256,192,9246,1,0,0:0:0:0:
256,192,9332,1,8,0:0:0:0:
256,192,9505,1,0,0:0:0:0:
256,192,9677,1,8,0:0:0:0:
256,192,9936,1,8,0:0:0:0:
256,192,10022,1,8,0:0:0:0:
256,192,10194,1,0,0:0:0:0:
256,192,10367,1,0,0:0:0:0:
256,192,10453,1,8,0:0:0:0:
256,192,10539,1,0,0:0:0:0:
256,192,10625,1,0,0:0:0:0:
256,192,10712,1,8,0:0:0:0:
256,192,10884,1,8,0:0:0:0:
256,192,11056,1,4,0:0:0:0:
256,192,11401,1,4,0:0:0:0:
256,192,11746,1,4,0:0:0:0:
256,192,12091,1,4,0:0:0:0:
256,192,12263,1,4,0:0:0:0:
256,192,12436,8,0,13298,0:0:0:0:
256,192,13470,5,8,0:0:0:0:
256,192,13815,1,4,0:0:0:0:
256,192,13987,1,0,0:0:0:0:
256,192,14074,1,0,0:0:0:0:
256,192,14160,1,8,0:0:0:0:
256,192,14332,1,8,0:0:0:0:
256,192,14505,1,0,0:0:0:0:
256,192,14677,1,8,0:0:0:0:
256,192,14849,1,8,0:0:0:0:
256,192,14936,1,8,0:0:0:0:
256,192,15022,1,0,0:0:0:0:
256,192,15108,1,8,0:0:0:0:
256,192,15194,1,0,0:0:0:0:
256,192,15367,1,8,0:0:0:0:
256,192,15453,1,0,0:0:0:0:
256,192,15539,1,8,0:0:0:0:
256,192,15712,1,0,0:0:0:0:
256,192,15884,1,8,0:0:0:0:
256,192,15970,1,0,0:0:0:0:
256,192,16056,1,8,0:0:0:0:
256,192,16229,1,8,0:0:0:0:
256,192,16315,1,8,0:0:0:0:
256,192,16401,1,8,0:0:0:0:
256,192,16574,1,0,0:0:0:0:
256,192,16746,1,0,0:0:0:0:
256,192,16832,1,0,0:0:0:0:
256,192,16918,1,8,0:0:0:0:
256,192,17091,1,8,0:0:0:0:
256,192,17263,1,0,0:0:0:0:
256,192,17436,1,8,0:0:0:0:
256,192,17608,1,8,0:0:0:0:
256,192,17694,1,8,0:0:0:0:
256,192,17781,1,0,0:0:0:0:
256,192,17867,1,8,0:0:0:0:
256,192,17953,1,0,0:0:0:0:
256,192,18212,1,8,0:0:0:0:
256,192,18298,1,8,0:0:0:0:
256,192,18470,1,0,0:0:0:0:
256,192,18643,1,8,0:0:0:0:
256,192,18729,1,0,0:0:0:0:
256,192,18815,1,8,0:0:0:0:
256,192,18872,1,0,0:0:0:0:
256,192,18930,1,0,0:0:0:0:
256,192,18987,1,8,0:0:0:0:
256,192,19074,1,0,0:0:0:0:
256,192,19160,1,8,0:0:0:0:
256,192,19246,1,8,0:0:0:0:
256,192,19332,1,0,0:0:0:0:
256,192,19505,1,0,0:0:0:0:
256,192,19591,1,0,0:0:0:0:
256,192,19677,1,8,0:0:0:0:
256,192,19849,1,8,0:0:0:0:
256,192,20022,1,0,0:0:0:0:
256,192,20194,1,8,0:0:0:0:
256,192,20367,1,8,0:0:0:0:
256,192,20453,1,8,0:0:0:0:
256,192,20539,1,0,0:0:0:0:
256,192,20625,1,8,0:0:0:0:
256,192,20712,1,0,0:0:0:0:
256,192,20884,1,8,0:0:0:0:
256,192,20970,1,0,0:0:0:0:
256,192,21056,1,8,0:0:0:0:
256,192,21229,1,0,0:0:0:0:
256,192,21401,1,8,0:0:0:0:
256,192,21487,1,0,0:0:0:0:
256,192,21574,1,8,0:0:0:0:
256,192,21746,1,8,0:0:0:0:
256,192,21832,1,8,0:0:0:0:
256,192,21918,1,8,0:0:0:0:
256,192,22091,1,0,0:0:0:0:
256,192,22263,1,8,0:0:0:0:
256,192,22349,1,8,0:0:0:0:
256,192,22436,1,0,0:0:0:0:
256,192,22608,1,8,0:0:0:0:
256,192,22781,1,0,0:0:0:0:
256,192,22953,1,8,0:0:0:0:
256,192,23125,1,8,0:0:0:0:
256,192,23212,1,8,0:0:0:0:
256,192,23298,1,8,0:0:0:0:
256,192,23384,1,0,0:0:0:0:
256,192,23470,1,8,0:0:0:0:
256,192,23729,1,8,0:0:0:0:
256,192,23815,1,8,0:0:0:0:
256,192,23987,1,8,0:0:0:0:
256,192,24074,1,8,0:0:0:0:
256,192,24160,1,0,0:0:0:0:
256,192,24332,1,0,0:0:0:0:
256,192,24505,1,8,0:0:0:0:
256,192,24849,1,4,0:0:0:0:
256,192,25194,1,8,0:0:0:0:
256,192,25367,1,0,0:0:0:0:
256,192,25453,1,0,0:0:0:0:
256,192,25539,1,0,0:0:0:0:
256,192,25712,1,0,0:0:0:0:
256,192,25884,1,8,0:0:0:0:
256,192,26056,1,8,0:0:0:0:
256,192,26229,1,0,0:0:0:0:
256,192,26574,1,8,0:0:0:0:
256,192,26746,1,0,0:0:0:0:
256,192,26918,1,8,0:0:0:0:
256,192,27005,1,8,0:0:0:0:
256,192,27091,1,0,0:0:0:0:
256,192,27263,1,8,0:0:0:0:
256,192,27436,1,8,0:0:0:0:
256,192,27608,1,0,0:0:0:0:
256,192,27953,1,8,0:0:0:0:
256,192,28125,1,0,0:0:0:0:
256,192,28212,1,0,0:0:0:0:
256,192,28298,1,8,0:0:0:0:
256,192,28470,1,0,0:0:0:0:
256,192,28643,1,8,0:0:0:0:
256,192,28815,1,8,0:0:0:0:
256,192,28987,1,0,0:0:0:0:
256,192,29332,1,8,0:0:0:0:
224,160,29505,1,0,0:0:0:0:
256,192,29591,1,8,0:0:0:0:
256,192,29677,1,0,0:0:0:0:
256,192,29849,1,0,0:0:0:0:
256,192,30022,1,8,0:0:0:0:
256,192,30367,1,4,0:0:0:0:
256,192,30712,1,8,0:0:0:0:
256,192,30884,1,0,0:0:0:0:
256,192,30970,1,0,0:0:0:0:
256,192,31056,1,0,0:0:0:0:
256,192,31229,1,0,0:0:0:0:
256,192,31401,1,8,0:0:0:0:
256,192,31574,1,8,0:0:0:0:
256,192,31746,1,0,0:0:0:0:
256,192,32091,1,8,0:0:0:0:
256,192,32263,1,0,0:0:0:0:
256,192,32436,1,8,0:0:0:0:
256,192,32522,1,8,0:0:0:0:
256,192,32608,1,0,0:0:0:0:
256,192,32781,1,8,0:0:0:0:
256,192,32953,1,8,0:0:0:0:
256,192,33125,1,0,0:0:0:0:
256,192,33470,1,8,0:0:0:0:
256,192,33643,1,0,0:0:0:0:
256,192,33729,1,0,0:0:0:0:
256,192,33815,1,8,0:0:0:0:
256,192,33987,1,0,0:0:0:0:
256,192,34160,1,8,0:0:0:0:
256,192,34332,1,8,0:0:0:0:
256,192,34505,1,0,0:0:0:0:
256,192,34763,1,0,0:0:0:0:
256,192,34849,1,8,0:0:0:0:
256,192,35022,1,0,0:0:0:0:
256,192,35108,1,0,0:0:0:0:
256,192,35194,1,0,0:0:0:0:
256,192,35367,1,0,0:0:0:0:
256,192,35539,1,12,0:0:0:0:
256,192,35884,1,4,0:0:0:0:
256,192,36229,1,8,0:0:0:0:
256,192,36401,1,0,0:0:0:0:
256,192,36487,1,0,0:0:0:0:
256,192,36574,1,8,0:0:0:0:
256,192,36746,1,0,0:0:0:0:
256,192,36918,1,8,0:0:0:0:
256,192,37005,1,0,0:0:0:0:
256,192,37091,1,8,0:0:0:0:
256,192,37263,1,0,0:0:0:0:
256,192,37608,1,8,0:0:0:0:
256,192,37781,1,0,0:0:0:0:
256,192,37953,1,8,0:0:0:0:
256,192,38039,1,8,0:0:0:0:
256,192,38125,1,0,0:0:0:0:
256,192,38298,1,8,0:0:0:0:
256,192,38384,1,8,0:0:0:0:
256,192,38470,1,8,0:0:0:0:
256,192,38643,1,0,0:0:0:0:
256,192,38987,1,8,0:0:0:0:
256,192,39160,1,0,0:0:0:0:
256,192,39246,1,0,0:0:0:0:
256,192,39332,1,8,0:0:0:0:
256,192,39505,1,0,0:0:0:0:
256,192,39677,1,8,0:0:0:0:
256,192,39763,1,0,0:0:0:0:
256,192,39849,1,8,0:0:0:0:
256,192,39936,1,8,0:0:0:0:
256,192,40022,1,0,0:0:0:0:
256,192,40367,1,8,0:0:0:0:
256,192,40539,1,0,0:0:0:0:
256,192,40712,1,0,0:0:0:0:
256,192,40884,1,8,0:0:0:0:
256,192,40941,1,0,0:0:0:0:
256,192,40999,1,0,0:0:0:0:
256,192,41056,1,8,0:0:0:0:
256,192,41143,1,0,0:0:0:0:
256,192,41229,1,8,0:0:0:0:
256,192,41315,1,8,0:0:0:0:
256,192,41401,1,0,0:0:0:0:
256,192,41574,1,8,0:0:0:0:
256,192,41746,1,8,0:0:0:0:
256,192,41918,1,0,0:0:0:0:
256,192,42005,1,0,0:0:0:0:
256,192,42091,1,8,0:0:0:0:
256,192,42263,1,0,0:0:0:0:
256,192,42436,1,8,0:0:0:0:
256,192,42522,1,0,0:0:0:0:
256,192,42608,1,8,0:0:0:0:
256,192,42781,1,0,0:0:0:0:
256,192,43125,1,8,0:0:0:0:
256,192,43298,1,0,0:0:0:0:
256,192,43470,1,8,0:0:0:0:
256,192,43556,1,8,0:0:0:0:
256,192,43643,1,0,0:0:0:0:
256,192,43815,1,8,0:0:0:0:
256,192,43901,1,8,0:0:0:0:
256,192,43987,1,8,0:0:0:0:
256,192,44160,1,0,0:0:0:0:
256,192,44505,1,8,0:0:0:0:
256,192,44677,1,0,0:0:0:0:
256,192,44763,1,0,0:0:0:0:
256,192,44849,1,8,0:0:0:0:
256,192,45022,1,0,0:0:0:0:
256,192,45194,1,8,0:0:0:0:
256,192,45281,1,0,0:0:0:0:
256,192,45367,1,8,0:0:0:0:
256,192,45453,1,8,0:0:0:0:
256,192,45539,1,0,0:0:0:0:
256,192,45884,1,8,0:0:0:0:
256,192,46056,1,0,0:0:0:0:
256,160,46143,1,8,0:0:0:0:
256,128,46229,1,0,0:0:0:0:
256,192,46401,1,0,0:0:0:0:
256,192,46574,1,12,0:0:0:0:
256,192,46918,1,0,0:0:0:0:
256,192,47436,1,0,0:0:0:0:
256,192,47781,1,8,0:0:0:0:
256,192,48125,1,8,0:0:0:0:
256,192,48298,1,0,0:0:0:0:
256,192,48643,1,0,0:0:0:0:
256,192,48815,1,8,0:0:0:0:
256,192,48987,1,0,0:0:0:0:
256,192,49160,1,0,0:0:0:0:
256,192,49332,1,8,0:0:0:0:
256,192,49505,1,8,0:0:0:0:
256,192,49677,1,0,0:0:0:0:
256,192,50022,1,0,0:0:0:0:
256,192,50194,1,0,0:0:0:0:
256,192,50367,1,8,0:0:0:0:
256,192,50539,1,0,0:0:0:0:
256,192,50884,1,0,0:0:0:0:
256,192,51229,1,0,0:0:0:0:
256,192,51401,1,8,0:0:0:0:
256,192,51574,1,0,0:0:0:0:
256,192,51746,1,8,0:0:0:0:
256,192,51918,1,8,0:0:0:0:
256,192,52263,1,8,0:0:0:0:
256,192,52436,1,0,0:0:0:0:
256,192,52953,1,0,0:0:0:0:
256,192,53298,1,8,0:0:0:0:
256,192,53643,1,8,0:0:0:0:
256,192,53815,1,0,0:0:0:0:
256,192,54160,1,0,0:0:0:0:
256,192,54332,1,8,0:0:0:0:
256,192,54505,1,0,0:0:0:0:
256,192,54677,1,0,0:0:0:0:
256,192,54849,1,8,0:0:0:0:
256,192,55022,1,8,0:0:0:0:
256,192,55194,1,0,0:0:0:0:
256,192,55539,1,8,0:0:0:0:
256,192,55712,1,0,0:0:0:0:
256,192,55884,1,8,0:0:0:0:
256,192,56056,1,0,0:0:0:0:
256,192,56401,1,0,0:0:0:0:
256,192,56746,1,8,0:0:0:0:
256,192,56918,1,0,0:0:0:0:
256,192,57091,1,8,0:0:0:0:
256,192,57263,1,8,0:0:0:0:
256,192,57953,1,0,0:0:0:0:
256,192,58212,1,8,0:0:0:0:
256,192,58298,1,0,0:0:0:0:
256,192,58470,1,8,0:0:0:0:
256,192,58643,1,0,0:0:0:0:
256,192,58729,1,8,0:0:0:0:
256,192,58901,1,8,0:0:0:0:
256,192,58987,1,0,0:0:0:0:
256,192,59160,1,8,0:0:0:0:
256,192,59332,1,0,0:0:0:0:
256,192,59505,1,0,0:0:0:0:
256,192,59591,1,0,0:0:0:0:
256,192,59677,1,8,0:0:0:0:
256,192,59849,1,0,0:0:0:0:
256,192,60022,1,8,0:0:0:0:
256,192,60108,1,8,0:0:0:0:
256,192,60194,1,0,0:0:0:0:
256,192,60281,1,0,0:0:0:0:
256,192,60367,1,8,0:0:0:0:
256,192,60539,1,0,0:0:0:0:
256,192,60597,1,0,0:0:0:0:
256,192,60654,1,0,0:0:0:0:
256,192,60712,1,8,0:0:0:0:
256,192,60970,1,8,0:0:0:0:
256,192,61056,1,8,0:0:0:0:
256,192,61229,1,0,0:0:0:0:
256,192,61315,1,0,0:0:0:0:
256,192,61401,1,8,0:0:0:0:
256,192,61487,1,0,0:0:0:0:
256,192,61660,1,0,0:0:0:0:
256,192,61746,1,8,0:0:0:0:
256,192,61918,1,8,0:0:0:0:
256,192,62005,1,0,0:0:0:0:
256,192,62091,1,8,0:0:0:0:
256,192,62263,1,0,0:0:0:0:
256,192,62349,1,0,0:0:0:0:
256,192,62436,1,8,0:0:0:0:
256,192,62608,1,8,0:0:0:0:
256,192,62694,1,8,0:0:0:0:
256,192,62781,1,0,0:0:0:0:
256,192,62867,1,8,0:0:0:0:
256,192,63039,1,8,0:0:0:0:
256,192,63125,1,0,0:0:0:0:
256,192,63298,1,0,0:0:0:0:
256,192,63355,1,0,0:0:0:0:
256,192,63413,1,0,0:0:0:0:
256,192,63470,1,8,0:0:0:0:
256,192,63729,1,8,0:0:0:0:
256,192,63815,1,0,0:0:0:0:
256,192,63987,1,0,0:0:0:0:
256,192,64074,1,0,0:0:0:0:
256,192,64160,1,8,0:0:0:0:
256,192,64246,1,8,0:0:0:0:
256,192,64418,1,8,0:0:0:0:
256,192,64505,1,0,0:0:0:0:
256,192,64677,1,8,0:0:0:0:
256,192,64763,1,8,0:0:0:0:
256,192,64849,1,0,0:0:0:0:
256,192,65022,1,0,0:0:0:0:
256,192,65108,1,0,0:0:0:0:
256,192,65194,1,8,0:0:0:0:
256,192,65367,1,0,0:0:0:0:
256,192,65539,1,0,0:0:0:0:
256,192,65625,1,8,0:0:0:0:
256,192,65712,1,0,0:0:0:0:
256,192,65884,1,8,0:0:0:0:
256,192,66056,1,0,0:0:0:0:
256,192,66229,1,8,0:0:0:0:
256,192,66315,1,8,0:0:0:0:
256,192,66401,1,8,0:0:0:0:
256,192,66487,1,8,0:0:0:0:
256,192,66574,1,0,0:0:0:0:
256,192,66660,1,0,0:0:0:0:
256,192,66746,1,0,0:0:0:0:
256,192,66832,1,0,0:0:0:0:
256,192,66918,1,8,0:0:0:0:
256,192,67005,1,0,0:0:0:0:
256,192,67091,1,0,0:0:0:0:
256,192,67177,1,8,0:0:0:0:
256,192,67263,1,0,0:0:0:0:
256,192,67349,1,0,0:0:0:0:
256,192,67436,1,8,0:0:0:0:
256,192,68470,1,0,0:0:0:0:
256,192,68643,1,8,0:0:0:0:
256,192,68987,1,4,0:0:0:0:
256,192,69160,1,0,0:0:0:0:
256,192,69246,1,0,0:0:0:0:
256,192,69332,1,8,0:0:0:0:
256,192,69505,1,8,0:0:0:0:
256,192,69677,1,0,0:0:0:0:
256,192,69849,1,8,0:0:0:0:
256,192,70022,1,8,0:0:0:0:
256,192,70108,1,8,0:0:0:0:
256,192,70194,1,0,0:0:0:0:
256,192,70281,1,8,0:0:0:0:
256,192,70367,1,0,0:0:0:0:
256,192,70539,1,8,0:0:0:0:
256,192,70625,1,0,0:0:0:0:
256,192,70712,1,8,0:0:0:0:
256,192,70884,1,0,0:0:0:0:
256,192,71056,1,8,0:0:0:0:
256,192,71143,1,0,0:0:0:0:
256,192,71229,1,8,0:0:0:0:
256,192,71401,1,8,0:0:0:0:
256,192,71487,1,8,0:0:0:0:
256,192,71574,1,8,0:0:0:0:
256,192,71746,1,0,0:0:0:0:
256,192,71918,1,0,0:0:0:0:
256,192,72005,1,0,0:0:0:0:
256,192,72091,1,8,0:0:0:0:
256,192,72263,1,8,0:0:0:0:
256,192,72436,1,0,0:0:0:0:
256,192,72608,1,8,0:0:0:0:
256,192,72781,1,8,0:0:0:0:
256,192,72867,1,8,0:0:0:0:
256,192,72953,1,0,0:0:0:0:
256,192,73039,1,8,0:0:0:0:
256,192,73125,1,0,0:0:0:0:
256,192,73384,1,8,0:0:0:0:
256,192,73470,1,8,0:0:0:0:
256,192,73643,1,0,0:0:0:0:
256,192,73815,1,8,0:0:0:0:
256,192,73901,1,8,0:0:0:0:
256,192,73987,1,0,0:0:0:0:
256,192,74045,1,0,0:0:0:0:
256,192,74102,1,0,0:0:0:0:
256,192,74160,1,8,0:0:0:0:
256,192,74246,1,0,0:0:0:0:
256,192,74332,1,8,0:0:0:0:
256,192,74418,1,8,0:0:0:0:
256,192,74505,1,0,0:0:0:0:
256,192,74677,1,0,0:0:0:0:
256,192,74763,1,0,0:0:0:0:
256,192,74849,1,8,0:0:0:0:
256,192,75022,1,8,0:0:0:0:
256,192,75194,1,0,0:0:0:0:
256,192,75367,1,8,0:0:0:0:
256,192,75539,1,8,0:0:0:0:
256,192,75625,1,8,0:0:0:0:
256,192,75712,1,0,0:0:0:0:
256,192,75798,1,8,0:0:0:0:
256,192,75884,1,0,0:0:0:0:
256,192,76056,1,8,0:0:0:0:
256,192,76143,1,0,0:0:0:0:
256,192,76229,1,8,0:0:0:0:
256,192,76401,1,0,0:0:0:0:
256,192,76574,1,8,0:0:0:0:
256,192,76660,1,0,0:0:0:0:
256,192,76746,1,8,0:0:0:0:
256,192,76918,1,8,0:0:0:0:
256,192,77005,1,8,0:0:0:0:
256,192,77091,1,8,0:0:0:0:
256,192,77263,1,0,0:0:0:0:
256,192,77436,1,8,0:0:0:0:
256,192,77522,1,8,0:0:0:0:
256,192,77608,1,0,0:0:0:0:
256,192,77781,1,8,0:0:0:0:
256,192,77953,1,0,0:0:0:0:
256,192,78125,1,8,0:0:0:0:
256,192,78298,1,8,0:0:0:0:
256,192,78384,1,8,0:0:0:0:
256,192,78470,1,8,0:0:0:0:
256,192,78556,1,0,0:0:0:0:
256,192,78643,1,8,0:0:0:0:
256,192,78901,1,8,0:0:0:0:
256,192,78987,1,8,0:0:0:0:
256,192,79160,1,8,0:0:0:0:
256,192,79246,1,8,0:0:0:0:
256,192,79332,1,0,0:0:0:0:
256,192,79505,1,0,0:0:0:0:
256,192,79677,1,8,0:0:0:0:
256,192,80022,1,4,0:0:0:0:
256,192,80194,1,0,0:0:0:0:
256,192,80281,1,0,0:0:0:0:
256,192,80367,1,8,0:0:0:0:
256,192,80539,1,8,0:0:0:0:
256,192,80712,1,0,0:0:0:0:
256,192,80884,1,8,0:0:0:0:
256,192,81056,1,0,0:0:0:0:
256,192,81143,1,0,0:0:0:0:
256,192,81229,1,8,0:0:0:0:
256,192,81315,1,8,0:0:0:0:
256,192,81401,1,0,0:0:0:0:
256,192,81574,1,8,0:0:0:0:
256,192,81660,1,0,0:0:0:0:
256,192,81746,1,8,0:0:0:0:
256,192,81918,1,0,0:0:0:0:
256,192,82091,1,8,0:0:0:0:
256,192,82177,1,0,0:0:0:0:
256,192,82263,1,8,0:0:0:0:
256,192,82436,1,8,0:0:0:0:
256,192,82522,1,0,0:0:0:0:
256,192,82608,1,8,0:0:0:0:
256,192,82694,1,8,0:0:0:0:
256,192,82781,1,0,0:0:0:0:
256,192,82953,1,0,0:0:0:0:
256,192,83039,1,0,0:0:0:0:
256,192,83125,1,8,0:0:0:0:
256,192,83298,1,8,0:0:0:0:
256,192,83470,1,0,0:0:0:0:
256,192,83643,1,8,0:0:0:0:
256,192,83815,1,8,0:0:0:0:
256,192,83901,1,8,0:0:0:0:
256,192,83987,1,0,0:0:0:0:
256,192,84074,1,8,0:0:0:0:
256,192,84160,1,0,0:0:0:0:
256,192,84332,1,0,0:0:0:0:
256,192,84418,1,0,0:0:0:0:
256,192,84505,1,8,0:0:0:0:
256,192,84677,1,0,0:0:0:0:
256,192,84849,1,8,0:0:0:0:
256,192,84936,1,0,0:0:0:0:
256,192,85022,1,8,0:0:0:0:
256,192,85079,1,0,0:0:0:0:
256,192,85137,1,0,0:0:0:0:
256,192,85194,1,8,0:0:0:0:
256,192,85281,1,0,0:0:0:0:
256,192,85367,1,0,0:0:0:0:
256,192,85453,1,8,0:0:0:0:
256,192,85539,1,0,0:0:0:0:
256,192,85712,1,0,0:0:0:0:
256,192,85798,1,0,0:0:0:0:
256,192,85884,1,8,0:0:0:0:
256,192,86056,1,8,0:0:0:0:
256,192,86229,1,0,0:0:0:0:
256,192,86401,1,8,0:0:0:0:
256,192,86574,1,8,0:0:0:0:
256,192,86660,1,0,0:0:0:0:
256,192,86746,1,8,0:0:0:0:
256,192,86832,1,8,0:0:0:0:
256,192,86918,1,0,0:0:0:0:
256,192,87091,1,8,0:0:0:0:
256,192,87177,1,0,0:0:0:0:
256,192,87263,1,8,0:0:0:0:
256,192,87436,1,0,0:0:0:0:
256,192,87608,1,8,0:0:0:0:
256,192,87694,1,0,0:0:0:0:
256,192,87781,1,8,0:0:0:0:
256,192,87953,1,0,0:0:0:0:
256,192,88039,1,8,0:0:0:0:
256,192,88125,1,0,0:0:0:0:
256,192,88212,1,0,0:0:0:0:
256,192,88298,1,8,0:0:0:0:
256,192,88470,1,8,0:0:0:0:
256,192,88556,1,0,0:0:0:0:
256,192,88643,1,8,0:0:0:0:
256,192,88815,1,8,0:0:0:0:
256,192,88987,1,0,0:0:0:0:
256,192,89160,1,8,0:0:0:0:
256,192,89332,1,8,0:0:0:0:
256,192,89418,1,8,0:0:0:0:
256,192,89505,1,8,0:0:0:0:
256,192,89591,1,0,0:0:0:0:
256,192,89677,1,8,0:0:0:0:
256,192,89763,1,0,0:0:0:0:
256,192,89849,1,0,0:0:0:0:
256,192,89936,1,0,0:0:0:0:
256,192,90022,1,8,0:0:0:0:
256,192,90194,1,8,0:0:0:0:
256,192,90281,1,8,0:0:0:0:
256,192,90367,1,0,0:0:0:0:
256,192,90453,1,0,0:0:0:0:
256,192,90539,1,0,0:0:0:0:
256,192,90712,1,8,0:0:0:0:
256,192,91056,1,0,0:0:0:0:
256,192,91401,1,0,0:0:0:0:
256,192,91574,1,8,0:0:0:0:
256,192,91746,1,0,0:0:0:0:
256,192,92091,1,8,0:0:0:0:
256,192,92436,1,0,0:0:0:0:
256,192,92781,1,0,0:0:0:0:
256,192,92953,1,0,0:0:0:0:
256,192,93125,1,8,0:0:0:0:
256,192,93298,1,0,0:0:0:0:
256,192,93470,1,8,0:0:0:0:
256,192,93643,1,8,0:0:0:0:
256,192,93815,1,0,0:0:0:0:
256,192,94160,1,0,0:0:0:0:
256,192,94332,1,8,0:0:0:0:
256,192,94677,1,8,0:0:0:0:
256,192,94849,1,0,0:0:0:0:
256,192,95022,1,0,0:0:0:0:
256,192,95194,1,8,0:0:0:0:
256,192,95539,1,8,0:0:0:0:
256,192,95712,1,0,0:0:0:0:
256,192,95884,1,0,0:0:0:0:
256,192,96229,1,8,0:0:0:0:
256,192,96574,1,4,0:0:0:0:
256,192,96918,1,8,0:0:0:0:
256,192,97263,1,0,0:0:0:0:
256,192,97436,1,0,0:0:0:0:
256,192,97608,1,8,0:0:0:0:
256,192,97694,1,0,0:0:0:0:
256,192,97781,1,8,0:0:0:0:
256,192,97953,1,0,0:0:0:0:
256,192,98298,1,8,0:0:0:0:
256,192,98470,1,0,0:0:0:0:
256,192,98815,1,0,0:0:0:0:
256,192,98987,1,8,0:0:0:0:
256,192,99074,1,0,0:0:0:0:
256,192,99160,1,8,0:0:0:0:
256,192,99332,1,0,0:0:0:0:
256,192,99677,1,8,0:0:0:0:
256,192,99849,1,0,0:0:0:0:
256,192,100022,1,0,0:0:0:0:
256,192,100194,1,8,0:0:0:0:
256,192,100281,1,8,0:0:0:0:
256,192,100367,1,8,0:0:0:0:
256,192,100539,1,8,0:0:0:0:
256,192,100712,1,0,0:0:0:0:
256,192,101056,1,8,0:0:0:0:
256,192,101229,1,0,0:0:0:0:
256,192,101574,1,0,0:0:0:0:
256,192,101746,1,12,0:0:0:0:
256,192,102091,1,0,0:0:0:0:
256,192,102349,1,0,0:0:0:0:
256,192,102436,1,8,0:0:0:0:
256,192,102608,1,0,0:0:0:0:
256,192,102867,1,0,0:0:0:0:
256,192,102953,1,8,0:0:0:0:
256,192,103125,1,0,0:0:0:0:
256,192,103298,1,8,0:0:0:0:
256,192,103470,1,0,0:0:0:0:
256,192,103729,1,8,0:0:0:0:
256,192,103815,1,0,0:0:0:0:
256,192,103987,1,8,0:0:0:0:
256,192,104074,1,8,0:0:0:0:
256,192,104160,1,0,0:0:0:0:
256,192,104332,1,0,0:0:0:0:
256,192,104505,1,8,0:0:0:0:
256,192,104677,1,8,0:0:0:0:
256,192,104849,1,0,0:0:0:0:
256,192,105108,1,8,0:0:0:0:
256,192,105194,1,0,0:0:0:0:
256,192,105367,1,0,0:0:0:0:
256,192,105539,1,8,0:0:0:0:
256,192,105625,1,0,0:0:0:0:
256,192,105884,1,0,0:0:0:0:
256,192,106056,1,8,0:0:0:0:
256,192,106229,1,0,0:0:0:0:
256,192,106401,1,8,0:0:0:0:
256,192,106487,1,8,0:0:0:0:
256,192,106574,1,8,0:0:0:0:
256,192,106746,1,0,0:0:0:0:
256,192,106918,1,8,0:0:0:0:
256,192,107005,1,0,0:0:0:0:
256,192,107091,1,0,0:0:0:0:
256,192,107263,1,8,0:0:0:0:
256,192,107436,1,8,0:0:0:0:
256,192,107608,1,0,0:0:0:0:
256,192,107867,1,0,0:0:0:0:
256,192,107953,1,8,0:0:0:0:
256,192,108125,1,0,0:0:0:0:
256,192,108384,1,0,0:0:0:0:
256,192,108470,1,8,0:0:0:0:
256,192,108643,1,0,0:0:0:0:
256,192,108815,1,8,0:0:0:0:
256,192,108987,1,0,0:0:0:0:
256,192,109246,1,8,0:0:0:0:
256,192,109332,1,0,0:0:0:0:
256,192,109505,1,8,0:0:0:0:
256,192,109677,1,0,0:0:0:0:
256,192,109763,1,8,0:0:0:0:
256,192,109936,1,0,0:0:0:0:
256,192,110022,1,8,0:0:0:0:
256,192,110194,1,8,0:0:0:0:
256,192,110367,1,0,0:0:0:0:
256,192,110625,1,8,0:0:0:0:
256,192,110712,1,8,0:0:0:0:
256,192,110884,1,0,0:0:0:0:
256,192,111056,1,8,0:0:0:0:
256,192,111401,1,0,0:0:0:0:
256,192,111574,1,0,0:0:0:0:
256,192,111660,1,0,0:0:0:0:
256,192,111746,1,0,0:0:0:0:
256,192,111918,1,8,0:0:0:0:
256,192,112005,1,8,0:0:0:0:
256,192,112091,1,0,0:0:0:0:
256,192,112263,1,8,0:0:0:0:
256,192,112436,1,8,0:0:0:0:
256,192,112781,1,8,0:0:0:0:
256,192,112953,1,8,0:0:0:0:
256,192,113039,1,8,0:0:0:0:
256,192,113125,1,0,0:0:0:0:
256,192,113384,1,8,0:0:0:0:
256,192,113470,1,0,0:0:0:0:
256,192,113643,1,8,0:0:0:0:
256,192,113815,1,0,0:0:0:0:
256,192,113901,1,8,0:0:0:0:
256,192,114074,1,8,0:0:0:0:
256,192,114160,1,0,0:0:0:0:
256,192,114332,1,8,0:0:0:0:
256,192,114505,1,0,0:0:0:0:
256,192,114677,1,0,0:0:0:0:
256,192,114763,1,0,0:0:0:0:
256,192,114849,1,8,0:0:0:0:
256,192,115022,1,0,0:0:0:0:
256,192,115194,1,8,0:0:0:0:
256,192,115281,1,8,0:0:0:0:
256,192,115367,1,0,0:0:0:0:
256,192,115453,1,0,0:0:0:0:
256,192,115539,1,8,0:0:0:0:
256,192,115712,1,0,0:0:0:0:
256,192,115769,1,0,0:0:0:0:
256,192,115826,1,0,0:0:0:0:
256,192,115884,1,8,0:0:0:0:
256,192,116143,1,8,0:0:0:0:
256,192,116229,1,8,0:0:0:0:
256,192,116401,1,0,0:0:0:0:
256,192,116487,1,0,0:0:0:0:
256,192,116574,1,8,0:0:0:0:
256,192,116660,1,0,0:0:0:0:
256,192,116832,1,0,0:0:0:0:
256,192,116918,1,8,0:0:0:0:
256,192,117091,1,8,0:0:0:0:
256,192,117177,1,0,0:0:0:0:
256,192,117263,1,8,0:0:0:0:
256,192,117436,1,0,0:0:0:0:
256,192,117522,1,0,0:0:0:0:
256,192,117608,1,8,0:0:0:0:
256,192,117781,1,8,0:0:0:0:
256,192,117867,1,8,0:0:0:0:
256,192,117953,1,0,0:0:0:0:
256,192,118039,1,8,0:0:0:0:
256,192,118212,1,8,0:0:0:0:
256,192,118298,1,0,0:0:0:0:
256,192,118470,1,0,0:0:0:0:
256,192,118528,1,0,0:0:0:0:
256,192,118585,1,0,0:0:0:0:
256,192,118643,1,8,0:0:0:0:
256,192,118901,1,8,0:0:0:0:
256,192,118987,1,0,0:0:0:0:
256,192,119160,1,0,0:0:0:0:
256,192,119246,1,0,0:0:0:0:
256,192,119332,1,8,0:0:0:0:
256,192,119418,1,8,0:0:0:0:
256,192,119591,1,8,0:0:0:0:
256,192,119677,1,0,0:0:0:0:
256,192,119849,1,8,0:0:0:0:
256,192,119936,1,8,0:0:0:0:
256,192,120022,1,0,0:0:0:0:
256,192,120194,1,0,0:0:0:0:
256,192,120281,1,0,0:0:0:0:
256,192,120367,1,8,0:0:0:0:
256,192,120539,1,0,0:0:0:0:
256,192,120712,1,0,0:0:0:0:
256,192,120798,1,8,0:0:0:0:
256,192,120884,1,0,0:0:0:0:
256,192,121056,1,8,0:0:0:0:
256,192,121229,1,0,0:0:0:0:
256,192,121401,1,8,0:0:0:0:
256,192,121746,1,8,0:0:0:0:
256,192,122091,1,8,0:0:0:0:
256,192,122436,1,0,0:0:0:0:
256,192,122608,1,0,0:0:0:0:
256,192,123643,1,0,0:0:0:0:
256,192,123729,1,0,0:0:0:0:
256,192,123815,1,8,0:0:0:0:
256,192,124160,1,4,0:0:0:0:
256,192,124418,1,8,0:0:0:0:
256,192,124505,1,8,0:0:0:0:
256,192,124677,1,0,0:0:0:0:
256,192,124849,1,8,0:0:0:0:
256,192,125108,1,8,0:0:0:0:
256,192,125194,1,0,0:0:0:0:
256,192,125367,1,8,0:0:0:0:
256,192,125539,1,8,0:0:0:0:
256,192,125625,1,8,0:0:0:0:
256,192,125712,1,0,0:0:0:0:
256,192,125884,1,0,0:0:0:0:
256,192,126056,1,8,0:0:0:0:
256,192,126143,1,0,0:0:0:0:
256,192,126229,1,8,0:0:0:0:
256,192,126315,1,8,0:0:0:0:
256,192,126401,1,0,0:0:0:0:
256,192,126487,1,0,0:0:0:0:
256,192,126574,1,8,0:0:0:0:
256,192,126631,1,8,0:0:0:0:
256,192,126689,1,8,0:0:0:0:
256,192,126746,1,0,0:0:0:0:
256,192,126918,1,0,0:0:0:0:
256,192,127177,1,0,0:0:0:0:
256,192,127263,1,8,0:0:0:0:
256,192,127436,1,0,0:0:0:0:
256,192,127608,1,8,0:0:0:0:
256,192,127867,1,8,0:0:0:0:
256,192,127953,1,0,0:0:0:0:
256,192,128125,1,8,0:0:0:0:
256,192,128298,1,8,0:0:0:0:
256,192,128413,1,0,0:0:0:0:
256,192,128528,1,0,0:0:0:0:
256,192,128643,1,8,0:0:0:0:
256,192,128815,1,0,0:0:0:0:
256,192,128987,1,8,0:0:0:0:
256,192,129045,1,8,0:0:0:0:
256,192,129102,1,8,0:0:0:0:
256,192,129160,1,0,0:0:0:0:
256,192,129246,1,0,0:0:0:0:
256,192,129332,1,8,0:0:0:0:
256,192,129418,1,8,0:0:0:0:
256,192,129505,1,8,0:0:0:0:
256,192,129591,1,8,0:0:0:0:
256,192,129677,1,0,0:0:0:0:
256,192,129936,1,8,0:0:0:0:
256,192,130022,1,8,0:0:0:0:
256,192,130194,1,0,0:0:0:0:
256,192,130367,1,8,0:0:0:0:
256,192,130625,1,8,0:0:0:0:
256,192,130712,1,0,0:0:0:0:
256,192,130884,1,8,0:0:0:0:
256,192,131229,1,0,0:0:0:0:
256,192,131401,1,0,0:0:0:0:
256,192,131516,1,0,0:0:0:0:
256,192,131631,1,0,0:0:0:0:
256,192,131746,1,8,0:0:0:0:
256,192,131918,1,0,0:0:0:0:
256,192,132091,1,8,0:0:0:0:
256,192,132148,1,8,0:0:0:0:
256,192,132206,1,8,0:0:0:0:
256,192,132263,1,0,0:0:0:0:
256,192,132436,1,0,0:0:0:0:
256,192,132694,1,8,0:0:0:0:
256,192,132781,1,8,0:0:0:0:
256,192,132953,1,0,0:0:0:0:
256,192,133125,1,8,0:0:0:0:
256,192,133384,1,8,0:0:0:0:
256,192,133470,1,0,0:0:0:0:
256,192,133643,1,8,0:0:0:0:
256,192,133815,1,0,0:0:0:0:
256,192,134045,1,0,0:0:0:0:
256,192,134160,1,0,0:0:0:0:
256,192,134390,1,8,0:0:0:0:
256,192,134505,1,0,0:0:0:0:
256,192,134620,1,0,0:0:0:0:
256,192,134735,1,0,0:0:0:0:
256,192,134849,1,8,0:0:0:0:
256,192,134964,1,8,0:0:0:0:
256,192,135079,1,0,0:0:0:0:
256,192,135194,1,12,0:0:0:0:
256,192,135453,1,8,0:0:0:0:
256,192,135539,1,0,0:0:0:0:
256,192,135712,1,8,0:0:0:0:
256,192,135884,1,0,0:0:0:0:
256,192,135970,1,8,0:0:0:0:
256,192,136143,1,8,0:0:0:0:
256,192,136229,1,0,0:0:0:0:
256,192,136401,1,8,0:0:0:0:
256,192,136574,1,0,0:0:0:0:
256,192,136660,1,0,0:0:0:0:
256,192,136832,1,8,0:0:0:0:
256,192,136918,1,8,0:0:0:0:
256,192,137005,1,0,0:0:0:0:
256,192,137091,1,8,0:0:0:0:
256,192,137177,1,0,0:0:0:0:
256,192,137263,1,8,0:0:0:0:
256,192,137436,1,8,0:0:0:0:
256,192,137522,1,0,0:0:0:0:
256,192,137608,1,8,0:0:0:0:
256,192,137666,1,8,0:0:0:0:
256,192,137723,1,8,0:0:0:0:
256,192,137781,1,0,0:0:0:0:
256,192,137953,1,4,0:0:0:0:
256,192,138212,1,0,0:0:0:0:
256,192,138298,1,8,0:0:0:0:
256,192,138470,1,8,0:0:0:0:
256,192,138643,1,0,0:0:0:0:
256,192,138729,1,8,0:0:0:0:
256,192,138901,1,8,0:0:0:0:
256,192,138987,1,0,0:0:0:0:
256,192,139160,1,8,0:0:0:0:
256,192,139332,1,0,0:0:0:0:
256,192,139447,1,0,0:0:0:0:
256,192,139562,1,8,0:0:0:0:
256,192,139677,1,8,0:0:0:0:
256,192,139849,1,0,0:0:0:0:
256,192,140022,1,8,0:0:0:0:
256,192,140137,1,8,0:0:0:0:
256,192,140252,1,0,0:0:0:0:
256,192,140367,1,8,0:0:0:0:
256,192,140424,1,8,0:0:0:0:
256,192,140482,1,8,0:0:0:0:
256,192,140539,1,0,0:0:0:0:
256,192,140712,1,12,0:0:0:0:
256,192,140970,1,0,0:0:0:0:
256,192,141056,1,8,0:0:0:0:
256,192,141229,1,0,0:0:0:0:
256,192,141401,1,0,0:0:0:0:
256,192,141487,1,8,0:0:0:0:
256,192,141660,1,8,0:0:0:0:
256,192,141746,1,0,0:0:0:0:
256,192,141918,1,8,0:0:0:0:
256,192,142091,1,0,0:0:0:0:
256,192,142263,1,8,0:0:0:0:
256,192,142436,1,8,0:0:0:0:
256,192,142551,1,0,0:0:0:0:
256,192,142666,1,0,0:0:0:0:
256,192,142781,1,8,0:0:0:0:
256,192,142953,1,0,0:0:0:0:
256,192,143125,1,8,0:0:0:0:
256,192,143183,1,8,0:0:0:0:
256,192,143240,1,8,0:0:0:0:
256,192,143298,1,0,0:0:0:0:
256,192,143470,1,4,0:0:0:0:
256,192,143729,1,0,0:0:0:0:
256,192,143815,1,8,0:0:0:0:
256,192,143987,1,0,0:0:0:0:
256,192,144160,1,8,0:0:0:0:
256,192,144246,1,0,0:0:0:0:
256,192,144418,1,0,0:0:0:0:
256,192,144505,1,8,0:0:0:0:
256,192,144677,1,0,0:0:0:0:
256,192,144849,1,8,0:0:0:0:
256,192,144936,1,0,0:0:0:0:
256,192,145022,1,0,0:0:0:0:
256,192,145108,1,8,0:0:0:0:
256,192,145194,1,0,0:0:0:0:
256,192,145281,1,0,0:0:0:0:
256,192,145367,1,8,0:0:0:0:
256,192,145453,1,8,0:0:0:0:
256,192,145539,1,0,0:0:0:0:
256,192,145712,1,0,0:0:0:0:
256,192,145884,1,8,0:0:0:0:
256,192,146229,1,0,0:0:0:0:
256,192,146746,1,8,0:0:0:0:
256,192,147091,1,8,0:0:0:0:
256,192,147608,1,0,0:0:0:0:
256,192,148125,1,8,0:0:0:0:
256,192,148470,1,8,0:0:0:0:
256,192,148987,1,0,0:0:0:0:
256,192,149505,1,8,0:0:0:0:
256,192,149849,1,8,0:0:0:0:
256,192,150367,1,0,0:0:0:0:
256,192,150884,1,8,0:0:0:0:
256,192,151229,1,8,0:0:0:0:
256,192,151574,1,8,0:0:0:0:
256,192,151746,1,0,0:0:0:0:
256,192,152263,1,8,0:0:0:0:
256,192,152608,1,8,0:0:0:0:
256,192,152953,1,8,0:0:0:0:
256,192,153125,1,0,0:0:0:0:
256,192,153298,1,8,0:0:0:0:
256,192,153643,1,8,0:0:0:0:
256,192,153987,1,8,0:0:0:0:
256,192,154160,1,8,0:0:0:0:
256,192,154505,1,0,0:0:0:0:
256,192,154677,1,8,0:0:0:0:
256,192,155022,1,8,0:0:0:0:
256,192,155367,1,8,0:0:0:0:
256,192,155712,1,8,0:0:0:0:
256,192,155884,1,0,0:0:0:0:
256,192,156056,1,8,0:0:0:0:
256,192,156401,1,8,0:0:0:0:
256,192,157263,1,0,0:0:0:0:
256,192,157522,1,8,0:0:0:0:
256,192,157608,1,0,0:0:0:0:
256,192,157781,1,8,0:0:0:0:
256,192,157953,1,0,0:0:0:0:
256,192,158039,1,8,0:0:0:0:
256,192,158212,1,8,0:0:0:0:
256,192,158298,1,0,0:0:0:0:
256,192,158470,1,8,0:0:0:0:
256,192,158643,1,0,0:0:0:0:
256,192,158815,1,0,0:0:0:0:
256,192,158901,1,0,0:0:0:0:
256,192,158987,1,8,0:0:0:0:
256,192,159160,1,0,0:0:0:0:
256,192,159332,1,8,0:0:0:0:
256,192,159418,1,8,0:0:0:0:
256,192,159505,1,0,0:0:0:0:
256,192,159591,1,0,0:0:0:0:
256,192,159677,1,8,0:0:0:0:
256,192,159849,1,0,0:0:0:0:
256,192,159907,1,0,0:0:0:0:
256,192,159964,1,0,0:0:0:0:
256,192,160022,1,8,0:0:0:0:
256,192,160281,1,8,0:0:0:0:
256,192,160367,1,8,0:0:0:0:
256,192,160539,1,0,0:0:0:0:
256,192,160625,1,0,0:0:0:0:
256,192,160712,1,8,0:0:0:0:
256,192,160798,1,0,0:0:0:0:
256,192,160970,1,0,0:0:0:0:
256,192,161056,1,8,0:0:0:0:
256,192,161229,1,8,0:0:0:0:
256,192,161315,1,0,0:0:0:0:
256,192,161401,1,8,0:0:0:0:
256,192,161574,1,0,0:0:0:0:
256,192,161660,1,0,0:0:0:0:
256,192,161746,1,8,0:0:0:0:
256,192,161918,1,8,0:0:0:0:
256,192,162005,1,8,0:0:0:0:
256,192,162091,1,0,0:0:0:0:
256,192,162177,1,8,0:0:0:0:
256,192,162349,1,0,0:0:0:0:
256,192,162436,1,8,0:0:0:0:
256,192,162493,1,8,0:0:0:0:
256,192,162551,1,8,0:0:0:0:
256,192,162608,1,0,0:0:0:0:
256,192,162666,1,0,0:0:0:0:
256,192,162723,1,0,0:0:0:0:
256,192,162781,1,8,0:0:0:0:
256,192,163039,1,8,0:0:0:0:
256,192,163125,1,0,0:0:0:0:
256,192,163298,1,0,0:0:0:0:
256,192,163384,1,0,0:0:0:0:
256,192,163470,1,8,0:0:0:0:
256,192,163643,1,0,0:0:0:0:
256,192,163729,1,8,0:0:0:0:
256,192,163815,1,0,0:0:0:0:
256,192,163987,1,8,0:0:0:0:
256,192,164074,1,8,0:0:0:0:
256,192,164160,1,0,0:0:0:0:
256,192,164275,1,0,0:0:0:0:
256,192,164390,1,0,0:0:0:0:
256,192,164505,1,8,0:0:0:0:
256,192,164620,1,8,0:0:0:0:
256,192,164735,1,8,0:0:0:0:
256,192,164849,1,0,0:0:0:0:
256,192,164964,1,0,0:0:0:0:
256,192,165079,1,8,0:0:0:0:
256,192,165194,1,0,0:0:0:0:
256,192,165309,1,8,0:0:0:0:
256,192,165424,1,8,0:0:0:0:
256,192,167953,1,8,0:0:0:0:
256,192,168298,1,4,0:0:0:0:
256,192,168470,1,0,0:0:0:0:
256,192,168556,1,0,0:0:0:0:
256,192,168643,1,8,0:0:0:0:
256,192,168815,1,8,0:0:0:0:
256,192,168901,1,8,0:0:0:0:
256,192,168987,1,0,0:0:0:0:
256,192,169160,1,8,0:0:0:0:
256,192,169332,1,8,0:0:0:0:
256,192,169418,1,8,0:0:0:0:
256,192,169505,1,0,0:0:0:0:
256,192,169591,1,8,0:0:0:0:
256,192,169677,1,0,0:0:0:0:
256,192,169849,1,8,0:0:0:0:
256,192,169936,1,0,0:0:0:0:
256,192,170022,1,8,0:0:0:0:
256,192,170194,1,0,0:0:0:0:
256,192,170367,1,8,0:0:0:0:
256,192,170453,1,0,0:0:0:0:
256,192,170539,1,8,0:0:0:0:
256,192,170712,1,8,0:0:0:0:
256,192,170798,1,8,0:0:0:0:
256,192,170884,1,8,0:0:0:0:
256,192,171056,1,0,0:0:0:0:
256,192,171229,1,0,0:0:0:0:
256,192,171315,1,0,0:0:0:0:
256,192,171401,1,8,0:0:0:0:
256,192,171574,1,8,0:0:0:0:
256,192,171660,1,8,0:0:0:0:
256,192,171746,1,0,0:0:0:0:
256,192,171918,1,8,0:0:0:0:
256,192,172091,1,8,0:0:0:0:
256,192,172177,1,8,0:0:0:0:
256,192,172263,1,0,0:0:0:0:
256,192,172349,1,8,0:0:0:0:
256,192,172436,1,0,0:0:0:0:
256,192,172522,1,0,0:0:0:0:
256,192,172608,1,8,0:0:0:0:
256,192,172781,1,8,0:0:0:0:
256,192,172867,1,8,0:0:0:0:
256,192,172953,1,0,0:0:0:0:
256,192,173039,1,0,0:0:0:0:
256,192,173125,1,8,0:0:0:0:
256,192,173212,1,8,0:0:0:0:
256,192,173384,1,0,0:0:0:0:
256,192,173470,1,8,0:0:0:0:
256,192,173556,1,0,0:0:0:0:
256,192,173643,1,8,0:0:0:0:
256,192,173729,1,8,0:0:0:0:
256,192,173815,1,0,0:0:0:0:
256,192,173987,1,0,0:0:0:0:
256,192,174074,1,0,0:0:0:0:
256,192,174160,1,8,0:0:0:0:
256,192,174332,1,8,0:0:0:0:
256,192,174418,1,8,0:0:0:0:
256,192,174505,1,0,0:0:0:0:
256,192,174677,1,8,0:0:0:0:
256,192,174849,1,8,0:0:0:0:
256,192,174936,1,8,0:0:0:0:
256,192,175022,1,0,0:0:0:0:
256,192,175108,1,8,0:0:0:0:
256,192,175194,1,0,0:0:0:0:
256,192,175367,1,8,0:0:0:0:
256,192,175453,1,0,0:0:0:0:
256,192,175539,1,8,0:0:0:0:
256,192,175712,1,0,0:0:0:0:
256,192,175884,1,8,0:0:0:0:
256,192,175970,1,0,0:0:0:0:
256,192,176056,1,8,0:0:0:0:
256,192,176229,1,8,0:0:0:0:
256,192,176315,1,8,0:0:0:0:
256,192,176401,1,8,0:0:0:0:
256,192,176574,1,0,0:0:0:0:
256,192,176746,1,8,0:0:0:0:
256,192,176832,1,8,0:0:0:0:
256,192,176918,1,0,0:0:0:0:
256,192,177091,1,8,0:0:0:0:
256,192,177263,1,0,0:0:0:0:
256,192,177436,1,8,0:0:0:0:
256,192,177608,1,8,0:0:0:0:
256,192,177694,1,8,0:0:0:0:
256,192,177781,1,8,0:0:0:0:
256,192,177867,1,0,0:0:0:0:
256,192,177953,1,8,0:0:0:0:
256,192,178212,1,8,0:0:0:0:
256,192,178298,1,8,0:0:0:0:
256,192,178470,1,8,0:0:0:0:
256,192,178556,1,8,0:0:0:0:
256,192,178643,1,0,0:0:0:0:
256,192,178815,1,0,0:0:0:0:
256,192,178987,1,8,0:0:0:0:
256,192,179332,1,4,0:0:0:0:
256,192,179505,1,0,0:0:0:0:
256,192,179591,1,0,0:0:0:0:
256,192,179677,1,8,0:0:0:0:
256,192,179849,1,8,0:0:0:0:
256,192,179936,1,8,0:0:0:0:
256,192,180022,1,0,0:0:0:0:
256,192,180194,1,8,0:0:0:0:
256,192,180367,1,0,0:0:0:0:
256,192,180453,1,0,0:0:0:0:
256,192,180539,1,8,0:0:0:0:
256,192,180625,1,8,0:0:0:0:
256,192,180712,1,0,0:0:0:0:
256,192,180884,1,8,0:0:0:0:
256,192,180970,1,0,0:0:0:0:
256,192,181056,1,8,0:0:0:0:
256,192,181229,1,0,0:0:0:0:
256,192,181401,1,8,0:0:0:0:
256,192,181487,1,0,0:0:0:0:
256,192,181574,1,8,0:0:0:0:
256,192,181746,1,8,0:0:0:0:
256,192,181832,1,0,0:0:0:0:
256,192,181918,1,8,0:0:0:0:
256,192,182005,1,8,0:0:0:0:
256,192,182091,1,0,0:0:0:0:
256,192,182263,1,0,0:0:0:0:
256,192,182349,1,0,0:0:0:0:
256,192,182436,1,8,0:0:0:0:
256,192,182608,1,8,0:0:0:0:
256,192,182781,1,0,0:0:0:0:
256,192,182953,1,8,0:0:0:0:
256,192,183039,1,0,0:0:0:0:
256,192,183125,1,8,0:0:0:0:
256,192,183212,1,8,0:0:0:0:
256,192,183298,1,0,0:0:0:0:
256,192,183384,1,8,0:0:0:0:
256,192,183470,1,0,0:0:0:0:
256,192,183643,1,0,0:0:0:0:
256,192,183729,1,0,0:0:0:0:
256,192,183815,1,8,0:0:0:0:
256,192,183987,1,0,0:0:0:0:
256,192,184160,1,8,0:0:0:0:
256,192,184246,1,8,0:0:0:0:
256,192,184332,1,0,0:0:0:0:
256,192,184418,1,0,0:0:0:0:
256,192,184505,1,8,0:0:0:0:
256,192,184591,1,0,0:0:0:0:
256,192,184677,1,0,0:0:0:0:
256,192,184763,1,8,0:0:0:0:
256,192,184849,1,0,0:0:0:0:
256,192,185022,1,0,0:0:0:0:
256,192,185108,1,0,0:0:0:0:
256,192,185194,1,8,0:0:0:0:
256,192,185367,1,8,0:0:0:0:
256,192,185539,1,0,0:0:0:0:
256,192,185712,1,8,0:0:0:0:
256,192,185884,1,8,0:0:0:0:
256,192,185970,1,8,0:0:0:0:
256,192,186056,1,0,0:0:0:0:
256,192,186143,1,8,0:0:0:0:
256,192,186229,1,0,0:0:0:0:
256,192,186401,1,8,0:0:0:0:
256,192,186487,1,0,0:0:0:0:
256,192,186574,1,8,0:0:0:0:
256,192,186746,1,0,0:0:0:0:
256,192,186918,1,8,0:0:0:0:
256,192,187005,1,0,0:0:0:0:
256,192,187091,1,8,0:0:0:0:
256,192,187263,1,8,0:0:0:0:
256,192,187349,1,0,0:0:0:0:
256,192,187436,1,8,0:0:0:0:
256,192,187522,1,8,0:0:0:0:
256,192,187608,1,0,0:0:0:0:
256,192,187781,1,8,0:0:0:0:
256,192,187867,1,8,0:0:0:0:
256,192,187953,1,0,0:0:0:0:
256,192,188125,1,8,0:0:0:0:
256,192,188298,1,0,0:0:0:0:
256,192,188470,1,8,0:0:0:0:
256,192,188556,1,0,0:0:0:0:
256,192,188643,1,8,0:0:0:0:
256,192,188729,1,8,0:0:0:0:
256,192,188815,1,8,0:0:0:0:
256,192,188901,1,0,0:0:0:0:
256,192,188987,1,8,0:0:0:0:
256,192,189074,1,0,0:0:0:0:
256,192,189160,1,0,0:0:0:0:
256,192,189246,1,0,0:0:0:0:
256,192,189332,1,8,0:0:0:0:
256,192,189505,1,8,0:0:0:0:
256,192,189591,1,8,0:0:0:0:
256,192,189677,1,0,0:0:0:0:
256,192,189849,1,0,0:0:0:0:
256,192,190022,1,8,0:0:0:0:
256,192,190367,1,4,0:0:0:0:
256,192,190539,1,8,0:0:0:0:
256,192,190712,1,0,0:0:0:0:
256,192,190884,1,8,0:0:0:0:
256,192,191056,1,0,0:0:0:0:
256,192,191229,1,8,0:0:0:0:
256,192,191401,1,8,0:0:0:0:
256,192,191487,1,8,0:0:0:0:
256,192,191574,1,0,0:0:0:0:
256,192,191746,1,0,0:0:0:0:
256,192,191918,1,8,0:0:0:0:
256,192,192005,1,0,0:0:0:0:
256,192,192091,1,8,0:0:0:0:
256,192,192263,1,0,0:0:0:0:
256,192,192436,1,8,0:0:0:0:
256,192,192522,1,0,0:0:0:0:
256,192,192608,1,8,0:0:0:0:
256,192,192781,1,8,0:0:0:0:
256,192,192867,1,8,0:0:0:0:
256,192,192953,1,8,0:0:0:0:
256,192,193125,1,0,0:0:0:0:
256,192,193298,1,8,0:0:0:0:
256,192,193470,1,0,0:0:0:0:
256,192,193643,1,8,0:0:0:0:
256,192,193815,1,0,0:0:0:0:
256,192,193987,1,8,0:0:0:0:
256,192,194160,1,8,0:0:0:0:
256,192,194246,1,8,0:0:0:0:
256,192,194332,1,0,0:0:0:0:
256,192,194505,1,0,0:0:0:0:
256,192,194849,1,8,0:0:0:0:
256,192,195022,1,0,0:0:0:0:
256,192,195194,1,8,0:0:0:0:
256,192,195367,1,8,0:0:0:0:
256,192,195424,1,0,0:0:0:0:
256,192,195482,1,0,0:0:0:0:
256,192,195539,1,8,0:0:0:0:
256,192,195712,1,8,0:0:0:0:
256,192,195798,1,8,0:0:0:0:
256,192,195884,1,0,0:0:0:0:
256,192,196056,1,8,0:0:0:0:
256,192,196229,1,0,0:0:0:0:
256,192,196401,1,8,0:0:0:0:
256,192,196574,1,0,0:0:0:0:
256,192,196746,1,8,0:0:0:0:
256,192,196918,1,8,0:0:0:0:
256,192,197005,1,8,0:0:0:0:
256,192,197091,1,0,0:0:0:0:
256,192,197263,1,0,0:0:0:0:
256,192,197436,1,8,0:0:0:0:
256,192,197522,1,0,0:0:0:0:
256,192,197608,1,8,0:0:0:0:
256,192,197781,1,0,0:0:0:0:
256,192,197953,1,8,0:0:0:0:
256,192,198039,1,0,0:0:0:0:
256,192,198125,1,8,0:0:0:0:
256,192,198298,1,8,0:0:0:0:
256,192,198384,1,8,0:0:0:0:
256,192,198470,1,8,0:0:0:0:
256,192,198643,1,4,0:0:0:0:
256,192,198987,1,8,0:0:0:0:
256,192,199160,1,4,0:0:0:0:
256,192,199505,1,4,0:0:0:0:
256,192,199849,1,12,0:0:0:0:
