osu file format v14

[General]
AudioFilename: rabbit.mp3
AudioLeadIn: 0
PreviewTime: 67263
Countdown: 0
SampleSet: Normal
StackLeniency: 0.7
Mode: 1
LetterboxInBreaks: 0
WidescreenStoryboard: 0

[Editor]
Bookmarks: 57953,68987,113125,179332
DistanceSpacing: 1.4
BeatDivisor: 2
GridSize: 32
TimelineZoom: 0.8999997

[Metadata]
Title:Wakusei Rabbit (feat. TORIENA)
TitleUnicode:惑星ラビット (feat. TORIENA)
Artist:Yunomi
ArtistUnicode:Yunomi
Creator:Franklin_DeJavu
Version:Ron's Kantan
Source:
Tags:planet rabbit fdjv yuzu__rinrin yzrin [R] Ron's
BeatmapID:1360389
BeatmapSetID:639535

[Difficulty]
HPDrainRate:7
CircleSize:5
OverallDifficulty:3
ApproachRate:5
SliderMultiplier:1.4
SliderTickRate:1

[Events]
//Background and Video events
0,0,"LB.jpg",0,30
//Break Periods
//Storyboard Layer 0 (Background)
//Storyboard Layer 1 (Fail)
//Storyboard Layer 2 (Pass)
//Storyboard Layer 3 (Foreground)
//Storyboard Sound Samples

[TimingPoints]
2781,344.827586206897,4,1,0,70,1,0
13815,-100,4,1,0,70,0,0
24849,-100,4,1,0,70,0,0
46918,-100,4,1,0,60,0,0
68987,-100,4,1,0,70,0,1
91056,-100,4,1,0,70,0,0
124160,-100,4,1,0,70,0,1
133815,-100,4,1,0,70,0,0
135194,-100,4,1,0,70,0,1
146229,-100,4,1,0,60,0,0
157263,-100,4,1,0,70,0,0
168298,-100,4,1,0,70,0,1
190367,-100,4,1,0,70,0,0

[HitObjects]
384,96,2781,5,8,0:0:0:0:
128,96,4160,1,0,0:0:0:0:
384,96,4849,1,0,0:0:0:0:
384,96,5539,1,8,0:0:0:0:
128,96,6918,1,0,0:0:0:0:
384,96,8298,1,8,0:0:0:0:
128,96,9677,1,8,0:0:0:0:
128,96,10367,1,8,0:0:0:0:
128,288,11057,1,4,0:0:0:0:
128,288,11746,1,4,0:0:0:0:
128,288,12264,1,4,0:0:0:0:
128,288,13815,1,4,0:0:0:0:
384,96,14849,1,8,0:0:0:0:
384,96,15539,1,8,0:0:0:0:
128,96,16229,1,8,0:0:0:0:
384,96,16574,1,0,0:0:0:0:
384,96,17608,1,8,0:0:0:0:
128,288,17953,1,0,0:0:0:0:
128,96,19332,1,4,0:0:0:0:
128,96,20367,1,8,0:0:0:0:
128,96,21056,1,8,0:0:0:0:
384,96,21746,1,8,0:0:0:0:
128,96,22091,1,0,0:0:0:0:
384,96,23125,1,8,0:0:0:0:
128,96,23470,1,0,0:0:0:0:
128,96,24849,1,0,0:0:0:0:
384,96,25539,1,8,0:0:0:0:
128,96,26229,1,0,0:0:0:0:
128,96,26919,1,8,0:0:0:0:
384,96,27264,1,8,0:0:0:0:
128,96,27608,1,0,0:0:0:0:
128,96,28988,1,8,0:0:0:0:
128,96,30367,1,0,0:0:0:0:
128,96,31056,1,8,0:0:0:0:
384,96,31746,1,0,0:0:0:0:
384,96,32436,1,0,0:0:0:0:
128,96,32781,1,0,0:0:0:0:
128,96,33125,1,8,0:0:0:0:
128,96,34505,1,0,0:0:0:0:
128,96,35884,1,0,0:0:0:0:
384,96,36574,1,8,0:0:0:0:
128,96,37264,1,0,0:0:0:0:
128,96,37954,1,0,0:0:0:0:
128,96,38298,1,8,0:0:0:0:
128,96,38643,1,0,0:0:0:0:
128,96,40022,1,8,0:0:0:0:
128,96,41402,1,0,0:0:0:0:
128,96,42091,1,8,0:0:0:0:
384,96,42781,1,0,0:0:0:0:
384,96,43471,1,8,0:0:0:0:
128,96,43815,1,0,0:0:0:0:
128,96,44161,1,8,0:0:0:0:
128,96,45540,1,0,0:0:0:0:
128,96,46919,1,0,0:0:0:0:
384,96,48298,1,8,0:0:0:0:
384,96,49677,1,0,0:0:0:0:
128,96,50022,1,0,0:0:0:0:
384,96,50367,1,0,0:0:0:0:
384,96,51056,1,0,0:0:0:0:
128,96,52436,1,8,0:0:0:0:
128,96,53815,1,0,0:0:0:0:
128,96,55195,1,8,0:0:0:0:
128,96,55539,1,8,0:0:0:0:
128,96,55884,1,8,0:0:0:0:
128,96,56574,1,8,0:0:0:0:
128,96,57953,1,0,0:0:0:0:
128,96,59332,1,8,0:0:0:0:
128,96,60712,1,0,0:0:0:0:
128,96,61401,1,8,0:0:0:0:
128,96,62091,1,0,0:0:0:0:
128,96,62436,1,0,0:0:0:0:
128,96,62781,1,8,0:0:0:0:
128,96,63470,1,0,0:0:0:0:
128,96,64849,1,8,0:0:0:0:
128,96,66229,1,0,0:0:0:0:
128,96,66918,1,0,0:0:0:0:
128,96,67436,1,8,0:0:0:0:
128,288,68987,1,4,0:0:0:0:
384,96,70021,1,8,0:0:0:0:
384,96,70711,1,8,0:0:0:0:
128,96,71401,1,8,0:0:0:0:
384,96,71746,1,0,0:0:0:0:
128,96,72436,1,0,0:0:0:0:
128,96,72781,1,8,0:0:0:0:
128,288,73125,1,0,0:0:0:0:
128,96,74160,1,8,0:0:0:0:
128,96,74504,1,4,0:0:0:0:
128,96,75539,1,8,0:0:0:0:
128,96,76228,1,8,0:0:0:0:
384,96,76918,1,8,0:0:0:0:
128,96,77263,1,0,0:0:0:0:
128,96,77953,1,0,0:0:0:0:
384,96,78298,1,8,0:0:0:0:
128,96,78642,1,0,0:0:0:0:
128,96,79677,1,8,0:0:0:0:
128,96,80021,1,4,0:0:0:0:
128,96,81056,1,8,0:0:0:0:
128,96,81401,1,0,0:0:0:0:
128,96,82436,1,8,0:0:0:0:
128,96,82781,1,0,0:0:0:0:
128,96,83470,1,8,0:0:0:0:
128,96,84160,1,0,0:0:0:0:
128,96,85194,1,8,0:0:0:0:
128,96,85539,1,4,0:0:0:0:
128,96,86574,1,8,0:0:0:0:
128,96,86918,1,0,0:0:0:0:
128,96,87953,1,8,0:0:0:0:
128,96,88298,1,0,0:0:0:0:
128,96,88987,1,8,0:0:0:0:
128,96,89677,1,0,0:0:0:0:
128,96,91056,1,0,0:0:0:0:
384,96,91746,1,8,0:0:0:0:
128,96,92436,1,0,0:0:0:0:
128,96,93126,1,8,0:0:0:0:
384,96,93471,1,0,0:0:0:0:
128,96,93815,1,8,0:0:0:0:
128,96,94505,1,0,0:0:0:0:
384,96,95195,1,8,0:0:0:0:
128,96,96574,1,0,0:0:0:0:
128,96,97263,1,8,0:0:0:0:
384,96,97953,1,0,0:0:0:0:
384,96,98643,1,0,0:0:0:0:
128,96,98987,1,8,0:0:0:0:
128,96,99332,1,0,0:0:0:0:
128,96,100022,1,8,0:0:0:0:
128,96,100712,1,0,0:0:0:0:
128,96,102091,1,0,0:0:0:0:
384,96,103470,1,8,0:0:0:0:
384,96,104849,1,0,0:0:0:0:
128,96,105194,1,0,0:0:0:0:
384,96,105539,1,0,0:0:0:0:
384,96,106228,1,0,0:0:0:0:
128,96,106918,1,0,0:0:0:0:
128,96,107608,1,8,0:0:0:0:
128,96,108987,1,0,0:0:0:0:
128,96,110367,1,8,0:0:0:0:
128,96,110712,1,8,0:0:0:0:
128,96,111056,1,8,0:0:0:0:
128,96,111746,1,8,0:0:0:0:
128,96,112436,1,8,0:0:0:0:
128,96,113125,1,0,0:0:0:0:
128,96,114504,1,8,0:0:0:0:
128,96,115884,1,0,0:0:0:0:
128,96,116573,1,8,0:0:0:0:
128,96,117263,1,0,0:0:0:0:
128,96,117608,1,0,0:0:0:0:
128,96,117953,1,8,0:0:0:0:
128,96,118642,1,0,0:0:0:0:
128,96,120021,1,8,0:0:0:0:
128,96,121401,1,0,0:0:0:0:
128,96,121746,1,0,0:0:0:0:
128,96,122090,1,8,0:0:0:0:
128,96,122436,1,8,0:0:0:0:
128,288,124160,1,4,0:0:0:0:
384,96,124849,1,8,0:0:0:0:
128,96,125884,1,0,0:0:0:0:
384,96,126229,1,8,0:0:0:0:
128,96,126574,1,0,0:0:0:0:
128,288,126918,1,0,0:0:0:0:
384,96,127608,1,8,0:0:0:0:
128,96,128643,1,0,0:0:0:0:
384,96,128987,1,8,0:0:0:0:
128,96,129332,1,8,0:0:0:0:
128,96,129677,1,4,0:0:0:0:
384,96,130367,1,8,0:0:0:0:
128,96,131401,1,0,0:0:0:0:
384,96,131746,1,8,0:0:0:0:
128,96,132091,1,0,0:0:0:0:
128,288,132436,1,0,0:0:0:0:
384,96,133125,1,8,0:0:0:0:
128,96,133815,1,0,0:0:0:0:
384,288,135194,1,12,0:0:0:0:
384,96,135884,1,8,0:0:0:0:
128,96,136574,1,0,0:0:0:0:
128,96,136918,1,0,0:0:0:0:
128,96,137263,1,0,0:0:0:0:
384,96,137953,1,8,0:0:0:0:
384,96,138643,1,8,0:0:0:0:
128,96,138987,1,8,0:0:0:0:
128,96,139332,1,0,0:0:0:0:
384,288,140712,1,12,0:0:0:0:
384,96,141401,1,8,0:0:0:0:
128,96,142091,1,0,0:0:0:0:
128,96,142436,1,8,0:0:0:0:
128,96,142781,1,0,0:0:0:0:
384,96,143470,1,8,0:0:0:0:
128,96,144160,1,0,0:0:0:0:
128,96,144505,1,0,0:0:0:0:
128,96,144849,1,8,0:0:0:0:
128,96,146229,1,0,0:0:0:0:
384,96,147608,1,8,0:0:0:0:
384,96,148987,1,0,0:0:0:0:
384,96,149677,1,0,0:0:0:0:
384,96,150367,1,8,0:0:0:0:
384,96,151746,1,8,0:0:0:0:
384,96,153125,1,0,0:0:0:0:
384,96,154505,1,8,0:0:0:0:
384,96,155194,1,8,0:0:0:0:
384,96,155884,1,0,0:0:0:0:
384,96,157263,1,8,0:0:0:0:
128,96,157608,1,8,0:0:0:0:
384,96,157953,1,8,0:0:0:0:
384,96,158643,1,0,0:0:0:0:
384,96,158987,1,0,0:0:0:0:
384,96,159332,1,0,0:0:0:0:
384,96,160022,1,8,0:0:0:0:
128,96,160367,1,8,0:0:0:0:
128,96,160712,1,0,0:0:0:0:
384,96,161401,1,0,0:0:0:0:
128,96,161746,1,0,0:0:0:0:
128,96,162091,1,8,0:0:0:0:
128,96,162781,1,0,0:0:0:0:
384,96,163470,1,8,0:0:0:0:
256,192,164160,8,0,165539,0:0:0:0:
128,288,168298,5,4,0:0:0:0:
384,96,169332,1,8,0:0:0:0:
384,96,170022,1,8,0:0:0:0:
128,96,170712,1,8,0:0:0:0:
384,96,171057,1,0,0:0:0:0:
384,96,171401,1,8,0:0:0:0:
128,96,172091,1,8,0:0:0:0:
128,288,172436,1,0,0:0:0:0:
128,96,173815,1,4,0:0:0:0:
128,96,174850,1,8,0:0:0:0:
128,96,175539,1,8,0:0:0:0:
384,96,176229,1,8,0:0:0:0:
128,96,176574,1,0,0:0:0:0:
384,96,176918,1,8,0:0:0:0:
384,96,177608,1,8,0:0:0:0:
128,96,177953,1,0,0:0:0:0:
128,96,178988,1,8,0:0:0:0:
128,96,179332,1,4,0:0:0:0:
128,96,180367,1,8,0:0:0:0:
128,96,180712,1,0,0:0:0:0:
128,96,181747,1,8,0:0:0:0:
128,96,182092,1,0,0:0:0:0:
128,96,182781,1,8,0:0:0:0:
128,96,183471,1,0,0:0:0:0:
128,96,184505,1,8,0:0:0:0:
128,96,184850,1,4,0:0:0:0:
128,96,185885,1,8,0:0:0:0:
128,96,186229,1,0,0:0:0:0:
128,96,187264,1,8,0:0:0:0:
128,96,187609,1,0,0:0:0:0:
128,96,188298,1,8,0:0:0:0:
128,96,188987,1,0,0:0:0:0:
384,96,190367,1,12,0:0:0:0:
128,96,191746,1,0,0:0:0:0:
384,96,192435,1,0,0:0:0:0:
384,96,193125,1,8,0:0:0:0:
128,96,194504,1,0,0:0:0:0:
384,96,195884,1,8,0:0:0:0:
128,96,197263,1,8,0:0:0:0:
128,96,197953,1,8,0:0:0:0:
128,288,198643,1,4,0:0:0:0:
128,288,199160,1,4,0:0:0:0:
128,288,199850,1,4,0:0:0:0:
