osu file format v14

[General]
AudioFilename: rabbit.mp3
AudioLeadIn: 0
PreviewTime: 67263
Countdown: 0
SampleSet: Normal
StackLeniency: 0.7
Mode: 1
LetterboxInBreaks: 0
WidescreenStoryboard: 0

[Editor]
Bookmarks: 113598,179633
DistanceSpacing: 1.4
BeatDivisor: 4
GridSize: 32
TimelineZoom: 1.3

[Metadata]
Title:Wakusei Rabbit (feat. TORIENA)
TitleUnicode:惑星ラビット (feat. TORIENA)
Artist:Yunomi
ArtistUnicode:Yunomi
Creator:Franklin_DeJavu
Version:Muzukashii
Source:
Tags:planet rabbit fdjv yuzu__rinrin yzrin [R] Ron's
BeatmapID:1356868
BeatmapSetID:639535

[Difficulty]
HPDrainRate:6
CircleSize:5
OverallDifficulty:4
ApproachRate:9
SliderMultiplier:1.4
SliderTickRate:1

[Events]
//Background and Video events
0,0,"LB.jpg",0,30
//Break Periods
//Storyboard Layer 0 (Background)
//Storyboard Layer 1 (Fail)
//Storyboard Layer 2 (Pass)
//Storyboard Layer 3 (Foreground)
//Storyboard Sound Samples

[TimingPoints]
2781,344.827586206897,4,1,0,70,1,0
13815,-100,4,1,0,70,0,0
24849,-100,4,1,0,70,0,0
46918,-100,4,1,0,60,0,0
68987,-100,4,1,0,70,0,1
91056,-100,4,1,0,70,0,0
124160,-100,4,1,0,70,0,1
133815,-100,4,1,0,70,0,0
135194,-100,4,1,0,70,0,1
146229,-100,4,1,0,60,0,0
157263,-100,4,1,0,70,0,0
168298,-100,4,1,0,70,0,1
190367,-100,4,1,0,70,0,0

[HitObjects]
384,96,2781,5,8,0:0:0:0:
128,96,3125,1,0,0:0:0:0:
384,96,3470,1,8,0:0:0:0:
384,96,3815,1,8,0:0:0:0:
128,96,3987,1,0,0:0:0:0:
384,96,4332,1,8,0:0:0:0:
384,96,4505,1,8,0:0:0:0:
128,96,4849,1,0,0:0:0:0:
128,96,5022,1,0,0:0:0:0:
384,96,5194,1,8,0:0:0:0:
384,96,5539,1,8,0:0:0:0:
384,96,5884,1,8,0:0:0:0:
128,96,6229,1,0,0:0:0:0:
384,96,6574,1,8,0:0:0:0:
128,96,6746,1,0,0:0:0:0:
128,96,7953,1,0,0:0:0:0:
384,96,8298,1,8,0:0:0:0:
384,96,8470,1,8,0:0:0:0:
128,96,8643,1,0,0:0:0:0:
128,96,8987,1,0,0:0:0:0:
384,96,9332,1,8,0:0:0:0:
128,96,9505,1,0,0:0:0:0:
384,96,9849,1,8,0:0:0:0:
384,96,10022,1,8,0:0:0:0:
128,96,10367,1,0,0:0:0:0:
128,96,10539,1,0,0:0:0:0:
384,96,10712,1,8,0:0:0:0:
128,288,11056,1,4,0:0:0:0:
128,288,11401,1,4,0:0:0:0:
128,288,11746,1,4,0:0:0:0:
128,288,12091,1,4,0:0:0:0:
128,288,12263,1,4,0:0:0:0:
384,96,13470,1,8,0:0:0:0:
128,288,13815,1,4,0:0:0:0:
128,96,13987,1,0,0:0:0:0:
384,96,14160,1,8,0:0:0:0:
384,96,14505,1,8,0:0:0:0:
384,96,14849,1,8,0:0:0:0:
128,96,15022,1,0,0:0:0:0:
384,96,15367,1,8,0:0:0:0:
384,96,15539,1,8,0:0:0:0:
128,96,15884,1,0,0:0:0:0:
128,96,16056,1,0,0:0:0:0:
384,96,16229,1,8,0:0:0:0:
384,96,16315,1,8,0:0:0:0:
384,96,16401,1,8,0:0:0:0:
128,96,16574,1,0,0:0:0:0:
128,96,16918,1,0,0:0:0:0:
384,96,17091,1,8,0:0:0:0:
128,96,17263,1,0,0:0:0:0:
384,96,17608,1,8,0:0:0:0:
128,96,17953,1,0,0:0:0:0:
384,96,18298,1,8,0:0:0:0:
128,96,18815,1,0,0:0:0:0:
384,96,18987,1,8,0:0:0:0:
128,96,19332,1,0,0:0:0:0:
384,96,19505,1,8,0:0:0:0:
384,96,19677,1,8,0:0:0:0:
384,96,20022,1,8,0:0:0:0:
384,96,20367,1,8,0:0:0:0:
128,96,20539,1,0,0:0:0:0:
384,96,20884,1,8,0:0:0:0:
384,96,21056,1,8,0:0:0:0:
384,96,21401,1,8,0:0:0:0:
128,96,21574,1,0,0:0:0:0:
384,96,21746,1,8,0:0:0:0:
384,96,21832,1,8,0:0:0:0:
384,96,21918,1,8,0:0:0:0:
128,96,22091,1,0,0:0:0:0:
384,96,22436,1,8,0:0:0:0:
384,96,22781,1,8,0:0:0:0:
128,96,22953,1,0,0:0:0:0:
384,96,23125,1,8,0:0:0:0:
128,96,23470,1,0,0:0:0:0:
384,96,23729,1,8,0:0:0:0:
384,96,23987,1,8,0:0:0:0:
384,96,24074,1,8,0:0:0:0:
384,96,24160,1,8,0:0:0:0:
128,96,24332,1,0,0:0:0:0:
384,96,24505,1,8,0:0:0:0:
128,288,24849,1,4,0:0:0:0:
384,96,25539,1,8,0:0:0:0:
128,96,25884,1,0,0:0:0:0:
384,96,26056,1,8,0:0:0:0:
128,96,26229,1,0,0:0:0:0:
384,96,26574,1,8,0:0:0:0:
128,96,26918,1,0,0:0:0:0:
128,96,27091,1,0,0:0:0:0:
384,96,27263,1,8,0:0:0:0:
128,96,27608,1,0,0:0:0:0:
128,96,27953,1,0,0:0:0:0:
384,96,28125,1,8,0:0:0:0:
128,96,28470,1,0,0:0:0:0:
384,96,28643,1,8,0:0:0:0:
384,96,28815,1,8,0:0:0:0:
128,96,28987,1,0,0:0:0:0:
384,96,29332,1,8,0:0:0:0:
128,96,29505,1,0,0:0:0:0:
384,96,30022,1,8,0:0:0:0:
128,96,30367,1,0,0:0:0:0:
128,96,30712,1,0,0:0:0:0:
384,96,30884,1,8,0:0:0:0:
128,96,31056,1,0,0:0:0:0:
384,96,31401,1,8,0:0:0:0:
128,96,31746,1,0,0:0:0:0:
128,96,32091,1,0,0:0:0:0:
128,96,32263,1,0,0:0:0:0:
384,96,32436,1,8,0:0:0:0:
128,96,32781,1,0,0:0:0:0:
128,96,33125,1,0,0:0:0:0:
384,96,33298,1,8,0:0:0:0:
384,96,33470,1,8,0:0:0:0:
128,96,33643,1,0,0:0:0:0:
128,96,33987,1,0,0:0:0:0:
384,96,34160,1,8,0:0:0:0:
128,96,34332,1,0,0:0:0:0:
128,96,34418,1,0,0:0:0:0:
128,96,34505,1,0,0:0:0:0:
384,96,34849,1,8,0:0:0:0:
128,96,35022,1,0,0:0:0:0:
384,288,35539,1,12,0:0:0:0:
128,288,35884,1,4,0:0:0:0:
384,96,36229,1,8,0:0:0:0:
384,96,36401,1,8,0:0:0:0:
128,96,36574,1,0,0:0:0:0:
384,96,36918,1,8,0:0:0:0:
128,96,37091,1,0,0:0:0:0:
384,96,37436,1,8,0:0:0:0:
384,96,37608,1,8,0:0:0:0:
128,96,37953,1,0,0:0:0:0:
128,96,38125,1,0,0:0:0:0:
384,96,38298,1,8,0:0:0:0:
384,96,38384,1,8,0:0:0:0:
384,96,38470,1,8,0:0:0:0:
128,96,38643,1,0,0:0:0:0:
384,96,38987,1,8,0:0:0:0:
128,96,39505,1,0,0:0:0:0:
384,96,39677,1,8,0:0:0:0:
128,96,40022,1,0,0:0:0:0:
384,96,40367,1,8,0:0:0:0:
128,96,40539,1,0,0:0:0:0:
384,96,41056,1,8,0:0:0:0:
128,96,41401,1,0,0:0:0:0:
384,96,41746,1,8,0:0:0:0:
128,96,41918,1,0,0:0:0:0:
384,96,42091,1,8,0:0:0:0:
384,96,42436,1,8,0:0:0:0:
128,96,42608,1,0,0:0:0:0:
128,96,42953,1,0,0:0:0:0:
384,96,43125,1,8,0:0:0:0:
384,96,43470,1,8,0:0:0:0:
128,96,43643,1,0,0:0:0:0:
384,96,43815,1,8,0:0:0:0:
384,96,43901,1,8,0:0:0:0:
384,96,43987,1,8,0:0:0:0:
128,96,44160,1,0,0:0:0:0:
384,96,44505,1,8,0:0:0:0:
128,96,44677,1,0,0:0:0:0:
384,96,45022,1,8,0:0:0:0:
128,96,45367,1,0,0:0:0:0:
384,96,45539,1,8,0:0:0:0:
384,96,45884,1,8,0:0:0:0:
128,96,46056,1,0,0:0:0:0:
384,96,46574,1,8,0:0:0:0:
128,96,46918,1,0,0:0:0:0:
128,96,47436,1,0,0:0:0:0:
128,96,47781,1,0,0:0:0:0:
384,96,48298,1,8,0:0:0:0:
384,96,48815,1,8,0:0:0:0:
384,96,49160,1,8,0:0:0:0:
384,96,49505,1,8,0:0:0:0:
128,96,49677,1,0,0:0:0:0:
384,96,50194,1,8,0:0:0:0:
384,96,50539,1,8,0:0:0:0:
384,96,50884,1,8,0:0:0:0:
128,96,51056,1,0,0:0:0:0:
384,96,51574,1,8,0:0:0:0:
384,96,51918,1,8,0:0:0:0:
384,96,52263,1,8,0:0:0:0:
128,96,52436,1,0,0:0:0:0:
128,96,52953,1,0,0:0:0:0:
128,96,53298,1,0,0:0:0:0:
384,96,53643,1,8,0:0:0:0:
128,96,53815,1,0,0:0:0:0:
384,96,54332,1,8,0:0:0:0:
384,96,54677,1,8,0:0:0:0:
384,96,55022,1,8,0:0:0:0:
128,96,55194,1,0,0:0:0:0:
384,96,55712,1,8,0:0:0:0:
384,96,56056,1,8,0:0:0:0:
384,96,56401,1,8,0:0:0:0:
128,96,56574,1,0,0:0:0:0:
128,96,56918,1,0,0:0:0:0:
384,96,57091,1,8,0:0:0:0:
128,96,57436,1,0,0:0:0:0:
384,96,57953,1,8,0:0:0:0:
128,96,58298,1,0,0:0:0:0:
384,96,58470,1,8,0:0:0:0:
128,96,58643,1,0,0:0:0:0:
384,96,58987,1,8,0:0:0:0:
128,96,59160,1,0,0:0:0:0:
128,96,59505,1,0,0:0:0:0:
384,96,59677,1,8,0:0:0:0:
128,96,59849,1,0,0:0:0:0:
384,96,60022,1,8,0:0:0:0:
384,96,60367,1,8,0:0:0:0:
128,96,60539,1,0,0:0:0:0:
128,96,60625,1,0,0:0:0:0:
128,96,60712,1,0,0:0:0:0:
384,96,60884,1,8,0:0:0:0:
128,96,61056,1,0,0:0:0:0:
384,96,61401,1,8,0:0:0:0:
128,96,61574,1,0,0:0:0:0:
384,96,61918,1,8,0:0:0:0:
128,96,62263,1,0,0:0:0:0:
128,96,62436,1,0,0:0:0:0:
384,96,62608,1,8,0:0:0:0:
128,96,62781,1,0,0:0:0:0:
384,96,63125,1,8,0:0:0:0:
128,96,63298,1,0,0:0:0:0:
128,96,63384,1,0,0:0:0:0:
128,96,63470,1,0,0:0:0:0:
384,96,63815,1,8,0:0:0:0:
384,96,63987,1,8,0:0:0:0:
128,96,64160,1,0,0:0:0:0:
384,96,64505,1,8,0:0:0:0:
128,96,64677,1,0,0:0:0:0:
128,96,65022,1,0,0:0:0:0:
384,96,65194,1,8,0:0:0:0:
384,96,65367,1,8,0:0:0:0:
128,96,65539,1,0,0:0:0:0:
384,96,65884,1,8,0:0:0:0:
384,96,66229,1,8,0:0:0:0:
384,96,66574,1,8,0:0:0:0:
128,96,66746,1,0,0:0:0:0:
384,96,66918,1,8,0:0:0:0:
384,96,67091,1,8,0:0:0:0:
384,96,67177,1,8,0:0:0:0:
384,96,67263,1,8,0:0:0:0:
384,96,67436,1,8,0:0:0:0:
384,96,68643,1,8,0:0:0:0:
128,288,68987,1,4,0:0:0:0:
384,96,69332,1,8,0:0:0:0:
128,96,69677,1,0,0:0:0:0:
128,96,69849,1,0,0:0:0:0:
384,96,70022,1,8,0:0:0:0:
128,96,70194,1,0,0:0:0:0:
128,96,70539,1,0,0:0:0:0:
384,96,70712,1,8,0:0:0:0:
384,96,71056,1,8,0:0:0:0:
128,96,71229,1,0,0:0:0:0:
384,96,71401,1,8,0:0:0:0:
384,96,71487,1,8,0:0:0:0:
384,96,71574,1,8,0:0:0:0:
128,96,71746,1,0,0:0:0:0:
384,96,72091,1,8,0:0:0:0:
384,96,72436,1,8,0:0:0:0:
128,96,72608,1,0,0:0:0:0:
384,96,72781,1,8,0:0:0:0:
128,96,73125,1,0,0:0:0:0:
384,96,73470,1,8,0:0:0:0:
128,96,73987,1,0,0:0:0:0:
384,96,74160,1,8,0:0:0:0:
384,96,74246,1,8,0:0:0:0:
384,96,74332,1,8,0:0:0:0:
128,96,74505,1,0,0:0:0:0:
384,96,74849,1,8,0:0:0:0:
128,96,75194,1,0,0:0:0:0:
384,96,75367,1,8,0:0:0:0:
384,96,75539,1,8,0:0:0:0:
128,96,75712,1,0,0:0:0:0:
384,96,76056,1,8,0:0:0:0:
384,96,76229,1,8,0:0:0:0:
128,96,76574,1,0,0:0:0:0:
128,96,76746,1,0,0:0:0:0:
384,96,76918,1,8,0:0:0:0:
384,96,77005,1,8,0:0:0:0:
384,96,77091,1,8,0:0:0:0:
128,96,77263,1,0,0:0:0:0:
384,96,77608,1,8,0:0:0:0:
384,96,77781,1,0,0:0:0:0:
128,96,78125,1,0,0:0:0:0:
384,96,78298,1,8,0:0:0:0:
128,96,78643,1,0,0:0:0:0:
384,96,78901,1,8,0:0:0:0:
384,96,79160,1,8,0:0:0:0:
384,96,79246,1,8,0:0:0:0:
384,96,79332,1,8,0:0:0:0:
128,96,79505,1,0,0:0:0:0:
384,96,79677,1,8,0:0:0:0:
128,288,80022,1,4,0:0:0:0:
384,96,80367,1,8,0:0:0:0:
128,96,80884,1,0,0:0:0:0:
384,96,81056,1,8,0:0:0:0:
128,96,81401,1,0,0:0:0:0:
128,96,81574,1,0,0:0:0:0:
384,96,81746,1,8,0:0:0:0:
128,96,82263,1,0,0:0:0:0:
384,96,82436,1,8,0:0:0:0:
384,96,82608,1,8,0:0:0:0:
384,96,82953,1,8,0:0:0:0:
128,96,83125,1,0,0:0:0:0:
384,96,83298,1,8,0:0:0:0:
128,96,83643,1,0,0:0:0:0:
384,96,83987,1,8,0:0:0:0:
384,96,84332,1,8,0:0:0:0:
128,96,84505,1,0,0:0:0:0:
384,96,84677,1,8,0:0:0:0:
128,96,85022,1,0,0:0:0:0:
384,96,85194,1,8,0:0:0:0:
128,96,85539,1,0,0:0:0:0:
384,96,85884,1,8,0:0:0:0:
128,96,86401,1,0,0:0:0:0:
384,96,86574,1,8,0:0:0:0:
128,96,86918,1,0,0:0:0:0:
128,96,87091,1,0,0:0:0:0:
384,96,87263,1,8,0:0:0:0:
384,96,87953,1,8,0:0:0:0:
384,96,88298,1,8,0:0:0:0:
128,96,88470,1,0,0:0:0:0:
384,96,88643,1,8,0:0:0:0:
128,96,88815,1,0,0:0:0:0:
128,96,89160,1,0,0:0:0:0:
384,96,89332,1,8,0:0:0:0:
384,96,89677,1,8,0:0:0:0:
128,96,90022,1,0,0:0:0:0:
384,96,90194,1,8,0:0:0:0:
128,96,90712,1,0,0:0:0:0:
128,96,91056,1,0,0:0:0:0:
128,96,91746,1,0,0:0:0:0:
128,96,92436,1,0,0:0:0:0:
128,96,92781,1,0,0:0:0:0:
384,96,93125,1,8,0:0:0:0:
384,96,93470,1,8,0:0:0:0:
384,96,93815,1,8,0:0:0:0:
128,96,93987,1,0,0:0:0:0:
128,96,94332,1,0,0:0:0:0:
384,96,94849,1,8,0:0:0:0:
128,96,95194,1,0,0:0:0:0:
384,96,95539,1,8,0:0:0:0:
128,96,95712,1,0,0:0:0:0:
384,96,96056,1,8,0:0:0:0:
384,96,96143,1,8,0:0:0:0:
384,96,96229,1,8,0:0:0:0:
384,96,96401,1,8,0:0:0:0:
128,288,96574,1,4,0:0:0:0:
384,96,97263,1,8,0:0:0:0:
128,96,97608,1,0,0:0:0:0:
128,96,97781,1,0,0:0:0:0:
384,96,97953,1,8,0:0:0:0:
128,96,98298,1,0,0:0:0:0:
384,96,98643,1,8,0:0:0:0:
128,96,98815,1,0,0:0:0:0:
384,96,98987,1,8,0:0:0:0:
128,96,99332,1,0,0:0:0:0:
384,96,99677,1,8,0:0:0:0:
128,96,99849,1,0,0:0:0:0:
128,96,100194,1,0,0:0:0:0:
384,96,100367,1,8,0:0:0:0:
128,96,100712,1,0,0:0:0:0:
384,96,101056,1,8,0:0:0:0:
128,96,101574,1,0,0:0:0:0:
128,288,101746,1,4,0:0:0:0:
384,96,102091,1,8,0:0:0:0:
384,96,102436,1,8,0:0:0:0:
128,96,102608,1,0,0:0:0:0:
128,96,102694,1,0,0:0:0:0:
128,96,102781,1,0,0:0:0:0:
128,96,103125,1,0,0:0:0:0:
384,96,103298,1,8,0:0:0:0:
384,96,103470,1,8,0:0:0:0:
384,96,103815,1,8,0:0:0:0:
128,96,103987,1,0,0:0:0:0:
128,96,104160,1,0,0:0:0:0:
128,96,104246,1,0,0:0:0:0:
128,96,104332,1,0,0:0:0:0:
384,96,104505,1,8,0:0:0:0:
128,96,104849,1,0,0:0:0:0:
384,96,105194,1,8,0:0:0:0:
128,96,105712,1,0,0:0:0:0:
384,96,105884,1,8,0:0:0:0:
128,96,106056,1,0,0:0:0:0:
128,96,106143,1,0,0:0:0:0:
128,96,106229,1,0,0:0:0:0:
384,96,106574,1,8,0:0:0:0:
128,96,106746,1,0,0:0:0:0:
128,96,107091,1,0,0:0:0:0:
384,96,107263,1,8,0:0:0:0:
128,96,107608,1,0,0:0:0:0:
384,96,107953,1,8,0:0:0:0:
384,96,108470,1,8,0:0:0:0:
384,96,108643,1,8,0:0:0:0:
128,96,108815,1,0,0:0:0:0:
128,96,108987,1,0,0:0:0:0:
384,96,109332,1,8,0:0:0:0:
128,96,109505,1,0,0:0:0:0:
128,96,109677,1,0,0:0:0:0:
128,96,109763,1,0,0:0:0:0:
128,96,109849,1,0,0:0:0:0:
384,96,110022,1,8,0:0:0:0:
384,96,110367,1,8,0:0:0:0:
384,96,110539,1,8,0:0:0:0:
128,96,110712,1,0,0:0:0:0:
128,96,111056,1,0,0:0:0:0:
384,96,111401,1,8,0:0:0:0:
128,96,111574,1,0,0:0:0:0:
384,96,111918,1,8,0:0:0:0:
128,96,112091,1,0,0:0:0:0:
384,96,112263,1,8,0:0:0:0:
384,96,112436,1,8,0:0:0:0:
384,96,113125,1,8,0:0:0:0:
384,96,113470,1,8,0:0:0:0:
128,96,113815,1,0,0:0:0:0:
128,96,113987,1,0,0:0:0:0:
384,96,114160,1,8,0:0:0:0:
384,96,114505,1,8,0:0:0:0:
128,96,114849,1,0,0:0:0:0:
384,96,115194,1,8,0:0:0:0:
128,96,115884,1,0,0:0:0:0:
384,96,116229,1,8,0:0:0:0:
128,96,116574,1,0,0:0:0:0:
384,96,116746,1,8,0:0:0:0:
128,96,117091,1,0,0:0:0:0:
128,96,117436,1,0,0:0:0:0:
384,96,117608,1,8,0:0:0:0:
384,96,117781,1,8,0:0:0:0:
128,96,117953,1,0,0:0:0:0:
384,96,118643,1,8,0:0:0:0:
128,96,118815,1,0,0:0:0:0:
384,96,118987,1,8,0:0:0:0:
384,96,119332,1,8,0:0:0:0:
384,96,119677,1,8,0:0:0:0:
128,96,119849,1,0,0:0:0:0:
384,96,120194,1,8,0:0:0:0:
384,96,120367,1,8,0:0:0:0:
128,96,120539,1,0,0:0:0:0:
384,96,120712,1,8,0:0:0:0:
384,96,121056,1,8,0:0:0:0:
128,96,121229,1,0,0:0:0:0:
128,96,121315,1,0,0:0:0:0:
128,96,121401,1,0,0:0:0:0:
128,96,121746,1,0,0:0:0:0:
384,96,122091,1,8,0:0:0:0:
384,96,122436,1,8,0:0:0:0:
128,96,122608,1,0,0:0:0:0:
384,96,123815,1,8,0:0:0:0:
128,288,124160,1,4,0:0:0:0:
384,96,124505,1,8,0:0:0:0:
128,96,124677,1,0,0:0:0:0:
384,96,124849,1,8,0:0:0:0:
384,96,125194,1,8,0:0:0:0:
384,96,125539,1,8,0:0:0:0:
128,96,125884,1,0,0:0:0:0:
128,96,126056,1,0,0:0:0:0:
384,96,126229,1,8,0:0:0:0:
128,96,126574,1,0,0:0:0:0:
128,96,126660,1,0,0:0:0:0:
128,96,126746,1,0,0:0:0:0:
384,96,126918,1,8,0:0:0:0:
384,96,127263,1,8,0:0:0:0:
128,96,127436,1,0,0:0:0:0:
384,96,127608,1,8,0:0:0:0:
384,96,127953,1,8,0:0:0:0:
128,96,128125,1,0,0:0:0:0:
128,96,128470,1,0,0:0:0:0:
128,96,128643,1,0,0:0:0:0:
384,96,128815,1,8,0:0:0:0:
128,96,128987,1,0,0:0:0:0:
384,96,129332,1,8,0:0:0:0:
128,288,129677,1,4,0:0:0:0:
384,96,130022,1,8,0:0:0:0:
128,96,130194,1,0,0:0:0:0:
384,96,130367,1,8,0:0:0:0:
384,96,130712,1,8,0:0:0:0:
128,96,130884,1,0,0:0:0:0:
128,96,131229,1,0,0:0:0:0:
128,96,131401,1,0,0:0:0:0:
384,96,131574,1,8,0:0:0:0:
384,96,131746,1,8,0:0:0:0:
128,96,132091,1,0,0:0:0:0:
128,96,132177,1,0,0:0:0:0:
128,96,132263,1,0,0:0:0:0:
384,96,132436,1,8,0:0:0:0:
384,96,132781,1,8,0:0:0:0:
128,96,132953,1,0,0:0:0:0:
384,96,133125,1,8,0:0:0:0:
128,96,133470,1,0,0:0:0:0:
384,96,133643,1,8,0:0:0:0:
384,288,135194,1,12,0:0:0:0:
384,96,135539,1,8,0:0:0:0:
128,96,135712,1,0,0:0:0:0:
384,96,135884,1,8,0:0:0:0:
128,96,136229,1,0,0:0:0:0:
384,96,136401,1,8,0:0:0:0:
128,96,136574,1,0,0:0:0:0:
384,96,136918,1,8,0:0:0:0:
128,96,137091,1,0,0:0:0:0:
384,96,137263,1,8,0:0:0:0:
128,96,137608,1,0,0:0:0:0:
128,96,137694,1,0,0:0:0:0:
128,96,137781,1,0,0:0:0:0:
384,288,137953,1,12,0:0:0:0:
384,96,138298,1,8,0:0:0:0:
128,96,138470,1,0,0:0:0:0:
384,96,138643,1,8,0:0:0:0:
384,96,138987,1,8,0:0:0:0:
384,96,139160,1,8,0:0:0:0:
128,96,139332,1,0,0:0:0:0:
384,96,139677,1,8,0:0:0:0:
128,96,140022,1,0,0:0:0:0:
128,96,140108,1,0,0:0:0:0:
128,96,140194,1,0,0:0:0:0:
384,96,140367,1,8,0:0:0:0:
384,288,140712,1,12,0:0:0:0:
384,96,141056,1,8,0:0:0:0:
128,96,141229,1,0,0:0:0:0:
384,96,141401,1,8,0:0:0:0:
384,96,141746,1,8,0:0:0:0:
128,96,141918,1,0,0:0:0:0:
384,96,142263,1,8,0:0:0:0:
384,96,142436,1,8,0:0:0:0:
128,96,142608,1,0,0:0:0:0:
384,96,142781,1,8,0:0:0:0:
128,96,143125,1,0,0:0:0:0:
128,96,143212,1,0,0:0:0:0:
128,96,143298,1,0,0:0:0:0:
384,288,143470,1,12,0:0:0:0:
384,96,143815,1,8,0:0:0:0:
128,96,143987,1,0,0:0:0:0:
384,96,144160,1,8,0:0:0:0:
384,96,144505,1,8,0:0:0:0:
128,96,144849,1,0,0:0:0:0:
384,96,145884,1,8,0:0:0:0:
128,288,146229,1,4,0:0:0:0:
128,96,146574,1,0,0:0:0:0:
128,96,147091,1,0,0:0:0:0:
384,96,147436,1,8,0:0:0:0:
384,96,147953,1,8,0:0:0:0:
128,96,148470,1,0,0:0:0:0:
384,96,148643,1,8,0:0:0:0:
384,96,148815,1,8,0:0:0:0:
384,96,149160,1,8,0:0:0:0:
128,96,149505,1,0,0:0:0:0:
384,96,150022,1,8,0:0:0:0:
384,96,150194,1,8,0:0:0:0:
128,96,150539,1,0,0:0:0:0:
384,96,150884,1,8,0:0:0:0:
128,96,151229,1,0,0:0:0:0:
384,96,151401,1,8,0:0:0:0:
384,96,151746,1,8,0:0:0:0:
128,96,152091,1,0,0:0:0:0:
384,96,152608,1,8,0:0:0:0:
384,96,152781,1,8,0:0:0:0:
128,96,152953,1,0,0:0:0:0:
384,96,153470,1,8,0:0:0:0:
384,96,153815,1,8,0:0:0:0:
128,96,154160,1,0,0:0:0:0:
384,96,154505,1,8,0:0:0:0:
128,96,154677,1,0,0:0:0:0:
384,96,154849,1,8,0:0:0:0:
384,96,155022,1,8,0:0:0:0:
128,96,155367,1,0,0:0:0:0:
128,96,155539,1,0,0:0:0:0:
384,96,155712,1,8,0:0:0:0:
384,96,156056,1,8,0:0:0:0:
128,96,156401,1,0,0:0:0:0:
384,96,157263,1,8,0:0:0:0:
384,96,157608,1,8,0:0:0:0:
384,96,157953,1,8,0:0:0:0:
128,96,158125,1,0,0:0:0:0:
384,96,158298,1,8,0:0:0:0:
384,96,158643,1,8,0:0:0:0:
384,96,158987,1,8,0:0:0:0:
384,96,159332,1,8,0:0:0:0:
128,96,159505,1,0,0:0:0:0:
384,96,159849,1,8,0:0:0:0:
128,96,160022,1,0,0:0:0:0:
384,96,160194,1,8,0:0:0:0:
384,96,160281,1,8,0:0:0:0:
384,96,160367,1,8,0:0:0:0:
384,96,160712,1,8,0:0:0:0:
128,96,160884,1,0,0:0:0:0:
384,96,161056,1,8,0:0:0:0:
384,96,161401,1,8,0:0:0:0:
384,96,161574,1,8,0:0:0:0:
384,96,161660,1,8,0:0:0:0:
384,96,161746,1,8,0:0:0:0:
384,96,162091,1,8,0:0:0:0:
128,96,162263,1,0,0:0:0:0:
128,96,162436,1,0,0:0:0:0:
384,96,162781,1,8,0:0:0:0:
384,96,163039,1,8,0:0:0:0:
384,96,163298,1,8,0:0:0:0:
384,96,163470,1,8,0:0:0:0:
128,96,163643,1,0,0:0:0:0:
384,96,163815,1,8,0:0:0:0:
128,96,163987,1,0,0:0:0:0:
256,192,164160,12,0,165539,0:0:0:0:
384,96,167953,5,8,0:0:0:0:
128,288,168298,1,4,0:0:0:0:
384,96,168643,1,8,0:0:0:0:
384,96,168815,1,8,0:0:0:0:
128,96,168987,1,0,0:0:0:0:
384,96,169332,1,8,0:0:0:0:
128,96,169505,1,0,0:0:0:0:
128,96,169849,1,0,0:0:0:0:
384,96,170022,1,8,0:0:0:0:
384,96,170367,1,8,0:0:0:0:
128,96,170539,1,0,0:0:0:0:
384,96,170712,1,8,0:0:0:0:
384,96,170798,1,8,0:0:0:0:
384,96,170884,1,8,0:0:0:0:
128,96,171056,1,0,0:0:0:0:
128,96,171401,1,0,0:0:0:0:
384,96,171574,1,8,0:0:0:0:
384,96,171746,1,8,0:0:0:0:
128,96,171918,1,0,0:0:0:0:
384,96,172091,1,8,0:0:0:0:
384,96,172436,1,8,0:0:0:0:
128,96,172608,1,0,0:0:0:0:
384,96,172781,1,8,0:0:0:0:
384,96,172867,1,8,0:0:0:0:
384,96,172953,1,8,0:0:0:0:
384,96,173125,1,8,0:0:0:0:
384,96,173470,1,8,0:0:0:0:
128,96,173643,1,0,0:0:0:0:
384,96,173815,1,8,0:0:0:0:
384,96,174160,1,8,0:0:0:0:
384,96,174332,1,8,0:0:0:0:
128,96,174505,1,0,0:0:0:0:
384,96,174849,1,8,0:0:0:0:
128,96,175022,1,0,0:0:0:0:
384,96,175539,1,8,0:0:0:0:
384,96,175884,1,8,0:0:0:0:
128,96,176056,1,0,0:0:0:0:
384,96,176229,1,8,0:0:0:0:
384,96,176315,1,8,0:0:0:0:
384,96,176401,1,8,0:0:0:0:
128,96,176574,1,0,0:0:0:0:
128,96,176918,1,0,0:0:0:0:
384,96,177091,1,8,0:0:0:0:
128,96,177436,1,0,0:0:0:0:
384,96,177608,1,8,0:0:0:0:
128,96,177953,1,0,0:0:0:0:
384,96,178212,1,8,0:0:0:0:
384,96,178470,1,8,0:0:0:0:
384,96,178556,1,8,0:0:0:0:
384,96,178643,1,8,0:0:0:0:
128,96,178815,1,0,0:0:0:0:
384,96,178987,1,8,0:0:0:0:
128,288,179332,1,4,0:0:0:0:
384,96,179677,1,8,0:0:0:0:
128,96,180194,1,0,0:0:0:0:
384,96,180367,1,8,0:0:0:0:
128,96,180712,1,0,0:0:0:0:
128,96,180884,1,0,0:0:0:0:
384,96,181056,1,8,0:0:0:0:
128,96,181574,1,0,0:0:0:0:
384,96,181746,1,8,0:0:0:0:
384,96,181918,1,8,0:0:0:0:
384,96,182263,1,8,0:0:0:0:
384,96,182436,1,8,0:0:0:0:
128,96,182608,1,0,0:0:0:0:
128,96,182953,1,0,0:0:0:0:
128,96,183125,1,0,0:0:0:0:
384,96,183298,1,8,0:0:0:0:
384,96,183643,1,8,0:0:0:0:
384,96,183815,1,8,0:0:0:0:
128,96,183987,1,0,0:0:0:0:
128,96,184332,1,0,0:0:0:0:
384,96,184505,1,8,0:0:0:0:
128,96,184849,1,0,0:0:0:0:
384,96,185194,1,8,0:0:0:0:
128,96,185712,1,0,0:0:0:0:
384,96,185884,1,8,0:0:0:0:
128,96,186229,1,0,0:0:0:0:
128,96,186401,1,0,0:0:0:0:
384,96,186574,1,8,0:0:0:0:
384,96,187263,1,8,0:0:0:0:
384,96,187608,1,8,0:0:0:0:
128,96,187781,1,0,0:0:0:0:
384,96,187953,1,8,0:0:0:0:
128,96,188125,1,0,0:0:0:0:
128,96,188470,1,0,0:0:0:0:
384,96,188643,1,8,0:0:0:0:
384,96,188987,1,8,0:0:0:0:
384,96,189332,1,8,0:0:0:0:
128,96,189505,1,0,0:0:0:0:
384,96,190022,1,8,0:0:0:0:
128,96,190367,1,0,0:0:0:0:
384,96,190712,1,8,0:0:0:0:
128,96,191056,1,0,0:0:0:0:
384,96,191401,1,8,0:0:0:0:
128,96,191574,1,0,0:0:0:0:
384,96,192091,1,8,0:0:0:0:
128,96,192436,1,0,0:0:0:0:
128,96,192608,1,0,0:0:0:0:
384,96,192781,1,8,0:0:0:0:
128,96,193125,1,0,0:0:0:0:
128,96,193470,1,0,0:0:0:0:
384,96,193643,1,8,0:0:0:0:
128,96,193815,1,0,0:0:0:0:
384,96,194160,1,8,0:0:0:0:
128,96,194505,1,0,0:0:0:0:
384,96,194849,1,8,0:0:0:0:
128,96,195022,1,0,0:0:0:0:
128,96,195367,1,0,0:0:0:0:
384,96,195539,1,8,0:0:0:0:
384,96,195884,1,8,0:0:0:0:
384,96,196229,1,8,0:0:0:0:
128,96,196574,1,0,0:0:0:0:
128,96,196746,1,0,0:0:0:0:
384,96,196918,1,8,0:0:0:0:
128,96,197091,1,0,0:0:0:0:
384,96,197608,1,8,0:0:0:0:
128,96,197953,1,0,0:0:0:0:
128,96,198125,1,0,0:0:0:0:
384,96,198298,1,8,0:0:0:0:
384,96,198470,1,8,0:0:0:0:
128,288,198643,1,4,0:0:0:0:
384,96,198987,1,8,0:0:0:0:
128,288,199160,1,4,0:0:0:0:
384,96,199505,1,8,0:0:0:0:
384,96,199849,1,8,0:0:0:0:
