osu file format v14

[General]
AudioFilename: pyonrabbit.mp3
AudioLeadIn: 0
PreviewTime: 67714
Countdown: 0
SampleSet: Soft
StackLeniency: 0.2
Mode: 0
LetterboxInBreaks: 0
WidescreenStoryboard: 1

[Editor]
DistanceSpacing: 0.5
BeatDivisor: 4
GridSize: 32
TimelineZoom: 2.000001

[Metadata]
Title:Wakusei Rabbit (feat. TORIENA)
TitleUnicode:惑星ラビット (feat. TORIENA)
Artist:Yunomi
ArtistUnicode:Yunomi
Creator:Asphyxia
Version:Spinning Star
Source:
Tags:
BeatmapID:1081209
BeatmapSetID:508375

[Difficulty]
HPDrainRate:5
CircleSize:4.2
OverallDifficulty:8.5
ApproachRate:9.2
SliderMultiplier:2.02
SliderTickRate:1

[Events]
//Background and Video events
0,0,"pyonnn.jpg",0,0
//Break Periods
2,146556,156648
//Storyboard Layer 0 (Background)
//Storyboard Layer 1 (Fail)
//Storyboard Layer 2 (Pass)
//Storyboard Layer 3 (Foreground)
//Storyboard Sound Samples

[TimingPoints]
2908,344.827586206897,4,2,1,80,1,0
2908,-125,4,2,1,50,0,0
8425,-100,4,2,1,70,0,0
11183,-71.4285714285714,4,2,1,70,0,0
12563,-200,4,2,1,100,0,0
12735,-166.666666666667,4,2,1,100,0,0
12908,-142.857142857143,4,2,1,100,0,0
13080,-125,4,2,1,100,0,0
13252,-111.111111111111,4,2,1,100,0,0
13425,-100,4,2,1,100,0,0
13597,-50,4,2,1,70,0,0
13942,-83.3333333333333,4,2,1,70,0,0
18080,-71.4285714285714,4,2,1,70,0,0
18425,-100,4,2,1,70,0,0
18597,-62.5,4,2,1,70,0,0
18942,-83.3333333333333,4,2,1,70,0,0
24287,-100,4,2,1,70,0,0
33770,-83.3333333333333,4,2,1,70,0,0
34114,-71.4285714285714,4,2,1,70,0,0
34632,-100,4,2,1,70,0,0
45149,-101.010101010101,4,2,1,70,0,0
45666,-100,4,2,1,70,0,0
46701,-76.9230769230769,4,2,1,70,0,0
47045,-133.333333333333,4,2,1,70,0,0
58080,-100,4,2,1,70,0,0
68770,-71.4285714285714,4,2,1,70,0,0
69114,-83.3333333333333,4,2,1,70,0,1
73252,-71.4285714285714,4,2,1,70,0,1
73597,-100,4,2,1,70,0,1
73770,-62.5,4,2,1,70,0,1
74114,-83.3333333333333,4,2,1,70,0,1
78770,-71.4285714285714,4,2,1,70,0,1
80149,-83.3333333333333,4,2,1,70,0,1
91183,-117.647058823529,4,2,1,70,0,0
96701,-100,4,2,1,70,0,0
101873,-76.9230769230769,4,2,1,70,0,0
102218,-100,4,2,1,70,0,0
116183,-142.857142857143,4,2,1,70,0,0
116356,-100,4,2,1,70,0,0
116528,-142.857142857143,4,2,1,70,0,0
116701,-100,4,2,1,70,0,0
123942,-71.4285714285714,4,2,1,70,0,0
124287,-62.5,4,2,1,70,0,0
124976,-66.6666666666667,4,2,1,70,0,0
125666,-71.4285714285714,4,2,1,70,0,0
126356,-76.9230769230769,4,2,1,70,0,0
126701,-83.3333333333333,4,2,1,70,0,0
127045,-71.4285714285714,4,2,1,70,0,0
127735,-66.6666666666667,4,2,1,70,0,0
128425,-62.5,4,2,1,70,0,0
129114,-55.5555555555556,4,2,1,70,0,0
129459,-52.6315789473684,4,2,1,70,0,0
129804,-62.5,4,2,1,70,0,0
130494,-66.6666666666667,4,2,1,70,0,0
132218,-83.3333333333333,4,2,1,70,0,0
132563,-66.6666666666667,4,2,1,70,0,0
133252,-62.5,4,2,1,70,0,0
133942,-83.3333333333333,4,2,1,70,0,0
135321,-55.5555555555556,4,2,1,70,0,0
137735,-83.3333333333333,4,2,1,70,0,0
138080,-52.6315789473684,4,2,1,70,0,0
138770,-50,4,2,1,70,0,0
139459,-52.6315789473684,4,2,1,70,0,0
140149,-50,4,2,1,70,0,0
140494,-40,4,2,1,70,0,0
140839,-55.5555555555556,4,2,1,70,0,0
143252,-83.3333333333333,4,2,1,70,0,0
143597,-52.6315789473684,4,2,1,70,0,0
144287,-50,4,2,1,70,0,0
144976,-83.3333333333333,4,2,1,70,0,0
146356,-100,4,2,1,70,0,1
146442,-100,4,2,1,70,0,0
157390,-100,4,2,1,70,0,0
167045,-142.857142857143,4,2,1,70,0,0
168425,-83.3333333333333,4,2,1,70,0,1
178080,-71.4285714285714,4,2,1,70,0,1
190494,-100,4,2,1,70,0,0
198770,-71.4285714285714,4,2,1,70,0,0
199804,-100,4,2,1,70,0,0

[Colours]
Combo1 : 255,94,55
Combo2 : 173,255,95
Combo3 : 17,254,176
Combo4 : 255,88,100

[HitObjects]
107,151,2908,6,0,L|28:171,1,80.8
174,40,3252,2,0,L|194:118,1,80.8
177,213,3597,2,0,L|255:192,1,80.8
378,226,3942,1,0,0:0:0:0:
366,222,4028,1,0,0:0:0:0:
354,218,4114,1,0,0:0:0:0:
255,192,4287,5,0,0:0:0:0:
420,107,4459,1,0,0:0:0:0:
400,113,4545,1,0,0:0:0:0:
381,119,4631,1,0,0:0:0:0:
280,92,4804,5,0,0:0:0:0:
440,247,4976,1,0,0:0:0:0:
409,236,5063,1,0,0:0:0:0:
378,226,5148,1,0,0:0:0:0:
497,82,5321,5,0,0:0:0:0:
458,94,5408,1,0,0:0:0:0:
420,107,5493,1,0,0:0:0:0:
280,92,5666,5,0,0:0:0:0:
255,192,5839,1,0,0:0:0:0:
280,92,6011,1,0,0:0:0:0:
255,192,6183,1,0,0:0:0:0:
170,63,6356,5,0,0:0:0:0:
230,292,6528,1,0,0:0:0:0:
145,163,6701,1,0,0:0:0:0:
138,187,6787,1,0,0:0:0:0:
132,213,6873,1,0,0:0:0:0:
126,238,6959,1,0,0:0:0:0:
120,263,7045,5,0,0:0:0:0:
120,263,7390,1,0,0:0:0:0:
230,292,7563,1,0,0:0:0:0:
120,263,7735,1,0,0:0:0:0:
340,321,7908,2,0,L|335:346,2,20.2
346,296,8080,1,0,0:0:0:0:
352,271,8166,1,0,0:0:0:0:
358,245,8252,1,0,0:0:0:0:
365,221,8339,1,0,0:0:0:0:
372,197,8425,5,0,0:0:0:0:
394,78,8597,1,0,0:0:0:0:
387,58,8683,1,0,0:0:0:0:
380,38,8770,2,0,L|487:63,1,101
309,124,9028,1,0,0:0:0:0:
309,124,9114,2,0,L|249:111,1,50.5
213,3,9287,2,0,L|262:13,1,50.5
372,197,9459,2,0,L|358:245,3,50.5
309,124,9804,6,0,L|210:101,1,101
122,109,10063,1,0,0:0:0:0:
122,109,10149,2,0,L|72:119,1,50.5
55,50,10321,2,0,L|104:39,1,50.5
147,181,10494,5,0,0:0:0:0:
140,210,10580,1,0,0:0:0:0:
133,239,10666,1,0,0:0:0:0:
213,3,10839,5,0,0:0:0:0:
223,44,10925,1,0,0:0:0:0:
233,85,11011,1,0,0:0:0:0:
110,318,11183,6,0,B|183:328|211:260|211:260|293:298,1,212.099993527222
506,85,11528,2,0,B|452:61|406:101|406:101|363:138|308:123,1,212.099993527222
288,295,11873,2,0,B|417:353|417:353|381:288,1,212.099993527222
233,85,12218,2,0,P|219:121|228:155,1,70.6999978424073
474,219,12390,2,0,P|480:184|466:152,1,70.6999978424073
342,45,12563,6,0,L|301:29,1,25.25
342,45,12735,6,0,L|335:1,1,30.2999990753174
342,45,12908,6,0,L|376:17,1,35.3499989212036
342,45,13080,6,0,L|383:61,1,40.4
342,45,13252,6,0,L|348:89,1,45.4499986129761
342,45,13425,6,0,L|302:76,1,50.5
353,145,13597,6,0,L|342:45,1,101
341,44,13942,5,0,0:0:0:0:
434,240,14114,1,0,0:0:0:0:
244,134,14287,1,0,0:0:0:0:
456,108,14459,1,0,0:0:0:0:
301,253,14632,1,0,0:0:0:0:
341,44,14804,1,0,0:0:0:0:
434,240,14976,5,0,0:0:0:0:
451,272,15063,1,0,0:0:0:0:
468,304,15149,1,0,0:0:0:0:
485,336,15235,1,0,0:0:0:0:
502,368,15321,1,0,0:0:0:0:
490,44,15494,5,0,0:0:0:0:
473,76,15580,1,0,0:0:0:0:
456,108,15666,1,0,0:0:0:0:
439,140,15752,1,0,0:0:0:0:
422,172,15839,1,0,0:0:0:0:
301,253,16011,6,0,L|225:237,1,60.5999981506348
311,239,16183,2,0,L|370:251,1,60.5999981506348
278,161,16356,6,0,L|294:85,1,60.5999981506348
338,324,16528,2,0,L|325:383,1,60.5999981506348
156,219,16701,5,0,0:0:0:0:
54,185,16873,1,0,0:0:0:0:
152,56,17045,5,0,0:0:0:0:
54,79,17217,1,0,0:0:0:0:
218,132,17390,5,0,0:0:0:0:
54,185,17563,1,0,0:0:0:0:
336,128,17735,1,0,0:0:0:0:
290,110,17821,1,0,0:0:0:0:
244,92,17908,1,0,0:0:0:0:
198,74,17994,1,0,0:0:0:0:
152,56,18080,6,0,B|225:33|245:97|245:97|203:204,1,212.099993527222
259,236,18425,6,0,P|230:254|193:251,1,50.5
152,56,18597,6,0,B|216:12|216:12|300:43|300:43|321:123,1,242.4
357,259,18942,2,0,L|365:297,2,30.2999990753174
210,185,19114,6,0,P|239:167|276:170,1,60.5999981506348
412,338,19287,2,0,P|383:356|346:353,1,60.5999981506348
210,185,19459,5,0,0:0:0:0:
460,254,19632,1,0,0:0:0:0:
274,131,19804,5,0,0:0:0:0:
446,178,19977,1,0,0:0:0:0:
250,55,20149,5,0,0:0:0:0:
500,124,20322,1,0,0:0:0:0:
314,1,20494,5,0,0:0:0:0:
357,13,20580,1,0,2:0:0:0:
400,25,20666,1,0,2:0:0:0:
443,37,20752,1,0,2:0:0:0:
486,48,20839,5,0,2:0:0:0:
360,152,21011,1,0,0:0:0:0:
360,152,21097,1,0,0:0:0:0:
360,152,21183,1,0,0:0:0:0:
360,152,21270,1,0,0:0:0:0:
360,152,21356,1,0,0:0:0:0:
464,255,21528,6,0,L|523:228,1,60.5999981506348
230,208,21701,2,0,L|186:165,1,60.5999981506348
464,173,21873,6,0,L|499:123,1,60.5999981506348
258,130,22045,2,0,L|241:71,1,60.5999981506348
202,290,22218,5,0,0:0:0:0:
307,217,22390,1,0,0:0:0:0:
460,338,22563,5,0,0:0:0:0:
387,233,22735,1,0,0:0:0:0:
315,384,22908,5,0,0:0:0:0:
347,233,23080,1,0,0:0:0:0:
202,290,23252,5,0,0:0:0:0:
155,305,23339,1,0,0:0:0:0:
108,320,23425,1,0,0:0:0:0:
61,335,23511,1,0,0:0:0:0:
14,350,23597,6,0,L|56:226,1,121.19999630127
80,97,23856,1,0,0:0:0:0:
80,97,23942,2,0,L|53:20,1,60.5999981506348
188,131,24114,2,0,L|161:54,1,60.5999981506348
231,198,24287,6,0,P|257:171|263:147,1,50.5
336,153,24459,2,0,P|325:116|307:99,1,50.5
433,323,24632,6,0,P|407:296|401:272,1,50.5
328,278,24804,2,0,P|339:241|357:224,1,50.5
418,195,24976,5,0,0:0:0:0:
418,195,25321,2,0,L|529:175,1,101
353,366,25666,2,0,L|253:383,1,101
328,278,26011,1,0,0:0:0:0:
433,323,26183,1,0,0:0:0:0:
400,93,26356,6,0,P|329:65|249:161,1,202
336,153,26873,1,0,0:0:0:0:
104,274,27045,2,0,B|82:229|82:229|101:177,1,101
328,278,27390,1,0,0:0:0:0:
190,226,27563,1,0,0:0:0:0:
336,153,27735,5,0,0:0:0:0:
445,216,27908,1,0,0:0:0:0:
322,377,28080,1,0,0:0:0:0:
248,144,28252,6,0,P|307:69|400:93,1,202
328,278,28770,1,0,0:0:0:0:
151,357,28942,2,0,L|88:380,1,50.5
238,315,29114,5,0,0:0:0:0:
328,278,29287,1,0,0:0:0:0:
322,377,29459,1,0,0:0:0:0:
176,75,29632,2,0,B|141:144|141:144|180:221,1,151.5
174,210,29976,2,0,L|126:192,1,50.5
328,278,30149,5,0,0:0:0:0:
420,234,30321,1,0,0:0:0:0:
512,190,30494,5,0,0:0:0:0:
512,190,30839,2,0,L|541:93,1,101
290,74,31183,2,0,P|275:144|330:189,1,151.5
420,234,31528,2,0,L|439:169,1,50.5
452,103,31701,2,0,L|471:38,1,50.5
420,234,31873,6,0,P|476:278|461:349,1,151.5
367,371,32218,2,0,L|302:352,1,50.5
145,371,32390,2,0,L|210:352,1,50.5
345,248,32563,6,0,L|280:267,1,50.5
167,248,32735,2,0,L|232:267,1,50.5
337,132,32908,5,0,0:0:0:0:
175,132,33080,1,0,0:0:0:0:
371,47,33252,5,0,0:0:0:0:
141,47,33425,1,0,0:0:0:0:
385,146,33597,2,0,L|336:131,1,50.5
175,132,33770,2,0,L|373:70,1,181.799994451904
484,194,34114,6,0,L|280:132,1,212.099993527222
371,47,34459,2,0,L|438:26,1,70.6999978424073
484,194,34632,5,0,0:0:0:0:
399,248,34804,1,0,0:0:0:0:
403,262,34890,1,0,0:0:0:0:
407,276,34976,1,0,0:0:0:0:
231,269,35149,5,0,0:0:0:0:
316,323,35321,1,0,0:0:0:0:
312,337,35407,1,0,0:0:0:0:
308,351,35493,1,0,0:0:0:0:
142,230,35666,1,0,0:0:0:0:
142,230,35839,1,0,0:0:0:0:
281,132,36011,6,0,B|301:87|301:87|284:31,1,101
71,178,36356,2,0,B|51:223|51:223|68:279,1,101
379,238,36701,2,0,L|207:273,1,151.5
202,260,37045,1,0,0:0:0:0:
172,245,37132,1,0,0:0:0:0:
142,230,37218,1,0,0:0:0:0:
309,42,37390,5,0,0:0:0:0:
109,25,37563,1,0,0:0:0:0:
151,46,37649,1,0,0:0:0:0:
194,68,37736,1,0,0:0:0:0:
309,42,37908,1,0,0:0:0:0:
192,162,38080,5,0,0:0:0:0:
139,135,38166,1,0,0:0:0:0:
88,109,38252,1,0,0:0:0:0:
126,309,38425,5,0,0:0:0:0:
190,341,38511,1,0,0:0:0:0:
257,376,38597,1,0,0:0:0:0:
379,238,38770,5,0,0:0:0:0:
286,197,38942,1,0,0:0:0:0:
301,296,39114,1,0,0:0:0:0:
366,134,39287,2,0,B|386:88|386:88|368:33,1,101
286,197,39632,1,0,0:0:0:0:
459,175,39804,1,0,0:0:0:0:
469,173,39890,1,0,0:0:0:0:
479,171,39976,1,0,0:0:0:0:
489,169,40063,1,0,0:0:0:0:
499,167,40149,5,0,0:0:0:0:
265,96,40321,1,0,0:0:0:0:
286,197,40494,1,0,0:0:0:0:
366,134,40666,1,0,0:0:0:0:
366,134,40839,1,0,0:0:0:0:
180,169,41011,2,0,L|155:173,2,25.25
257,62,41183,1,0,0:0:0:0:
265,96,41269,1,0,0:0:0:0:
271,129,41355,1,0,0:0:0:0:
279,163,41442,1,0,0:0:0:0:
286,197,41528,5,0,0:0:0:0:
249,28,41701,1,0,0:0:0:0:
352,270,41873,2,0,L|236:290,1,101
441,333,42218,2,0,B|468:265|468:265|438:192,1,151.5
438,192,42563,5,0,0:0:0:0:
404,200,42649,1,0,0:0:0:0:
371,206,42735,1,0,0:0:0:0:
507,100,42908,5,0,0:0:0:0:
230,172,43080,1,0,0:0:0:0:
279,163,43166,1,0,0:0:0:0:
330,151,43252,1,0,0:0:0:0:
440,23,43425,1,0,0:0:0:0:
307,257,43597,5,0,0:0:0:0:
248,270,43683,1,0,0:0:0:0:
190,283,43769,1,0,0:0:0:0:
214,74,43942,5,0,0:0:0:0:
289,57,44028,1,0,0:0:0:0:
364,41,44114,1,0,0:0:0:0:
139,90,44287,5,0,0:0:0:0:
139,90,44459,1,0,0:0:0:0:
330,151,44632,1,0,0:0:0:0:
190,283,44804,1,0,0:0:0:0:
139,90,45149,6,0,L|193:294,1,199.979999389709
330,151,45666,5,0,0:0:0:0:
455,187,45838,1,0,0:0:0:0:
410,108,46011,1,0,0:0:0:0:
375,230,46183,1,0,0:0:0:0:
421,75,46356,5,0,0:0:0:0:
421,75,46442,1,0,0:0:0:0:
421,75,46528,1,0,0:0:0:0:
364,263,46701,6,0,L|423:68,1,196.949990984345
442,281,47045,6,0,B|356:262|383:321|297:304,1,151.500005779267
228,256,47563,2,0,L|208:183,1,75.7500028896333
228,25,47908,2,0,L|208:98,2,75.7500028896333
305,55,48425,6,0,P|362:66|441:9,1,151.500005779267
436,17,48942,1,0,0:0:0:0:
436,17,49114,1,0,0:0:0:0:
481,87,49287,1,0,0:0:0:0:
434,155,49459,1,0,0:0:0:0:
479,224,49632,1,0,0:0:0:0:
434,297,49804,6,0,L|414:370,2,75.7500028896333
479,224,50321,1,0,0:0:0:0:
434,297,50494,6,0,P|375:342|302:334,1,151.500005779267
107,320,51011,1,0,0:0:0:0:
107,320,51097,1,0,0:0:0:0:
107,320,51183,1,0,0:0:0:0:
160,255,51356,1,0,0:0:0:0:
78,239,51528,1,0,0:0:0:0:
132,175,51701,1,0,0:0:0:0:
107,320,51873,1,0,0:0:0:0:
132,175,52045,2,0,L|112:102,2,75.7500028896333
345,231,52563,6,0,P|314:190|216:199,1,151.500005779267
160,255,53080,1,0,0:0:0:0:
160,255,53425,1,0,0:0:0:0:
196,106,53597,1,0,0:0:0:0:
262,51,53770,1,0,0:0:0:0:
184,20,53942,5,0,0:0:0:0:
196,106,54114,1,0,0:0:0:0:
284,226,54287,5,0,0:0:0:0:
280,135,54459,1,0,0:0:0:0:
117,75,54632,5,0,0:0:0:0:
132,159,54804,1,0,0:0:0:0:
212,188,54976,1,0,0:0:0:0:
280,135,55149,1,0,0:0:0:0:
117,75,55321,6,0,L|22:54,1,75.7500028896333
280,135,55666,2,0,L|353:151,1,75.7500028896333
512,39,56011,2,0,P|440:24|388:75,1,151.500005779267
303,213,56528,6,0,P|375:228|427:177,1,151.500005779267
272,322,57045,2,0,L|266:340,6,18.9375007224083
297,231,57390,2,0,L|302:212,6,18.9375007224083
350,297,57735,6,0,L|368:302,2,18.9375007224083
213,252,57908,2,0,L|194:246,2,18.9375007224083
297,231,58080,6,0,L|326:118,1,101
316,118,58339,1,0,0:0:0:0:
308,104,58425,1,0,0:0:0:0:
350,297,58597,1,0,0:0:0:0:
453,20,58770,2,0,L|424:133,1,101
434,133,59029,1,0,0:0:0:0:
440,147,59115,1,0,0:0:0:0:
366,325,59287,1,0,0:0:0:0:
358,311,59373,1,0,0:0:0:0:
350,297,59459,5,0,0:0:0:0:
102,297,59632,1,0,0:0:0:0:
144,279,59718,1,0,0:0:0:0:
189,284,59804,1,0,0:0:0:0:
226,310,59890,1,0,0:0:0:0:
268,328,59977,1,0,0:0:0:0:
313,323,60063,1,0,0:0:0:0:
350,297,60149,2,0,L|363:249,3,50.5
294,152,60494,5,0,0:0:0:0:
297,143,60580,1,0,0:0:0:0:
299,133,60666,1,0,0:0:0:0:
301,123,60753,1,0,0:0:0:0:
303,113,60839,6,0,B|320:64|320:64|303:15,1,101
228,64,61097,1,0,0:0:0:0:
228,64,61183,2,0,L|122:93,1,101
115,87,61442,1,0,0:0:0:0:
100,82,61528,2,0,L|51:97,1,50.5
55,193,61701,2,0,L|6:208,2,50.5
203,271,62045,1,0,0:0:0:0:
188,267,62131,1,0,0:0:0:0:
173,263,62218,5,0,0:0:0:0:
32,351,62390,1,0,0:0:0:0:
47,347,62476,1,0,0:0:0:0:
62,343,62563,1,0,0:0:0:0:
55,193,62735,1,0,0:0:0:0:
318,260,62908,6,0,P|315:220|305:204,1,50.5
342,146,63080,2,0,P|303:136|285:141,1,50.5
242,83,63252,2,0,P|220:116|219:135,1,50.5
152,163,63425,2,0,P|177:193|194:200,1,50.5
204,272,63597,6,0,P|241:257|251:241,3,50.5
351,295,63942,2,0,P|320:265|315:249,3,50.5
186,197,64287,6,0,P|190:156|184:140,3,50.5
388,229,64631,2,0,P|396:188|408:175,3,50.5
242,105,64975,6,0,P|209:79|191:78,3,50.5
361,122,65322,2,0,P|397:107|416:109,3,50.5
190,9,65666,6,0,P|151:24|141:38,3,50.5
438,46,66010,2,0,P|470:71|476:88,3,50.5
313,24,66356,5,0,0:0:0:0:
310,44,66442,1,0,0:0:0:0:
307,64,66529,1,0,0:0:0:0:
305,84,66614,1,0,0:0:0:0:
302,104,66701,1,0,0:0:0:0:
299,123,66786,1,0,0:0:0:0:
296,143,66873,1,0,0:0:0:0:
293,163,66958,1,0,0:0:0:0:
291,183,67045,1,0,0:0:0:0:
288,203,67132,1,0,0:0:0:0:
285,222,67219,1,0,0:0:0:0:
282,242,67304,1,0,0:0:0:0:
280,262,67390,2,0,L|271:318,1,50.5
55,193,67563,5,0,0:0:0:0:
55,193,68770,6,0,P|92:189|126:220,1,70.6999978424073
280,262,69114,6,0,P|248:258|219:285,1,60.5999981506348
305,289,69287,6,0,P|291:318|308:354,1,60.5999981506348
337,273,69459,6,0,P|360:295|399:290,1,60.5999981506348
334,239,69632,6,0,P|362:223|369:184,1,60.5999981506348
297,230,69804,6,0,P|290:198|256:179,1,60.5999981506348
118,206,69976,1,0,0:0:0:0:
162,34,70149,1,0,0:0:0:0:
167,57,70235,1,0,0:0:0:0:
172,80,70321,1,0,0:0:0:0:
77,303,70494,5,0,0:0:0:0:
250,40,70666,1,0,0:0:0:0:
259,69,70752,1,0,0:0:0:0:
266,100,70838,1,0,0:0:0:0:
9,223,71011,5,0,0:0:0:0:
342,45,71183,1,0,0:0:0:0:
353,82,71269,1,0,0:0:0:0:
362,122,71355,1,0,0:0:0:0:
422,364,71528,5,0,0:0:0:0:
406,302,71614,1,0,0:0:0:0:
389,239,71700,1,0,0:0:0:0:
362,122,71873,6,0,L|485:156,1,121.19999630127
277,329,72220,2,0,B|252:278|252:278|272:216,1,121.19999630127
366,9,72563,2,0,B|386:71|386:71|361:122,1,121.19999630127
171,197,72908,1,0,0:0:0:0:
134,186,72994,1,0,0:0:0:0:
94,177,73080,1,0,0:0:0:0:
366,9,73252,6,0,B|351:64|388:107|388:107|428:153|404:207,1,212.099993527222
353,258,73597,2,0,P|332:218|333:206,1,50.5
366,9,73770,6,0,B|424:48|424:48|442:152|442:152|394:222,1,242.4
307,314,74114,2,0,L|289:338,2,30.2999990753174
469,221,74287,6,0,P|469:190|455:163,1,60.5999981506348
305,144,74459,2,0,P|279:160|262:185,1,60.5999981506348
307,314,74632,6,0,P|334:329|364:331,1,60.5999981506348
412,299,74804,2,0,P|390:320|361:331,1,60.5999981506348
139,231,74976,6,0,P|112:246|82:248,1,60.5999981506348
34,216,75149,2,0,P|55:237|84:248,1,60.5999981506348
104,118,75321,2,0,L|94:177,1,60.5999981506348
69,327,75494,1,0,0:0:0:0:
126,0,75666,1,0,0:0:0:0:
123,24,75752,1,0,0:0:0:0:
118,48,75839,1,0,0:0:0:0:
69,327,76011,5,0,0:0:0:0:
242,110,76183,1,0,0:0:0:0:
213,105,76269,1,0,0:0:0:0:
182,100,76355,1,0,0:0:0:0:
34,216,76528,1,0,0:0:0:0:
225,27,76701,5,0,0:0:0:0:
220,65,76787,1,0,0:0:0:0:
213,105,76873,1,0,0:0:0:0:
364,240,77045,5,0,0:0:0:0:
300,229,77131,1,0,0:0:0:0:
237,217,77217,1,0,0:0:0:0:
432,311,77390,6,0,B|463:261|463:261|448:192,1,121.19999630127
199,321,77735,2,0,L|318:343,1,121.19999630127
361,132,78080,2,0,L|241:109,1,121.19999630127
59,185,78425,5,0,0:0:0:0:
144,199,78511,1,0,0:0:0:0:
237,217,78597,1,0,0:0:0:0:
440,126,78770,6,0,P|395:60|325:59,1,141.399995684815
349,211,79028,2,0,P|414:189|439:125,1,141.399995684815
338,54,79287,2,0,P|291:89|293:140,1,70.6999978424073
285,164,79459,2,0,P|276:130|288:98,1,70.6999978424073
398,255,79632,2,0,P|380:225|349:211,1,70.6999978424073
401,321,79804,2,0,P|410:287|398:254,1,70.6999978424073
362,376,79976,2,0,P|389:354|401:321,1,70.6999978424073
319,296,80149,6,0,L|194:271,1,121.19999630127
338,54,80494,1,0,0:0:0:0:
117,313,80666,2,0,B|104:254|104:254|137:197,1,121.19999630127
416,148,81011,1,0,0:0:0:0:
285,164,81183,2,0,L|222:174,2,60.5999981506348
416,148,81528,5,0,0:0:0:0:
208,88,81701,2,0,L|149:98,2,60.5999981506348
363,254,82045,1,0,0:0:0:0:
131,12,82218,6,0,L|72:22,2,60.5999981506348
363,254,82563,2,0,L|304:264,2,60.5999981506348
456,39,82908,5,0,0:0:0:0:
474,253,83080,1,0,0:0:0:0:
416,148,83253,1,0,0:0:0:0:
434,362,83425,2,0,L|301:385,1,121.19999630127
118,298,83770,2,0,L|205:282,1,60.5999981506348
303,264,83942,2,0,L|280:131,1,121.19999630127
264,60,84201,1,0,0:0:0:0:
264,60,84287,5,0,0:0:0:0:
416,148,84459,1,0,0:0:0:0:
151,176,84632,5,0,0:0:0:0:
303,264,84804,1,0,0:0:0:0:
264,60,84976,2,0,L|280:147,1,60.5999981506348
303,264,85149,1,0,0:0:0:0:
405,88,85321,6,0,L|421:175,1,60.5999981506348
444,292,85494,2,0,L|454:351,1,60.5999981506348
235,337,85666,6,0,B|203:285|203:285|223:226,1,121.19999630127
415,147,86011,1,0,0:0:0:0:
138,66,86183,6,0,B|169:117|169:117|149:176,1,121.19999630127
303,264,86528,1,0,0:0:0:0:
124,304,86701,1,0,0:0:0:0:
124,304,86787,1,0,0:0:0:0:
124,304,86873,2,0,L|52:285,1,60.5999981506348
235,337,87045,5,0,0:0:0:0:
332,363,87218,2,0,L|391:379,2,60.5999981506348
124,304,87563,1,0,0:0:0:0:
385,276,87735,6,0,L|444:292,2,60.5999981506348
59,364,88080,2,0,L|0:348,2,60.5999981506348
222,228,88425,5,0,0:0:0:0:
179,42,88597,1,0,0:0:0:0:
322,167,88770,1,0,0:0:0:0:
133,150,88942,2,0,P|83:184|13:168,1,121.19999630127
296,52,89287,1,0,0:0:0:0:
322,167,89459,2,0,P|372:201|442:185,1,121.19999630127
179,42,89804,5,0,0:0:0:0:
222,228,89976,1,0,0:0:0:0:
226,191,90063,1,0,0:0:0:0:
230,154,90149,1,0,0:0:0:0:
215,324,90321,1,0,0:0:0:0:
296,52,90494,5,0,0:0:0:0:
333,56,90581,1,0,0:0:0:0:
370,60,90666,1,0,0:0:0:0:
386,91,90752,5,0,0:0:0:0:
423,95,90839,1,0,0:0:0:0:
460,99,90925,1,0,0:0:0:0:
497,103,91011,2,0,L|563:112,1,60.5999981506348
296,52,91183,5,0,0:0:0:0:
296,52,91528,2,0,L|200:38,1,85.8500016374588
53,172,91873,2,0,P|94:123|170:139,1,128.775002456188
230,154,92218,2,0,L|218:239,1,85.8500016374588
410,271,92563,6,0,P|369:222|293:238,1,128.775002456188
218,239,92908,1,0,0:0:0:0:
206,324,93080,1,0,0:0:0:0:
121,312,93252,1,0,0:0:0:0:
291,336,93425,1,0,0:0:0:0:
133,227,93597,1,0,0:0:0:0:
303,251,93770,1,0,0:0:0:0:
121,312,93942,5,0,0:0:0:0:
303,251,94114,1,0,0:0:0:0:
145,142,94287,1,0,0:0:0:0:
206,324,94459,1,0,0:0:0:0:
206,324,94804,1,0,0:0:0:0:
291,336,94976,1,0,0:0:0:0:
303,251,95149,1,0,0:0:0:0:
218,239,95321,6,0,L|192:235,2,21.4625004093647
266,178,95494,1,0,0:0:0:0:
266,178,95666,6,0,L|270:152,2,21.4625004093647
303,251,95839,1,0,0:0:0:0:
303,251,96011,6,0,L|329:255,2,21.4625004093647
218,239,96183,1,0,0:0:0:0:
182,231,96270,1,0,0:0:0:0:
146,223,96356,1,0,0:0:0:0:
110,216,96442,1,0,0:0:0:0:
74,208,96528,1,0,0:0:0:0:
38,201,96614,1,0,0:0:0:0:
2,193,96701,5,0,0:0:0:0:
2,193,97045,2,0,L|125:165,1,101
218,239,97390,2,0,L|59:275,1,151.5
100,276,97735,1,0,0:0:0:0:
136,283,97821,1,0,0:0:0:0:
172,291,97907,1,0,0:0:0:0:
369,334,98080,5,0,0:0:0:0:
150,206,98252,1,0,0:0:0:0:
197,215,98338,1,0,0:0:0:0:
244,225,98424,1,0,0:0:0:0:
452,351,98597,1,0,0:0:0:0:
191,128,98786,5,0,0:0:0:0:
251,139,98856,1,0,0:0:0:0:
312,152,98942,1,0,0:0:0:0:
452,351,99114,5,0,0:0:0:0:
369,334,99200,1,0,0:0:0:0:
289,321,99286,1,0,0:0:0:0:
433,176,99459,5,0,0:0:0:0:
392,83,99632,1,0,0:0:0:0:
312,152,99804,1,0,0:0:0:0:
392,83,99976,1,0,0:0:0:0:
366,237,100149,1,0,0:0:0:0:
475,71,100321,2,0,P|447:20|320:39,1,202
366,237,100839,5,0,0:0:0:0:
431,363,101011,1,0,0:0:0:0:
336,333,101183,1,0,0:0:0:0:
461,267,101355,1,0,0:0:0:0:
366,237,101528,1,0,0:0:0:0:
366,237,101614,1,0,0:0:0:0:
366,237,101701,1,0,0:0:0:0:
155,308,101873,2,0,L|345:246,1,196.949990984345
366,237,102218,6,0,L|249:214,1,101
188,198,102476,1,0,0:0:0:0:
188,198,102563,1,0,0:0:0:0:
386,87,102735,1,0,0:0:0:0:
386,87,102821,1,0,0:0:0:0:
386,87,102908,6,0,L|324:74,1,50.5
451,120,103080,2,0,L|401:110,1,50.5
234,40,103252,1,0,0:0:0:0:
234,40,103425,1,0,0:0:0:0:
161,295,103597,6,0,L|188:197,1,101
199,226,103856,1,0,0:0:0:0:
216,250,103942,2,0,L|189:348,1,101
299,304,104201,1,0,0:0:0:0:
299,304,104287,6,0,P|344:289|358:277,1,50.5
452,195,104459,2,0,P|406:180|392:168,1,50.5
386,87,104632,6,0,L|399:38,1,50.5
464,71,104804,2,0,L|450:119,1,50.5
303,99,104976,6,0,L|330:1,1,101
218,110,105235,1,0,0:0:0:0:
218,110,105321,2,0,L|245:12,1,101
127,117,105580,1,0,0:0:0:0:
127,117,105666,6,0,L|140:68,1,50.5
244,12,105839,2,0,L|231:61,1,50.5
107,203,106011,1,0,0:0:0:0:
107,203,106183,2,0,L|94:252,1,50.5
225,354,106356,6,0,B|245:310|245:310|229:257,1,101
94,251,106614,1,0,0:0:0:0:
94,251,106701,2,0,B|74:295|74:295|89:345,1,101
225,354,106959,1,0,0:0:0:0:
225,354,107045,2,0,L|293:335,1,50.5
472,284,107218,2,0,L|423:297,1,50.5
347,317,107390,1,0,0:0:0:0:
283,97,107563,2,0,L|296:146,1,50.5
323,243,107735,6,0,L|283:97,1,151.5
275,68,108080,1,0,0:0:0:0:
375,62,108252,1,0,0:0:0:0:
375,62,108339,1,0,0:0:0:0:
375,62,108425,6,0,L|358:-6,1,50.5
378,147,108597,2,0,L|361:79,1,50.5
221,195,108770,1,0,0:0:0:0:
221,195,108942,1,0,0:0:0:0:
40,241,109114,6,0,L|161:211,1,101
221,195,109373,1,0,0:0:0:0:
243,216,109459,2,0,L|144:240,1,101
302,309,109718,1,0,0:0:0:0:
281,287,109804,6,0,L|354:269,1,50.5
425,248,109976,2,0,L|474:236,1,50.5
421,11,110149,6,0,P|443:46|443:69,1,50.5
512,68,110321,2,0,P|492:104|472:116,1,50.5
378,147,110494,6,0,L|279:123,1,101
221,195,110752,1,0,0:0:0:0:
243,216,110839,2,0,L|144:192,1,101
48,324,111097,1,0,0:0:0:0:
48,324,111183,2,0,P|119:336|170:283,1,151.5
158,100,111528,1,0,0:0:0:0:
158,100,111701,2,0,L|166:160,1,50.5
182,383,111873,6,0,L|167:260,1,101
313,168,112132,1,0,0:0:0:0:
313,168,112218,2,0,B|333:212|333:212|318:262,1,101
322,356,112476,1,0,0:0:0:0:
322,356,112563,2,0,B|302:312|302:312|317:262,1,101
296,88,112908,2,0,L|281:26,1,50.5
371,39,113080,6,0,L|376:14,2,25.25
313,168,113252,5,0,0:0:0:0:
304,128,113339,1,0,0:0:0:0:
296,88,113425,2,0,L|281:26,1,50.5
146,50,113597,2,0,L|157:99,1,50.5
334,245,113770,1,0,0:0:0:0:
334,245,113856,1,0,0:0:0:0:
334,245,113942,2,0,L|396:230,1,50.5
178,179,114114,2,0,L|129:191,1,50.5
475,207,114287,1,0,0:0:0:0:
235,266,114459,1,0,0:0:0:0:
235,266,114545,1,0,0:0:0:0:
235,266,114632,6,0,B|218:313|218:313|244:372,2,101
242,247,115063,1,0,0:0:0:0:
251,229,115149,2,0,L|300:217,1,50.5
123,250,115321,2,0,L|74:262,1,50.5
137,113,115494,6,0,P|182:101|194:106,1,50.5
241,61,115666,2,0,P|202:34|189:34,3,50.5
316,169,116011,6,0,L|299:216,1,50.5
421,237,116183,2,0,L|373:220,1,35.3499989212036
374,371,116356,6,0,L|390:323,1,50.5
269,303,116528,2,0,L|316:319,1,35.3499989212036
445,147,116701,1,0,0:0:0:0:
450,127,116787,1,0,0:0:0:0:
455,107,116873,1,0,0:0:0:0:
460,87,116959,1,0,0:0:0:0:
465,67,117045,1,0,0:0:0:0:
171,103,117218,1,0,0:0:0:0:
171,103,117304,1,0,0:0:0:0:
171,103,117391,6,0,B|154:56|154:56|180:-3,1,101
241,61,117649,1,0,0:0:0:0:
241,61,117735,2,0,L|348:88,1,101
239,147,117994,1,0,0:0:0:0:
239,147,118080,6,0,P|213:172|186:181,1,50.5
140,215,118252,2,0,P|166:240|193:249,1,50.5
238,284,118425,2,0,P|212:309|185:318,1,50.5
139,352,118597,2,0,P|165:377|192:386,1,50.5
408,280,118770,6,0,L|390:224,1,50.5
476,204,118942,2,0,L|491:252,1,50.5
366,154,119114,2,0,L|348:98,1,50.5
434,78,119287,2,0,L|449:126,1,50.5
438,364,119459,1,0,0:0:0:0:
418,369,119545,1,0,0:0:0:0:
398,374,119632,1,0,0:0:0:0:
378,379,119718,1,0,0:0:0:0:
358,384,119805,1,0,0:0:0:0:
140,215,119976,1,0,0:0:0:0:
140,215,120063,1,0,0:0:0:0:
140,215,120149,6,0,L|125:167,1,50.5
77,27,120321,2,0,L|92:75,1,50.5
7,155,120494,6,0,L|57:139,1,50.5
209,88,120666,2,0,L|158:103,1,50.5
65,250,120839,5,0,0:0:0:0:
98,287,120925,1,0,0:0:0:0:
146,299,121011,1,0,0:0:0:0:
193,281,121097,1,0,0:0:0:0:
219,238,121183,1,0,0:0:0:0:
252,201,121270,1,0,0:0:0:0:
300,189,121356,1,0,0:0:0:0:
347,207,121442,1,0,0:0:0:0:
373,250,121528,6,0,B|417:163|417:163|382:57,2,202
329,328,122563,5,0,0:0:0:0:
256,96,122735,1,0,0:0:0:0:
256,96,123597,6,0,L|261:71,2,25.25
163,207,123770,1,0,0:0:0:0:
163,207,123856,1,0,0:0:0:0:
163,207,123942,6,0,P|203:142|329:157,1,212.099993527222
412,176,124287,6,0,L|228:218,1,161.6
367,99,124545,1,0,0:0:0:0:
367,99,124632,2,0,P|392:166|377:194,1,80.8
279,275,124804,2,0,P|208:263|191:236,1,80.8
314,41,124976,6,0,P|388:23|444:94,1,151.500005779267
477,197,125235,1,0,0:0:0:0:
477,197,125322,2,0,P|422:243|391:238,1,75.7500028896333
279,275,125494,2,0,P|208:263|191:236,1,75.7500028896333
229,130,125666,6,0,L|367:99,1,141.399995684815
438,315,125925,1,0,0:0:0:0:
438,315,126012,2,0,P|370:291|358:261,1,70.6999978424073
279,275,126183,2,0,P|208:263|191:236,1,70.6999978424073
180,66,126356,6,0,P|256:54|302:160,1,196.949990984345
166,321,126701,2,0,P|140:253|155:225,1,60.5999981506348
229,130,127045,6,0,L|282:288,1,141.399995684815
67,236,127304,1,0,0:0:0:0:
67,236,127390,2,0,P|112:179|144:178,1,70.6999978424073
276,72,127563,2,0,P|302:140|286:168,1,70.6999978424073
289,349,127735,6,0,P|214:329|192:244,1,151.500005779267
81,112,127994,1,0,0:0:0:0:
81,112,128080,2,0,P|152:123|169:150,1,75.7500028896333
276,72,128252,2,0,P|302:140|286:168,1,75.7500028896333
166,321,128425,6,0,P|95:353|64:338,2,107.733333333333
398,104,128770,2,0,P|422:134|424:171,1,75.7500028896333
327,203,128942,2,0,P|304:175|301:137,1,75.7500028896333
497,233,129114,6,0,B|443:284|384:257|384:257|348:292|348:292|380:336|360:392,1,272.699991677857
147,204,129459,6,0,B|106:237|117:281|117:281|165:321|165:321|231:288|289:349,1,287.849992313576
173,132,129804,6,0,P|224:190|204:265,1,161.6
82,170,130063,1,0,0:0:0:0:
82,170,130149,2,0,P|144:132|174:143,1,80.8
267,298,130321,2,0,P|204:335|174:324,1,80.8
99,348,130494,6,0,L|147:204,1,151.500005779267
150,62,130752,1,0,0:0:0:0:
150,62,130839,2,0,P|213:97|219:129,1,75.7500028896333
267,298,131011,2,0,P|204:335|174:324,1,75.7500028896333
82,170,131356,1,0,0:0:0:0:
275,64,131528,6,0,P|277:130|251:157,2,101.000003852844
150,62,131873,2,0,B|203:76|250:35|250:35|301:-8|361:18,1,227.2500086689
266,370,132218,6,0,P|200:324|245:227,1,181.799994451904
232,150,132563,6,0,L|267:298,1,151.500005779267
161,204,132821,1,0,0:0:0:0:
161,204,132908,2,0,P|186:177|223:169,1,75.7500028896333
328,335,133080,2,0,P|302:361|265:369,1,75.7500028896333
110,266,133252,6,0,P|82:193|127:130,1,161.6
219,101,133511,1,0,0:0:0:0:
219,101,133598,2,0,P|257:110|283:140,1,80.8
328,335,133770,2,0,P|299:364|260:371,1,80.8
110,266,133942,5,0,0:0:0:0:
376,192,134114,1,0,0:0:0:0:
387,194,134201,1,0,0:0:0:0:
398,196,134287,1,0,0:0:0:0:
493,210,134459,1,0,0:0:0:0:
498,104,134632,6,0,L|516:23,2,60.5999981506348
467,313,134976,2,0,L|449:391,2,60.5999981506348
398,196,135321,6,0,L|201:148,1,181.799994451904
353,273,135580,1,0,0:0:0:0:
353,273,135666,2,0,P|380:225|372:186,1,90.8999972259522
249,81,135839,2,0,P|193:80|163:106,1,90.8999972259522
285,316,136011,6,0,P|389:344|432:274,1,181.799994451904
445,176,136270,1,0,0:0:0:0:
445,176,136356,2,0,P|417:128|379:115,1,90.8999972259522
249,81,136528,2,0,P|193:80|163:106,1,90.8999972259522
119,336,136701,6,0,L|364:269,1,242.399992602539
410,47,137045,2,0,P|354:47|324:73,1,90.8999972259522
249,81,137218,2,0,P|193:80|163:106,1,90.8999972259522
285,316,137390,6,0,P|389:344|432:274,1,181.799994451904
122,41,137735,2,0,P|95:86|102:123,1,60.5999981506348
285,316,138080,6,0,L|321:109,1,191.899994875717
259,6,138339,1,0,0:0:0:0:
259,6,138425,2,0,P|203:15|178:46,1,95.9499974378587
109,248,138597,2,0,P|99:302|120:337,1,95.9499974378587
329,211,138770,6,0,P|405:134|366:62,1,202
124,0,139028,1,0,0:0:0:0:
124,0,139114,2,0,P|107:56|132:96,1,101
109,248,139287,2,0,P|98:303|120:339,1,101
403,226,139459,6,0,P|383:156|323:137,2,127.933329917145
255,201,139804,6,0,P|266:261|321:290,1,127.933329917145
483,140,140034,1,0,0:0:0:0:
346,52,140149,6,0,B|272:57|255:125|255:125|206:108|206:108|164:169|89:143,1,303
94,319,140494,6,0,B|92:276|41:263|41:263|57:216|57:216|-2:180|-3:103|39:54|100:60|131:70,1,378.75
196,255,140839,6,0,P|302:260|328:174,1,181.799994451904
184,25,141097,1,0,0:0:0:0:
184,25,141183,2,0,P|131:-1|88:16,1,90.8999972259522
142,304,141356,2,0,P|195:329|238:312,1,90.8999972259522
430,248,141528,6,0,L|254:200,1,181.799994451904
102,6,141787,1,0,0:0:0:0:
102,6,141873,2,0,P|64:51|71:97,1,90.8999972259522
142,304,142045,2,0,P|195:329|238:312,1,90.8999972259522
337,178,142218,5,0,0:0:0:0:
184,25,142390,1,0,0:0:0:0:
413,218,142563,2,0,P|412:135|350:87,2,121.19999630127
429,38,142908,6,0,B|351:14|315:83|315:83|248:73|248:73|269:51|264:5,1,272.699991677857
87,247,143252,2,0,P|68:334|145:383,1,181.799994451904
99,116,143597,6,0,L|142:306,1,191.899994875717
388,133,143856,1,0,0:0:0:0:
388,133,143942,2,0,P|335:107|292:124,1,95.9499974378587
141,303,144114,2,0,P|194:329|237:312,1,95.9499974378587
471,181,144287,6,0,P|463:75|368:37,1,202
284,45,144545,1,0,0:0:0:0:
284,45,144631,2,0,P|234:77|228:123,1,101
141,303,144804,2,0,P|194:329|238:311,1,101
302,116,144976,5,0,0:0:0:0:
304,127,145063,1,0,0:0:0:0:
306,138,145149,1,0,0:0:0:0:
308,149,145235,1,0,0:0:0:0:
310,160,145321,1,0,0:0:0:0:
312,171,145408,1,0,0:0:0:0:
314,182,145494,1,0,0:0:0:0:
316,193,145580,1,0,0:0:0:0:
318,204,145666,1,0,0:0:0:0:
331,300,145839,6,0,L|341:360,1,60.5999981506348
407,245,146011,1,0,0:0:0:0:
331,300,146183,1,0,0:0:0:0:
245,268,146356,1,0,0:0:0:0:
317,267,157218,6,0,L|330:218,1,50.5
377,36,157390,6,0,L|351:133,1,101
342,121,157649,1,0,0:0:0:0:
333,108,157735,1,0,0:0:0:0:
415,263,157908,1,0,0:0:0:0:
222,117,158080,6,0,L|248:20,1,101
257,32,158339,1,0,0:0:0:0:
266,45,158425,1,0,0:0:0:0:
415,263,158597,1,0,0:0:0:0:
215,277,158770,5,0,0:0:0:0:
138,97,158942,1,0,0:0:0:0:
145,67,159028,1,0,0:0:0:0:
154,38,159114,1,0,0:0:0:0:
114,282,159287,1,0,0:0:0:0:
39,106,159459,5,0,0:0:0:0:
50,58,159545,1,0,0:0:0:0:
64,12,159631,1,0,0:0:0:0:
236,210,159804,5,0,0:0:0:0:
215,277,159890,1,0,0:0:0:0:
199,347,159976,1,0,0:0:0:0:
475,76,160149,6,0,P|424:40|403:40,2,50.5
451,193,160494,2,0,P|486:142|486:121,2,50.5
330,171,160839,6,0,P|380:206|401:206,2,50.5
354,54,161184,2,0,P|318:104|318:125,2,50.5
415,263,161528,6,0,L|423:339,2,50.5
257,143,161873,2,0,L|181:151,2,50.5
503,297,162218,2,0,L|495:221,2,50.5
267,217,162563,6,0,L|191:225,1,50.5
332,263,162735,2,0,L|337:313,1,50.5
133,230,162908,6,0,L|7:243,1,101
267,217,163166,1,0,0:0:0:0:
267,217,163252,6,0,L|191:225,1,50.5
257,143,163425,6,0,L|225:73,1,50.5
324,114,163597,6,0,L|380:62,1,50.5
371,168,163770,6,0,L|437:206,1,50.5
337,231,163942,6,0,L|321:305,1,50.5
267,217,164114,6,0,L|191:225,1,50.5
455,246,164287,6,0,P|479:196|475:174,2,67.3333333333333
434,325,164632,2,0,P|489:320|506:306,2,67.3333333333333
184,164,164976,6,0,P|180:130|193:100,2,67.3333333333333
161,242,165321,2,0,P|130:228|110:201,2,67.3333333333333
288,293,165666,5,0,0:0:0:0:
288,293,167045,6,0,L|282:340,1,35.3499989212036
366,273,167218,2,0,L|360:320,1,35.3499989212036
319,261,167390,6,0,L|313:308,1,35.3499989212036
397,241,167563,2,0,L|391:288,1,35.3499989212036
350,229,167735,6,0,L|344:276,1,35.3499989212036
428,209,167908,2,0,L|422:256,2,35.3499989212036
428,209,168425,5,0,0:0:0:0:
463,31,168597,1,0,0:0:0:0:
361,167,168770,5,0,0:0:0:0:
381,52,168942,1,0,0:0:0:0:
279,178,169114,5,0,0:0:0:0:
314,0,169286,1,0,0:0:0:0:
213,132,169459,5,0,0:0:0:0:
219,102,169545,1,0,0:0:0:0:
224,73,169632,1,0,0:0:0:0:
228,45,169718,1,0,0:0:0:0:
233,17,169804,1,0,0:0:0:0:
180,329,169976,5,0,0:0:0:0:
186,299,170062,1,0,0:0:0:0:
191,270,170149,1,0,0:0:0:0:
195,242,170235,1,0,0:0:0:0:
200,214,170321,1,0,0:0:0:0:
282,298,170494,6,0,L|319:352,1,60.5999981506348
98,265,170666,2,0,L|44:303,1,60.5999981506348
294,189,170839,6,0,L|342:153,1,60.5999981506348
110,156,171011,2,0,L|75:106,1,60.5999981506348
320,52,171183,5,0,0:0:0:0:
436,276,171355,1,0,0:0:0:0:
210,161,171528,1,0,0:0:0:0:
456,121,171700,1,0,0:0:0:0:
282,298,171873,1,0,0:0:0:0:
320,52,172045,5,0,0:0:0:0:
325,88,172132,1,0,0:0:0:0:
330,124,172218,1,0,0:0:0:0:
335,160,172304,1,0,0:0:0:0:
340,196,172390,1,0,0:0:0:0:
494,19,172563,5,0,0:0:0:0:
475,70,172649,1,0,0:0:0:0:
456,121,172735,1,0,0:0:0:0:
145,74,172908,1,0,0:0:0:0:
177,117,172994,1,0,0:0:0:0:
210,161,173080,1,0,0:0:0:0:
436,276,173252,5,0,0:0:0:0:
441,258,173339,1,0,0:0:0:0:
282,298,173511,5,0,2:0:0:0:
269,284,173598,1,0,2:0:0:0:
340,196,173770,5,0,0:0:0:0:
340,196,173856,1,0,0:0:0:0:
340,196,173942,5,0,0:0:0:0:
368,369,174114,1,0,0:0:0:0:
484,136,174287,5,0,0:0:0:0:
512,309,174459,1,0,0:0:0:0:
172,196,174632,5,0,0:0:0:0:
144,369,174804,1,0,0:0:0:0:
28,136,174976,5,0,0:0:0:0:
20,179,175063,1,0,0:0:0:0:
13,220,175149,1,0,0:0:0:0:
6,262,175235,1,0,0:0:0:0:
0,309,175321,1,0,0:0:0:0:
484,136,175494,5,0,0:0:0:0:
492,179,175581,1,0,0:0:0:0:
499,220,175667,1,0,0:0:0:0:
506,262,175753,1,0,0:0:0:0:
512,309,175839,1,0,0:0:0:0:
172,196,176011,6,0,L|156:289,1,60.5999981506348
154,309,176183,2,0,L|138:402,1,60.5999981506348
340,196,176356,6,0,L|356:289,1,60.5999981506348
358,309,176528,2,0,L|374:402,1,60.5999981506348
105,133,176701,5,0,0:0:0:0:
407,133,176873,1,0,0:0:0:0:
184,73,177045,5,0,0:0:0:0:
328,73,177218,1,0,0:0:0:0:
94,17,177390,5,0,0:0:0:0:
418,17,177563,1,0,0:0:0:0:
184,73,177735,5,0,0:0:0:0:
202,73,177821,1,0,0:0:0:0:
256,73,177908,1,0,0:0:0:0:
310,73,177994,1,0,0:0:0:0:
327,72,178080,6,0,B|355:138|355:138|326:201,1,141.399995684815
273,269,178339,2,0,B|245:203|245:203|274:140,1,141.399995684815
326,202,178597,6,0,L|353:267,1,70.6999978424073
169,223,178770,2,0,L|196:288,1,70.6999978424073
401,321,178942,6,0,P|424:267|418:239,1,70.6999978424073
498,238,179114,2,0,P|463:190|435:182,1,70.6999978424073
472,110,179287,2,0,P|413:116|392:136,1,70.6999978424073
273,269,179459,6,0,L|221:137,1,141.399995684815
63,265,179804,1,0,0:0:0:0:
327,72,179976,2,0,B|352:140|352:140|324:202,1,141.399995684815
25,161,180321,1,0,0:0:0:0:
131,119,180494,2,0,L|213:86,2,70.6999978424073
96,365,180839,5,0,0:0:0:0:
200,175,181011,2,0,L|282:142,2,70.6999978424073
63,265,181356,1,0,0:0:0:0:
61,59,181528,6,0,L|143:26,2,70.6999978424073
277,246,181873,6,0,L|342:219,2,70.6999978424073
511,379,182218,5,0,0:0:0:0:
406,79,182390,1,0,0:0:0:0:
426,284,182563,1,0,0:0:0:0:
491,174,182735,2,0,B|519:112|519:112|494:44,1,141.399995684815
195,54,183080,2,0,L|263:34,1,70.6999978424073
406,79,183252,2,0,L|270:117,1,141.399995684815
163,148,183511,1,0,0:0:0:0:
163,148,183597,5,0,0:0:0:0:
211,265,183770,1,0,0:0:0:0:
44,194,183942,1,0,0:0:0:0:
92,311,184115,1,0,0:0:0:0:
211,265,184287,6,0,L|279:245,1,70.6999978424073
369,220,184459,1,0,0:0:0:0:
92,311,184632,6,0,L|24:331,1,70.6999978424073
163,148,184804,2,0,L|231:128,1,70.6999978424073
40,63,184976,6,0,B|15:131|15:131|43:193,1,141.399995684815
92,311,185321,1,0,0:0:0:0:
444,286,185494,6,0,B|469:218|469:218|441:156,1,141.399995684815
392,38,185839,1,0,0:0:0:0:
369,220,186011,1,0,0:0:0:0:
369,220,186097,1,0,0:0:0:0:
369,220,186183,2,0,L|346:287,1,70.6999978424073
384,19,186356,5,0,0:0:0:0:
276,246,186528,2,0,L|254:314,2,70.6999978424073
384,19,186873,1,0,0:0:0:0:
183,272,187045,6,0,L|161:340,2,70.6999978424073
458,193,187390,6,0,L|480:125,2,70.6999978424073
159,176,187735,5,0,0:0:0:0:
276,246,187908,1,0,0:0:0:0:
252,150,188080,1,0,0:0:0:0:
183,272,188252,2,0,P|127:309|49:291,1,141.399995684815
228,54,188597,1,0,0:0:0:0:
276,246,188770,2,0,P|343:258|401:220,1,141.399995684815
135,80,189114,5,0,0:0:0:0:
252,150,189287,1,0,0:0:0:0:
252,150,189373,1,0,0:0:0:0:
252,150,189459,1,0,0:0:0:0:
184,272,189632,5,0,0:0:0:0:
227,247,189718,1,0,0:0:0:0:
276,246,189804,1,0,0:0:0:0:
319,269,189890,1,0,0:0:0:0:
354,303,189976,1,0,0:0:0:0:
403,312,190063,1,0,0:0:0:0:
448,291,190149,2,0,P|473:252|470:213,1,70.6999978424073
252,150,190494,5,0,0:0:0:0:
312,54,190666,1,0,0:0:0:0:
233,71,190839,1,0,0:0:0:0:
331,133,191011,1,0,0:0:0:0:
252,150,191183,1,0,0:0:0:0:
312,54,191356,1,0,0:0:0:0:
197,60,191528,5,0,0:0:0:0:
215,65,191614,1,0,0:0:0:0:
233,71,191701,1,0,0:0:0:0:
252,150,191873,1,0,0:0:0:0:
120,188,192045,5,0,0:0:0:0:
147,180,192131,1,0,0:0:0:0:
175,170,192218,1,0,0:0:0:0:
252,150,192390,1,0,0:0:0:0:
118,35,192563,5,0,0:0:0:0:
156,46,192649,1,0,0:0:0:0:
197,60,192736,1,0,0:0:0:0:
21,220,192908,5,0,0:0:0:0:
69,206,192994,1,0,0:0:0:0:
120,188,193081,1,0,0:0:0:0:
331,133,193252,5,0,0:0:0:0:
305,210,193425,1,0,0:0:0:0:
411,125,193597,5,0,0:0:0:0:
385,202,193770,1,0,0:0:0:0:
491,117,193941,5,0,0:0:0:0:
465,194,194114,1,0,0:0:0:0:
305,210,194287,5,0,0:0:0:0:
345,208,194373,1,0,0:0:0:0:
385,202,194459,1,0,0:0:0:0:
425,197,194545,1,0,0:0:0:0:
465,194,194632,1,0,0:0:0:0:
465,194,194976,5,0,0:0:0:0:
331,133,195149,1,0,0:0:0:0:
465,194,195321,1,0,0:0:0:0:
411,125,195494,2,0,L|418:97,2,25.25
331,133,195666,5,0,0:0:0:0:
291,136,195753,1,0,0:0:0:0:
251,141,195839,1,0,0:0:0:0:
211,147,195925,1,0,0:0:0:0:
171,149,196011,6,0,L|201:50,1,101
92,157,196356,2,0,L|122:58,1,101
13,165,196701,2,0,L|43:66,1,101
47,238,197045,5,0,0:0:0:0:
41,258,197131,1,0,0:0:0:0:
34,277,197218,1,0,0:0:0:0:
92,157,197390,5,0,0:0:0:0:
139,243,197563,5,0,0:0:0:0:
130,272,197649,1,0,0:0:0:0:
119,299,197736,1,0,0:0:0:0:
211,147,197908,1,0,0:0:0:0:
242,249,198080,5,0,0:0:0:0:
229,289,198166,1,0,0:0:0:0:
214,326,198253,1,0,0:0:0:0:
341,253,198425,5,0,0:0:0:0:
323,305,198511,1,0,0:0:0:0:
303,354,198598,1,0,0:0:0:0:
211,147,198770,6,0,B|266:162|309:125|309:125|355:85|409:109,1,212.099993527222
368,179,199114,1,0,0:0:0:0:
245,63,199287,6,0,B|190:48|147:85|147:85|101:125|47:101,1,212.099993527222
88,31,199631,1,0,0:0:0:0:
211,147,199804,6,0,L|196:202,1,50.5
368,179,199976,1,0,0:0:0:0:
