osu file format v14

[General]
AudioFilename: 06 - Otogi Banashi No Hibi (feat. nicamoq).mp3
AudioLeadIn: 0
PreviewTime: 59192
Countdown: 1
SampleSet: Normal
StackLeniency: 0.7
Mode: 1
LetterboxInBreaks: 1
WidescreenStoryboard: 0

[Editor]
Bookmarks: 25801,34149,100941,117637,134333,141637,151028,167724,183376
DistanceSpacing: 0.9
BeatDivisor: 4
GridSize: 32
TimelineZoom: 3.599999

[Metadata]
Title:Otogi Banashi No Hibi (feat. nicamoq)
TitleUnicode:Otogi Banashi No Hibi (feat. nicamoq)
Artist:Yunomi
ArtistUnicode:Yunomi
Creator:KinomiCandy
Version:Daily Oni
Source:Yunomic Ni Ocha Shite EP
Tags:
BeatmapID:1156741
BeatmapSetID:546070

[Difficulty]
HPDrainRate:6
CircleSize:4
OverallDifficulty:5
ApproachRate:5
SliderMultiplier:1.4
SliderTickRate:1

[Events]
//Background and Video events
0,0,"bg2.png",0,20
//Break Periods
//Storyboard Layer 0 (Background)
//Storyboard Layer 1 (Fail)
//Storyboard Layer 2 (Pass)
//Storyboard Layer 3 (Foreground)
//Storyboard Sound Samples

[TimingPoints]
768,260.869565217391,4,1,0,90,1,0
768,-125,4,1,0,90,0,0
8985,-100,4,1,0,90,0,0
42376,-117.647058823529,4,1,0,90,0,0
50789,-100,4,1,0,90,0,0
59202,-100,4,1,0,90,0,1
75898,-100,4,1,0,90,0,0
76028,-133.333333333333,4,1,0,90,0,0
83202,-117.647058823529,4,1,0,90,0,0
91289,-114.942528735632,4,1,0,90,0,0
91550,-111.111111111111,4,1,0,90,0,0
91811,-105.263157894737,4,1,0,90,0,0
92072,-100,4,1,0,90,0,0
117767,-125,4,1,0,90,0,0
125333,-111.111111111111,4,1,0,90,0,0
146854,-108.695652173913,4,1,0,90,0,0
146985,-106.382978723404,4,1,0,90,0,0
147115,-104.166666666667,4,1,0,90,0,0
147246,-102.040816326531,4,1,0,90,0,0
147376,-100,4,1,0,90,0,0
147507,-98.0392156862745,4,1,0,90,0,0
147637,-96.1538461538461,4,1,0,90,0,0
147767,-94.3396226415094,4,1,0,90,0,0
147898,-92.5925925925926,4,1,0,90,0,0
148028,-90.9090909090909,4,1,0,90,0,0
148159,-89.2857142857143,4,1,0,90,0,0
148289,-87.719298245614,4,1,0,90,0,0
148420,-86.2068965517241,4,1,0,90,0,0
148550,-84.7457627118644,4,1,0,90,0,0
148681,-83.3333333333333,4,1,0,90,0,0
148811,-81.9672131147541,4,1,0,90,0,0
148941,-80.6451612903226,4,1,0,90,0,0
149463,-125,4,1,0,90,0,0
150246,-111.111111111111,4,1,0,90,0,0
151028,-100,4,1,0,90,0,1
184420,-125,4,1,0,90,0,0
192767,-100,4,1,0,90,0,0

[HitObjects]
256,192,768,5,8,0:0:0:0:
256,192,898,1,0,0:0:0:0:
256,192,963,1,0,0:0:0:0:
256,192,1028,1,8,0:0:0:0:
256,192,1289,1,0,0:0:0:0:
256,192,1550,1,8,0:0:0:0:
256,192,1811,1,0,0:0:0:0:
256,192,2072,1,8,0:0:0:0:
256,192,2202,1,8,0:0:0:0:
256,192,2333,1,0,0:0:0:0:
256,192,2594,1,8,0:0:0:0:
256,192,2854,1,0,0:0:0:0:
256,192,2985,1,8,0:0:0:0:
256,192,3050,1,8,0:0:0:0:
256,192,3115,1,0,0:0:0:0:
256,192,3376,1,8,0:0:0:0:
256,192,3637,1,0,0:0:0:0:
256,192,3767,1,0,0:0:0:0:
256,192,3898,1,8,0:0:0:0:
256,192,4159,1,8,0:0:0:0:
256,192,4289,1,0,0:0:0:0:
256,192,4420,1,8,0:0:0:0:
256,192,4681,1,0,0:0:0:0:
256,192,4941,1,8,0:0:0:0:
256,192,5072,1,0,0:0:0:0:
256,192,5137,1,0,0:0:0:0:
256,192,5202,1,0,0:0:0:0:
256,192,5267,1,8,0:0:0:0:
256,192,5333,1,0,0:0:0:0:
256,192,5463,1,8,0:0:0:0:
256,192,5724,1,8,0:0:0:0:
256,192,5985,1,0,0:0:0:0:
256,192,6246,1,8,0:0:0:0:
256,192,6376,1,8,0:0:0:0:
256,192,6507,1,0,0:0:0:0:
256,192,6767,1,8,0:0:0:0:
256,192,6898,1,8,0:0:0:0:
256,192,7028,1,0,0:0:0:0:
256,192,7094,1,0,0:0:0:0:
256,192,7159,1,8,0:0:0:0:
256,192,7224,1,8,0:0:0:0:
256,192,7289,1,0,0:0:0:0:
256,192,7420,1,8,0:0:0:0:
256,192,7550,1,0,0:0:0:0:
256,192,7681,1,8,0:0:0:0:
256,192,7811,1,8,0:0:0:0:
256,192,7941,1,0,0:0:0:0:
256,192,8072,1,8,0:0:0:0:
256,192,8137,1,0,0:0:0:0:
256,192,8202,1,0,0:0:0:0:
256,192,8267,1,0,0:0:0:0:
256,192,8333,1,8,0:0:0:0:
256,192,8463,1,0,0:0:0:0:
256,192,8594,1,8,0:0:0:0:
256,192,8854,1,12,0:0:0:0:
256,192,9115,1,4,0:0:0:0:
256,192,9246,1,0,0:0:0:0:
256,192,9311,1,0,0:0:0:0:
256,192,9376,1,8,0:0:0:0:
256,192,9507,1,0,0:0:0:0:
256,192,9637,1,8,0:0:0:0:
256,192,9767,1,8,0:0:0:0:
256,192,9898,1,0,0:0:0:0:
256,192,10028,1,8,0:0:0:0:
256,192,10159,1,0,0:0:0:0:
256,192,10289,1,8,0:0:0:0:
256,192,10354,1,8,0:0:0:0:
256,192,10420,1,0,0:0:0:0:
256,192,10550,1,0,0:0:0:0:
256,192,10681,1,8,0:0:0:0:
256,192,10941,1,0,0:0:0:0:
256,192,11072,1,0,0:0:0:0:
256,192,11202,1,8,0:0:0:0:
256,192,11333,1,8,0:0:0:0:
256,192,11398,1,8,0:0:0:0:
256,192,11463,1,0,0:0:0:0:
256,192,11594,1,8,0:0:0:0:
256,192,11724,1,0,0:0:0:0:
256,192,11789,1,0,0:0:0:0:
256,192,11854,1,8,0:0:0:0:
256,192,11985,1,0,0:0:0:0:
256,192,12115,1,8,0:0:0:0:
256,192,12246,1,0,0:0:0:0:
256,192,12376,1,0,0:0:0:0:
256,192,12507,1,8,0:0:0:0:
256,192,12637,1,8,0:0:0:0:
256,192,12767,1,0,0:0:0:0:
256,192,12833,1,0,0:0:0:0:
256,192,12898,1,8,0:0:0:0:
256,192,12963,1,8,0:0:0:0:
256,192,13028,1,0,0:0:0:0:
256,192,13094,1,8,0:0:0:0:
256,192,13159,1,0,0:0:0:0:
256,192,13224,1,0,0:0:0:0:
256,192,13289,1,0,0:0:0:0:
256,192,13420,1,8,0:0:0:0:
256,192,13485,1,8,0:0:0:0:
256,192,13550,1,0,0:0:0:0:
256,192,13681,1,8,0:0:0:0:
256,192,13811,1,0,0:0:0:0:
256,192,13941,1,8,0:0:0:0:
256,192,14072,1,0,0:0:0:0:
256,192,14137,1,0,0:0:0:0:
256,192,14202,1,8,0:0:0:0:
256,192,14333,1,0,0:0:0:0:
256,192,14463,1,8,0:0:0:0:
256,192,14528,1,8,0:0:0:0:
256,192,14594,1,0,0:0:0:0:
256,192,14724,1,8,0:0:0:0:
256,192,14854,1,8,0:0:0:0:
256,192,15115,1,0,0:0:0:0:
256,192,15246,1,8,0:0:0:0:
256,192,15376,1,0,0:0:0:0:
256,192,15507,1,0,0:0:0:0:
256,192,15572,1,0,0:0:0:0:
256,192,15637,1,8,0:0:0:0:
256,192,15767,1,0,0:0:0:0:
256,192,15898,1,8,0:0:0:0:
256,192,16028,1,8,0:0:0:0:
256,192,16159,1,0,0:0:0:0:
256,192,16224,1,0,0:0:0:0:
256,192,16289,1,8,0:0:0:0:
256,192,16354,1,8,0:0:0:0:
256,192,16420,1,0,0:0:0:0:
256,192,16550,1,8,0:0:0:0:
256,192,16681,1,8,0:0:0:0:
256,192,16811,1,0,0:0:0:0:
256,192,16941,1,0,0:0:0:0:
256,192,17202,1,8,0:0:0:0:
256,192,17333,1,8,0:0:0:0:
256,192,17463,1,4,0:0:0:0:
256,192,17594,1,8,0:0:0:0:
256,192,17659,1,8,0:0:0:0:
256,192,17724,1,0,0:0:0:0:
256,192,17854,1,8,0:0:0:0:
256,192,17985,1,0,0:0:0:0:
256,192,18115,1,0,0:0:0:0:
256,192,18246,1,8,0:0:0:0:
256,192,18311,1,8,0:0:0:0:
256,192,18376,1,0,0:0:0:0:
256,192,18441,1,0,0:0:0:0:
256,192,18507,1,0,0:0:0:0:
256,192,18637,1,0,0:0:0:0:
256,192,18702,1,0,0:0:0:0:
256,192,18767,1,8,0:0:0:0:
256,192,18898,1,0,0:0:0:0:
256,192,19028,1,8,0:0:0:0:
256,192,19159,1,8,0:0:0:0:
256,192,19224,1,8,0:0:0:0:
256,192,19289,1,0,0:0:0:0:
256,192,19420,1,8,0:0:0:0:
256,192,19550,1,0,0:0:0:0:
256,192,19811,1,8,0:0:0:0:
256,192,19941,1,8,0:0:0:0:
256,192,20072,1,0,0:0:0:0:
256,192,20202,1,0,0:0:0:0:
256,192,20267,1,0,0:0:0:0:
256,192,20333,1,8,0:0:0:0:
256,192,20463,1,0,0:0:0:0:
256,192,20594,1,8,0:0:0:0:
256,192,20724,1,0,0:0:0:0:
256,192,20854,1,0,0:0:0:0:
256,192,20985,1,8,0:0:0:0:
256,192,21115,1,0,0:0:0:0:
256,192,21181,1,8,0:0:0:0:
256,192,21246,1,0,0:0:0:0:
256,192,21311,1,0,0:0:0:0:
256,192,21376,1,8,0:0:0:0:
256,192,21441,1,8,0:0:0:0:
256,192,21507,1,8,0:0:0:0:
256,192,21572,1,8,0:0:0:0:
256,192,21637,1,0,0:0:0:0:
256,192,21767,1,0,0:0:0:0:
256,192,21833,1,0,0:0:0:0:
256,192,21898,1,8,0:0:0:0:
256,192,22028,1,0,0:0:0:0:
256,192,22159,1,8,0:0:0:0:
256,192,22289,1,8,0:0:0:0:
256,192,22420,1,0,0:0:0:0:
256,192,22485,1,0,0:0:0:0:
256,192,22550,1,8,0:0:0:0:
256,192,22615,1,8,0:0:0:0:
256,192,22681,1,0,0:0:0:0:
256,192,22811,1,8,0:0:0:0:
256,192,22876,1,8,0:0:0:0:
256,192,22941,1,0,0:0:0:0:
256,192,23072,1,0,0:0:0:0:
256,192,23202,1,8,0:0:0:0:
256,192,23463,1,0,0:0:0:0:
256,192,23594,1,8,0:0:0:0:
256,192,23724,1,0,0:0:0:0:
256,192,23854,1,8,0:0:0:0:
256,192,23920,1,8,0:0:0:0:
256,192,23985,1,8,0:0:0:0:
256,192,24115,1,8,0:0:0:0:
256,192,24246,1,0,0:0:0:0:
256,192,24376,1,8,0:0:0:0:
256,192,24441,1,8,0:0:0:0:
256,192,24507,1,8,0:0:0:0:
256,192,24637,1,8,0:0:0:0:
256,192,24767,1,0,0:0:0:0:
256,192,25159,1,0,0:0:0:0:
256,192,25202,1,0,0:0:0:0:
256,192,25246,1,0,0:0:0:0:
256,192,25289,1,8,0:0:0:0:
256,192,25550,1,8,0:0:0:0:
256,192,25811,1,0,0:0:0:0:
256,192,25876,1,0,0:0:0:0:
256,192,25941,1,8,0:0:0:0:
256,192,26007,1,8,0:0:0:0:
256,192,26072,1,8,0:0:0:0:
256,192,26202,1,0,0:0:0:0:
256,192,26267,1,0,0:0:0:0:
256,192,26333,1,8,0:0:0:0:
256,192,26463,1,0,0:0:0:0:
256,192,26594,1,8,0:0:0:0:
256,192,26724,1,8,0:0:0:0:
256,192,26789,1,8,0:0:0:0:
256,192,26854,1,0,0:0:0:0:
256,192,26985,1,8,0:0:0:0:
256,192,27115,1,0,0:0:0:0:
256,192,27181,1,0,0:0:0:0:
256,192,27246,1,8,0:0:0:0:
256,192,27311,1,8,0:0:0:0:
256,192,27376,1,0,0:0:0:0:
256,192,27507,1,0,0:0:0:0:
256,192,27637,1,8,0:0:0:0:
256,192,27702,1,8,0:0:0:0:
256,192,27767,1,0,0:0:0:0:
256,192,27833,1,0,0:0:0:0:
256,192,27898,1,0,0:0:0:0:
256,192,28028,1,8,0:0:0:0:
256,192,28094,1,8,0:0:0:0:
256,192,28159,1,0,0:0:0:0:
256,192,28289,1,8,0:0:0:0:
256,192,28420,1,0,0:0:0:0:
256,192,28550,1,0,0:0:0:0:
256,192,28615,1,0,0:0:0:0:
256,192,28681,1,8,0:0:0:0:
256,192,28811,1,0,0:0:0:0:
256,192,28941,1,8,0:0:0:0:
256,192,29072,1,8,0:0:0:0:
256,192,29137,1,8,0:0:0:0:
256,192,29202,1,8,0:0:0:0:
256,192,29333,1,8,0:0:0:0:
256,192,29463,1,0,0:0:0:0:
256,192,29528,1,0,0:0:0:0:
256,192,29594,1,0,0:0:0:0:
256,192,29659,1,8,0:0:0:0:
256,192,29724,1,0,0:0:0:0:
256,192,29789,1,0,0:0:0:0:
256,192,29854,1,8,0:0:0:0:
256,192,29920,1,8,0:0:0:0:
256,192,29985,1,0,0:0:0:0:
256,192,30115,1,8,0:0:0:0:
256,192,30181,1,8,0:0:0:0:
256,192,30246,1,0,0:0:0:0:
256,192,30376,1,8,0:0:0:0:
256,192,30507,1,0,0:0:0:0:
256,192,30572,1,0,0:0:0:0:
256,192,30637,1,8,0:0:0:0:
256,192,30767,1,0,0:0:0:0:
256,192,30833,1,0,0:0:0:0:
256,192,30898,1,8,0:0:0:0:
256,192,30963,1,8,0:0:0:0:
256,192,31028,1,0,0:0:0:0:
256,192,31159,1,0,0:0:0:0:
256,192,31289,1,8,0:0:0:0:
256,192,31420,1,0,0:0:0:0:
256,192,31485,1,0,0:0:0:0:
256,192,31550,1,8,0:0:0:0:
256,192,31681,1,0,0:0:0:0:
256,192,31811,1,8,0:0:0:0:
256,192,31876,1,8,0:0:0:0:
256,192,31941,1,8,0:0:0:0:
256,192,32007,1,8,0:0:0:0:
256,192,32072,1,0,0:0:0:0:
256,192,32137,1,0,0:0:0:0:
256,192,32202,1,8,0:0:0:0:
256,192,32267,1,8,0:0:0:0:
256,192,32333,1,0,0:0:0:0:
256,192,32463,1,8,0:0:0:0:
256,192,32594,1,0,0:0:0:0:
256,192,32724,1,8,0:0:0:0:
256,192,32789,1,8,0:0:0:0:
256,192,32854,1,0,0:0:0:0:
256,192,32985,1,8,0:0:0:0:
256,192,33115,1,0,0:0:0:0:
256,192,33181,1,0,0:0:0:0:
256,192,33246,1,0,0:0:0:0:
256,192,33311,1,8,0:0:0:0:
256,192,33376,1,0,0:0:0:0:
256,192,33507,1,8,0:0:0:0:
256,192,33637,1,0,0:0:0:0:
256,192,33767,1,0,0:0:0:0:
256,192,33898,1,8,0:0:0:0:
256,192,34159,1,0,0:0:0:0:
256,192,34224,1,0,0:0:0:0:
256,192,34289,1,8,0:0:0:0:
256,192,34354,1,8,0:0:0:0:
256,192,34420,1,8,0:0:0:0:
256,192,34550,1,0,0:0:0:0:
256,192,34615,1,0,0:0:0:0:
256,192,34681,1,8,0:0:0:0:
256,192,34811,1,8,0:0:0:0:
256,192,34941,1,0,0:0:0:0:
256,192,35202,1,8,0:0:0:0:
256,192,35333,1,8,0:0:0:0:
256,192,35463,1,0,0:0:0:0:
256,192,35528,1,0,0:0:0:0:
256,192,35594,1,8,0:0:0:0:
256,192,35659,1,8,0:0:0:0:
256,192,35724,1,0,0:0:0:0:
256,192,35985,1,8,0:0:0:0:
256,192,36246,1,0,0:0:0:0:
256,192,36311,1,0,0:0:0:0:
256,192,36376,1,8,0:0:0:0:
256,192,36441,1,8,0:0:0:0:
256,192,36507,1,8,0:0:0:0:
256,192,36572,1,8,0:0:0:0:
256,192,36637,1,0,0:0:0:0:
256,192,36767,1,8,0:0:0:0:
256,192,36898,1,8,0:0:0:0:
256,192,37028,1,0,0:0:0:0:
256,192,37289,1,8,0:0:0:0:
256,192,37550,1,0,0:0:0:0:
256,192,37615,1,0,0:0:0:0:
256,192,37681,1,8,0:0:0:0:
256,192,37746,1,8,0:0:0:0:
256,192,37811,1,0,0:0:0:0:
256,192,37941,1,8,0:0:0:0:
256,192,38072,1,0,0:0:0:0:
256,192,38202,1,8,0:0:0:0:
256,192,38333,1,0,0:0:0:0:
256,192,38398,1,0,0:0:0:0:
256,192,38463,1,8,0:0:0:0:
256,192,38528,1,8,0:0:0:0:
256,192,38594,1,8,0:0:0:0:
256,192,38724,1,0,0:0:0:0:
256,192,38789,1,0,0:0:0:0:
256,192,38855,1,8,0:0:0:0:
256,192,38985,1,8,0:0:0:0:
256,192,39115,1,0,0:0:0:0:
256,192,39376,1,8,0:0:0:0:
256,192,39507,1,8,0:0:0:0:
256,192,39637,1,0,0:0:0:0:
256,192,39702,1,0,0:0:0:0:
256,192,39768,1,8,0:0:0:0:
256,192,39833,1,8,0:0:0:0:
256,192,39898,1,0,0:0:0:0:
256,192,40159,1,8,0:0:0:0:
256,192,40420,1,0,0:0:0:0:
256,192,40485,1,0,0:0:0:0:
256,192,40550,1,8,0:0:0:0:
256,192,40615,1,8,0:0:0:0:
256,192,40681,1,8,0:0:0:0:
256,192,40746,1,8,0:0:0:0:
256,192,40811,1,0,0:0:0:0:
256,192,40941,1,8,0:0:0:0:
256,192,41072,1,8,0:0:0:0:
256,192,41202,1,0,0:0:0:0:
256,192,41463,1,0,0:0:0:0:
256,192,41594,1,8,0:0:0:0:
256,192,41724,1,8,0:0:0:0:
256,192,41854,1,8,0:0:0:0:
256,192,41985,1,0,0:0:0:0:
256,192,42246,1,8,0:0:0:0:
256,192,42507,1,4,0:0:0:0:
256,192,42637,1,8,0:0:0:0:
256,192,42767,1,8,0:0:0:0:
256,192,43028,1,0,0:0:0:0:
256,192,43289,1,8,0:0:0:0:
256,192,43550,1,0,0:0:0:0:
256,192,43746,1,8,0:0:0:0:
256,192,43941,1,8,0:0:0:0:
256,192,44072,1,8,0:0:0:0:
256,192,44333,1,8,0:0:0:0:
256,192,44594,1,0,0:0:0:0:
256,192,44724,1,8,0:0:0:0:
256,192,44854,1,8,0:0:0:0:
256,192,45115,1,0,0:0:0:0:
256,192,45376,1,8,0:0:0:0:
256,192,45637,1,0,0:0:0:0:
256,192,45811,1,8,0:0:0:0:
256,192,45985,1,8,0:0:0:0:
256,192,46159,1,0,0:0:0:0:
256,192,46333,1,8,0:0:0:0:
256,192,46507,1,8,0:0:0:0:
256,192,46681,1,0,0:0:0:0:
256,192,46811,1,8,0:0:0:0:
256,192,46941,1,8,0:0:0:0:
256,192,47202,1,0,0:0:0:0:
256,192,47463,1,8,0:0:0:0:
256,192,47724,1,0,0:0:0:0:
256,192,47920,1,8,0:0:0:0:
256,192,48115,1,8,0:0:0:0:
256,192,48246,1,8,0:0:0:0:
256,192,48507,1,8,0:0:0:0:
256,192,48768,1,0,0:0:0:0:
256,192,48898,1,8,0:0:0:0:
256,192,49028,1,8,0:0:0:0:
256,192,49289,1,0,0:0:0:0:
256,192,49550,1,8,0:0:0:0:
256,192,49811,1,0,0:0:0:0:
256,192,49876,1,0,0:0:0:0:
256,192,49941,1,0,0:0:0:0:
256,192,50007,1,0,0:0:0:0:
256,192,50072,1,8,0:0:0:0:
256,192,50202,1,0,0:0:0:0:
256,192,50333,1,8,0:0:0:0:
256,192,50463,1,0,0:0:0:0:
256,192,50594,1,8,0:0:0:0:
256,192,50724,1,8,0:0:0:0:
256,192,50854,1,0,0:0:0:0:
256,192,50919,1,0,0:0:0:0:
256,192,50984,1,8,0:0:0:0:
256,192,51049,1,8,0:0:0:0:
256,192,51115,1,8,0:0:0:0:
256,192,51245,1,0,0:0:0:0:
256,192,51310,1,0,0:0:0:0:
256,192,51376,1,8,0:0:0:0:
256,192,51506,1,8,0:0:0:0:
256,192,51636,1,0,0:0:0:0:
256,192,51897,1,8,0:0:0:0:
256,192,52028,1,8,0:0:0:0:
256,192,52158,1,0,0:0:0:0:
256,192,52223,1,0,0:0:0:0:
256,192,52289,1,8,0:0:0:0:
256,192,52354,1,8,0:0:0:0:
256,192,52419,1,0,0:0:0:0:
256,192,52680,1,8,0:0:0:0:
256,192,52941,1,0,0:0:0:0:
256,192,53006,1,0,0:0:0:0:
256,192,53071,1,8,0:0:0:0:
256,192,53136,1,8,0:0:0:0:
256,192,53202,1,8,0:0:0:0:
256,192,53267,1,8,0:0:0:0:
256,192,53332,1,0,0:0:0:0:
256,192,53462,1,8,0:0:0:0:
256,192,53593,1,8,0:0:0:0:
256,192,53723,1,0,0:0:0:0:
256,192,53984,1,8,0:0:0:0:
256,192,54245,1,0,0:0:0:0:
256,192,54310,1,0,0:0:0:0:
256,192,54376,1,8,0:0:0:0:
256,192,54441,1,8,0:0:0:0:
256,192,54506,1,0,0:0:0:0:
256,192,54636,1,8,0:0:0:0:
256,192,54767,1,0,0:0:0:0:
256,192,54897,1,8,0:0:0:0:
256,192,55028,1,0,0:0:0:0:
256,192,55093,1,0,0:0:0:0:
256,192,55158,1,8,0:0:0:0:
256,192,55223,1,8,0:0:0:0:
256,192,55289,1,8,0:0:0:0:
256,192,55419,1,0,0:0:0:0:
256,192,55484,1,0,0:0:0:0:
256,192,55550,1,8,0:0:0:0:
256,192,55680,1,8,0:0:0:0:
256,192,55810,1,0,0:0:0:0:
256,192,56071,1,8,0:0:0:0:
256,192,56202,1,8,0:0:0:0:
256,192,56332,1,0,0:0:0:0:
256,192,56397,1,0,0:0:0:0:
256,192,56463,1,8,0:0:0:0:
256,192,56528,1,8,0:0:0:0:
256,192,56593,1,0,0:0:0:0:
256,192,56854,1,8,0:0:0:0:
256,192,57115,1,0,0:0:0:0:
256,192,57181,1,0,0:0:0:0:
256,192,57245,1,8,0:0:0:0:
256,192,57310,1,8,0:0:0:0:
256,192,57376,1,0,0:0:0:0:
256,192,57441,1,8,0:0:0:0:
256,192,57507,1,0,0:0:0:0:
256,192,57572,1,0,0:0:0:0:
256,192,57637,1,8,0:0:0:0:
256,192,57702,1,8,0:0:0:0:
256,192,57767,1,8,0:0:0:0:
256,192,57833,1,8,0:0:0:0:
256,192,57898,1,0,0:0:0:0:
256,192,57963,1,0,0:0:0:0:
256,192,58028,1,8,0:0:0:0:
256,192,58094,1,8,0:0:0:0:
256,192,58159,1,0,0:0:0:0:
256,192,58420,1,0,0:0:0:0:
256,192,58485,1,0,0:0:0:0:
256,192,58550,1,0,0:0:0:0:
256,192,58615,1,0,0:0:0:0:
256,192,58681,1,0,0:0:0:0:
256,192,58941,1,8,0:0:0:0:
256,192,59202,1,4,0:0:0:0:
256,192,59333,1,8,0:0:0:0:
256,192,59398,1,8,0:0:0:0:
256,192,59463,1,0,0:0:0:0:
256,192,59594,1,8,0:0:0:0:
256,192,59724,1,0,0:0:0:0:
256,192,59789,1,0,0:0:0:0:
256,192,59854,1,8,0:0:0:0:
256,192,59985,1,0,0:0:0:0:
256,192,60050,1,0,0:0:0:0:
256,192,60115,1,0,0:0:0:0:
256,192,60181,1,8,0:0:0:0:
256,192,60246,1,0,0:0:0:0:
256,192,60441,1,8,0:0:0:0:
256,192,60507,1,0,0:0:0:0:
256,192,60637,1,8,0:0:0:0:
256,192,60767,1,0,0:0:0:0:
256,192,60898,1,8,0:0:0:0:
256,192,60963,1,8,0:0:0:0:
256,192,61028,1,0,0:0:0:0:
256,192,61159,1,8,0:0:0:0:
256,192,61289,1,0,0:0:0:0:
256,192,61354,1,8,0:0:0:0:
256,192,61420,1,0,0:0:0:0:
256,192,61485,1,0,0:0:0:0:
256,192,61550,1,8,0:0:0:0:
256,192,61681,1,0,0:0:0:0:
256,192,61746,1,8,0:0:0:0:
256,192,61811,1,0,0:0:0:0:
256,192,61941,1,8,0:0:0:0:
256,192,62072,1,0,0:0:0:0:
256,192,62137,1,0,0:0:0:0:
256,192,62202,1,0,0:0:0:0:
256,192,62267,1,8,0:0:0:0:
256,192,62333,1,0,0:0:0:0:
256,192,62463,1,8,0:0:0:0:
256,192,62594,1,0,0:0:0:0:
256,192,62659,1,8,0:0:0:0:
256,192,62724,1,8,0:0:0:0:
256,192,62789,1,8,0:0:0:0:
256,192,62854,1,0,0:0:0:0:
256,192,62985,1,8,0:0:0:0:
256,192,63115,1,0,0:0:0:0:
256,192,63181,1,0,0:0:0:0:
256,192,63246,1,8,0:0:0:0:
256,192,63311,1,8,0:0:0:0:
256,192,63376,1,0,0:0:0:0:
256,192,63507,1,8,0:0:0:0:
256,192,63572,1,8,0:0:0:0:
256,192,63637,1,0,0:0:0:0:
256,192,63767,1,8,0:0:0:0:
256,192,63898,1,0,0:0:0:0:
256,192,63963,1,0,0:0:0:0:
256,192,64028,1,8,0:0:0:0:
256,192,64159,1,0,0:0:0:0:
256,192,64224,1,0,0:0:0:0:
256,192,64289,1,8,0:0:0:0:
256,192,64354,1,8,0:0:0:0:
256,192,64420,1,0,0:0:0:0:
256,192,64615,1,8,0:0:0:0:
256,192,64681,1,0,0:0:0:0:
256,192,64811,1,8,0:0:0:0:
256,192,64941,1,0,0:0:0:0:
256,192,65072,1,8,0:0:0:0:
256,192,65137,1,8,0:0:0:0:
256,192,65202,1,0,0:0:0:0:
256,192,65267,1,8,0:0:0:0:
256,192,65333,1,0,0:0:0:0:
256,192,65398,1,0,0:0:0:0:
256,192,65463,1,8,0:0:0:0:
256,192,65594,1,0,0:0:0:0:
256,192,65659,1,0,0:0:0:0:
256,192,65724,1,8,0:0:0:0:
256,192,65854,1,0,0:0:0:0:
256,192,65985,1,8,0:0:0:0:
256,192,66050,1,8,0:0:0:0:
256,192,66115,1,0,0:0:0:0:
256,192,66181,1,0,0:0:0:0:
256,192,66246,1,8,0:0:0:0:
256,192,66376,1,0,0:0:0:0:
256,192,66441,1,0,0:0:0:0:
256,192,66507,1,8,0:0:0:0:
256,192,66637,1,0,0:0:0:0:
256,192,66702,1,8,0:0:0:0:
256,192,66767,1,0,0:0:0:0:
256,192,66833,1,0,0:0:0:0:
256,192,66898,1,8,0:0:0:0:
256,192,66963,1,8,0:0:0:0:
256,192,67028,1,0,0:0:0:0:
256,192,67289,1,8,0:0:0:0:
256,192,67550,1,4,0:0:0:0:
256,192,67681,1,8,0:0:0:0:
256,192,67746,1,8,0:0:0:0:
256,192,67811,1,0,0:0:0:0:
256,192,67941,1,8,0:0:0:0:
256,192,68072,1,0,0:0:0:0:
256,192,68137,1,8,0:0:0:0:
256,192,68202,1,0,0:0:0:0:
256,192,68267,1,0,0:0:0:0:
256,192,68333,1,8,0:0:0:0:
256,192,68398,1,8,0:0:0:0:
256,192,68463,1,8,0:0:0:0:
256,192,68528,1,8,0:0:0:0:
256,192,68594,1,0,0:0:0:0:
256,192,68789,1,8,0:0:0:0:
256,192,68854,1,0,0:0:0:0:
256,192,68985,1,8,0:0:0:0:
256,192,69115,1,0,0:0:0:0:
256,192,69246,1,8,0:0:0:0:
256,192,69311,1,8,0:0:0:0:
256,192,69376,1,0,0:0:0:0:
256,192,69507,1,8,0:0:0:0:
256,192,69637,1,0,0:0:0:0:
256,192,69702,1,0,0:0:0:0:
256,192,69767,1,0,0:0:0:0:
256,192,69833,1,8,0:0:0:0:
256,192,69898,1,0,0:0:0:0:
256,192,70028,1,0,0:0:0:0:
256,192,70094,1,0,0:0:0:0:
256,192,70159,1,8,0:0:0:0:
256,192,70289,1,0,0:0:0:0:
256,192,70354,1,0,0:0:0:0:
256,192,70420,1,0,0:0:0:0:
256,192,70485,1,8,0:0:0:0:
256,192,70550,1,0,0:0:0:0:
256,192,70615,1,0,0:0:0:0:
256,192,70681,1,8,0:0:0:0:
256,192,70811,1,8,0:0:0:0:
256,192,70876,1,8,0:0:0:0:
256,192,70941,1,0,0:0:0:0:
256,192,71072,1,8,0:0:0:0:
256,192,71202,1,0,0:0:0:0:
256,192,71333,1,8,0:0:0:0:
256,192,71463,1,0,0:0:0:0:
256,192,71528,1,0,0:0:0:0:
256,192,71594,1,8,0:0:0:0:
256,192,71659,1,8,0:0:0:0:
256,192,71724,1,0,0:0:0:0:
256,192,71854,1,8,0:0:0:0:
256,192,71920,1,8,0:0:0:0:
256,192,71985,1,0,0:0:0:0:
256,192,72115,1,8,0:0:0:0:
256,192,72246,1,0,0:0:0:0:
256,192,72311,1,0,0:0:0:0:
256,192,72376,1,0,0:0:0:0:
256,192,72441,1,8,0:0:0:0:
256,192,72507,1,0,0:0:0:0:
256,192,72637,1,8,0:0:0:0:
256,192,72702,1,8,0:0:0:0:
256,192,72767,1,0,0:0:0:0:
256,192,72963,1,8,0:0:0:0:
256,192,73028,1,0,0:0:0:0:
256,192,73159,1,8,0:0:0:0:
256,192,73289,1,0,0:0:0:0:
256,192,73354,1,0,0:0:0:0:
256,192,73420,1,8,0:0:0:0:
256,192,73485,1,8,0:0:0:0:
256,192,73550,1,0,0:0:0:0:
256,192,73615,1,8,0:0:0:0:
256,192,73681,1,0,0:0:0:0:
256,192,73746,1,0,0:0:0:0:
256,192,73811,1,0,0:0:0:0:
256,192,73941,1,8,0:0:0:0:
256,192,74007,1,8,0:0:0:0:
256,192,74072,1,0,0:0:0:0:
256,192,74202,1,8,0:0:0:0:
256,192,74333,1,0,0:0:0:0:
256,192,74398,1,0,0:0:0:0:
256,192,74463,1,0,0:0:0:0:
256,192,74528,1,8,0:0:0:0:
256,192,74594,1,0,0:0:0:0:
256,192,74724,1,8,0:0:0:0:
256,192,74854,1,8,0:0:0:0:
256,192,74985,1,0,0:0:0:0:
256,192,75115,1,8,0:0:0:0:
256,192,75181,1,8,0:0:0:0:
256,192,75246,1,0,0:0:0:0:
256,192,75376,1,8,0:0:0:0:
256,192,75637,1,0,0:0:0:0:
256,192,75898,1,4,0:0:0:0:
256,192,76159,1,8,0:0:0:0:
256,192,76420,1,8,0:0:0:0:
256,192,76681,1,8,0:0:0:0:
256,192,76941,1,8,0:0:0:0:
256,192,77202,1,8,0:0:0:0:
256,192,77333,1,8,0:0:0:0:
256,192,77463,1,8,0:0:0:0:
256,192,77724,1,8,0:0:0:0:
256,192,77985,1,8,0:0:0:0:
256,192,78115,1,8,0:0:0:0:
256,192,78246,1,8,0:0:0:0:
256,192,78507,1,8,0:0:0:0:
256,192,78767,1,8,0:0:0:0:
256,192,79028,1,8,0:0:0:0:
256,192,79289,1,8,0:0:0:0:
256,192,79420,1,8,0:0:0:0:
256,192,79550,1,8,0:0:0:0:
256,192,79811,1,8,0:0:0:0:
256,192,80072,1,8,0:0:0:0:
256,192,80202,1,8,0:0:0:0:
256,192,80333,1,8,0:0:0:0:
256,192,80594,1,8,0:0:0:0:
256,192,80854,1,8,0:0:0:0:
256,192,81115,1,8,0:0:0:0:
256,192,81376,1,8,0:0:0:0:
256,192,81507,1,8,0:0:0:0:
256,192,81637,1,8,0:0:0:0:
256,192,81898,1,8,0:0:0:0:
256,192,82159,1,8,0:0:0:0:
256,192,82289,1,8,0:0:0:0:
256,192,82420,1,8,0:0:0:0:
256,192,82681,1,8,0:0:0:0:
256,192,82941,1,8,0:0:0:0:
256,192,83202,1,8,0:0:0:0:
256,192,83289,1,8,0:0:0:0:
256,192,83376,1,0,0:0:0:0:
256,192,83463,1,8,0:0:0:0:
256,192,83550,1,0,0:0:0:0:
256,192,83637,1,0,0:0:0:0:
256,192,83724,1,8,0:0:0:0:
256,192,83811,1,8,0:0:0:0:
256,192,83898,1,0,0:0:0:0:
256,192,83985,1,8,0:0:0:0:
256,192,84072,1,0,0:0:0:0:
256,192,84159,1,0,0:0:0:0:
256,192,84246,1,8,0:0:0:0:
256,192,84637,1,0,0:0:0:0:
256,192,84767,1,8,0:0:0:0:
256,192,85028,1,0,0:0:0:0:
256,192,85289,1,8,0:0:0:0:
256,192,85550,1,0,0:0:0:0:
256,192,85811,1,0,0:0:0:0:
256,192,86072,1,8,0:0:0:0:
256,192,86202,1,0,0:0:0:0:
256,192,86267,1,0,0:0:0:0:
256,192,86333,1,8,0:0:0:0:
256,192,86724,1,8,0:0:0:0:
256,192,86854,1,0,0:0:0:0:
256,192,87115,1,8,0:0:0:0:
256,192,87376,1,0,0:0:0:0:
256,192,87637,1,8,0:0:0:0:
256,192,87898,1,0,0:0:0:0:
256,192,88028,1,8,0:0:0:0:
256,192,88159,1,8,0:0:0:0:
256,192,88289,1,8,0:0:0:0:
256,192,88354,1,8,0:0:0:0:
256,192,88420,1,0,0:0:0:0:
256,192,88811,1,8,0:0:0:0:
256,192,88941,1,0,0:0:0:0:
256,192,89202,1,8,0:0:0:0:
256,192,89463,1,0,0:0:0:0:
256,192,89724,1,8,0:0:0:0:
256,192,89985,1,8,0:0:0:0:
256,192,90246,1,0,0:0:0:0:
256,192,90311,1,0,0:0:0:0:
256,192,90376,1,0,0:0:0:0:
256,192,90441,1,0,0:0:0:0:
256,192,90507,1,8,0:0:0:0:
256,192,90898,1,8,0:0:0:0:
256,192,91028,1,0,0:0:0:0:
256,192,91289,1,8,0:0:0:0:
256,192,91420,1,0,0:0:0:0:
256,192,91550,1,8,0:0:0:0:
256,192,91681,1,8,0:0:0:0:
256,192,91811,1,0,0:0:0:0:
256,192,91941,1,8,0:0:0:0:
256,192,92072,1,0,0:0:0:0:
256,192,92137,1,0,0:0:0:0:
256,192,92202,1,0,0:0:0:0:
256,192,92333,1,8,0:0:0:0:
256,192,92398,1,8,0:0:0:0:
256,192,92463,1,8,0:0:0:0:
256,192,92528,1,8,0:0:0:0:
256,192,92594,1,0,0:0:0:0:
256,192,92724,1,8,0:0:0:0:
256,192,92789,1,8,0:0:0:0:
256,192,92854,1,0,0:0:0:0:
256,192,92985,1,8,0:0:0:0:
256,192,93115,1,0,0:0:0:0:
256,192,93181,1,0,0:0:0:0:
256,192,93246,1,8,0:0:0:0:
256,192,93376,1,8,0:0:0:0:
256,192,93507,1,0,0:0:0:0:
256,192,93637,1,0,0:0:0:0:
256,192,93767,1,8,0:0:0:0:
256,192,93898,1,0,0:0:0:0:
256,192,93963,1,0,0:0:0:0:
256,192,94028,1,0,0:0:0:0:
256,192,94094,1,8,0:0:0:0:
256,192,94159,1,0,0:0:0:0:
256,192,94289,1,0,0:0:0:0:
256,192,94420,1,8,0:0:0:0:
256,192,94485,1,8,0:0:0:0:
256,192,94550,1,0,0:0:0:0:
256,192,94615,1,0,0:0:0:0:
256,192,94681,1,0,0:0:0:0:
256,192,94746,1,8,0:0:0:0:
256,192,94810,1,0,0:0:0:0:
256,192,94875,1,0,0:0:0:0:
256,192,94941,1,8,0:0:0:0:
256,192,95072,1,0,0:0:0:0:
256,192,95202,1,8,0:0:0:0:
256,192,95333,1,8,0:0:0:0:
256,192,95463,1,0,0:0:0:0:
256,192,95594,1,8,0:0:0:0:
256,192,95659,1,8,0:0:0:0:
256,192,95724,1,0,0:0:0:0:
256,192,95854,1,0,0:0:0:0:
256,192,95985,1,8,0:0:0:0:
256,192,96115,1,0,0:0:0:0:
256,192,96181,1,8,0:0:0:0:
256,192,96246,1,0,0:0:0:0:
256,192,96311,1,0,0:0:0:0:
256,192,96376,1,8,0:0:0:0:
256,192,96441,1,8,0:0:0:0:
256,192,96507,1,0,0:0:0:0:
256,192,96637,1,8,0:0:0:0:
256,192,96767,1,0,0:0:0:0:
256,192,96833,1,0,0:0:0:0:
256,192,96898,1,8,0:0:0:0:
256,192,96963,1,8,0:0:0:0:
256,192,97028,1,8,0:0:0:0:
256,192,97159,1,0,0:0:0:0:
256,192,97224,1,0,0:0:0:0:
256,192,97289,1,8,0:0:0:0:
256,192,97420,1,8,0:0:0:0:
256,192,97550,1,0,0:0:0:0:
256,192,97681,1,8,0:0:0:0:
256,192,97746,1,8,0:0:0:0:
256,192,97811,1,0,0:0:0:0:
256,192,97941,1,8,0:0:0:0:
256,192,98072,1,0,0:0:0:0:
256,192,98137,1,0,0:0:0:0:
256,192,98202,1,8,0:0:0:0:
256,192,98267,1,8,0:0:0:0:
256,192,98333,1,0,0:0:0:0:
256,192,98463,1,0,0:0:0:0:
256,192,98594,1,8,0:0:0:0:
256,192,98659,1,8,0:0:0:0:
256,192,98724,1,0,0:0:0:0:
256,192,98789,1,0,0:0:0:0:
256,192,98854,1,0,0:0:0:0:
256,192,98985,1,8,0:0:0:0:
256,192,99050,1,8,0:0:0:0:
256,192,99115,1,0,0:0:0:0:
256,192,99246,1,8,0:0:0:0:
256,192,99376,1,0,0:0:0:0:
256,192,99441,1,0,0:0:0:0:
256,192,99507,1,8,0:0:0:0:
256,192,99637,1,0,0:0:0:0:
256,192,99767,1,0,0:0:0:0:
256,192,99898,1,8,0:0:0:0:
256,192,100028,1,8,0:0:0:0:
256,192,100159,1,0,0:0:0:0:
256,192,100289,1,8,0:0:0:0:
256,192,100420,1,0,0:0:0:0:
256,192,100681,1,8,0:0:0:0:
256,192,100941,1,4,0:0:0:0:
256,192,101072,1,8,0:0:0:0:
256,192,101137,1,8,0:0:0:0:
256,192,101202,1,0,0:0:0:0:
256,192,101333,1,8,0:0:0:0:
256,192,101463,1,0,0:0:0:0:
256,192,101724,1,8,0:0:0:0:
256,192,101985,1,0,0:0:0:0:
256,192,102246,1,8,0:0:0:0:
256,192,102376,1,8,0:0:0:0:
256,192,102507,1,0,0:0:0:0:
256,192,102767,1,8,0:0:0:0:
256,192,103028,1,0,0:0:0:0:
256,192,103094,1,0,0:0:0:0:
256,192,103159,1,8,0:0:0:0:
256,192,103224,1,8,0:0:0:0:
256,192,103289,1,0,0:0:0:0:
256,192,103420,1,8,0:0:0:0:
256,192,103550,1,0,0:0:0:0:
256,192,103811,1,8,0:0:0:0:
256,192,104072,1,0,0:0:0:0:
256,192,104333,1,8,0:0:0:0:
256,192,104463,1,8,0:0:0:0:
256,192,104594,1,0,0:0:0:0:
256,192,104854,1,8,0:0:0:0:
256,192,105115,1,0,0:0:0:0:
256,192,105246,1,8,0:0:0:0:
256,192,105311,1,8,0:0:0:0:
256,192,105376,1,0,0:0:0:0:
256,192,105507,1,8,0:0:0:0:
256,192,105637,1,0,0:0:0:0:
256,192,105898,1,8,0:0:0:0:
256,192,106159,1,0,0:0:0:0:
256,192,106420,1,8,0:0:0:0:
256,192,106550,1,8,0:0:0:0:
256,192,106681,1,0,0:0:0:0:
256,192,106941,1,8,0:0:0:0:
256,192,107202,1,0,0:0:0:0:
256,192,107268,1,0,0:0:0:0:
256,192,107333,1,8,0:0:0:0:
256,192,107398,1,8,0:0:0:0:
256,192,107463,1,0,0:0:0:0:
256,192,107594,1,8,0:0:0:0:
256,192,107724,1,0,0:0:0:0:
256,192,107985,1,8,0:0:0:0:
256,192,108246,1,0,0:0:0:0:
256,192,108311,1,0,0:0:0:0:
256,192,108376,1,0,0:0:0:0:
256,192,108442,1,0,0:0:0:0:
256,192,108507,1,8,0:0:0:0:
256,192,108637,1,0,0:0:0:0:
256,192,108768,1,8,0:0:0:0:
256,192,108898,1,0,0:0:0:0:
256,192,109029,1,8,0:0:0:0:
256,192,109159,1,8,0:0:0:0:
256,192,109289,1,4,0:0:0:0:
256,192,109420,1,8,0:0:0:0:
256,192,109485,1,8,0:0:0:0:
256,192,109550,1,0,0:0:0:0:
256,192,109681,1,8,0:0:0:0:
256,192,109811,1,0,0:0:0:0:
256,192,110072,1,8,0:0:0:0:
256,192,110333,1,0,0:0:0:0:
256,192,110594,1,8,0:0:0:0:
256,192,110724,1,8,0:0:0:0:
256,192,110855,1,0,0:0:0:0:
256,192,111115,1,8,0:0:0:0:
256,192,111376,1,0,0:0:0:0:
256,192,111442,1,0,0:0:0:0:
256,192,111507,1,8,0:0:0:0:
256,192,111572,1,8,0:0:0:0:
256,192,111637,1,0,0:0:0:0:
256,192,111768,1,8,0:0:0:0:
256,192,111898,1,0,0:0:0:0:
256,192,112159,1,8,0:0:0:0:
256,192,112420,1,0,0:0:0:0:
256,192,112681,1,8,0:0:0:0:
256,192,112811,1,8,0:0:0:0:
256,192,112942,1,0,0:0:0:0:
256,192,113202,1,8,0:0:0:0:
256,192,113463,1,0,0:0:0:0:
256,192,113594,1,8,0:0:0:0:
256,192,113659,1,8,0:0:0:0:
256,192,113724,1,0,0:0:0:0:
256,192,113855,1,8,0:0:0:0:
256,192,113985,1,0,0:0:0:0:
256,192,114246,1,8,0:0:0:0:
256,192,114507,1,0,0:0:0:0:
256,192,114768,1,8,0:0:0:0:
256,192,114898,1,8,0:0:0:0:
256,192,115029,1,0,0:0:0:0:
256,192,115289,1,8,0:0:0:0:
256,192,115550,1,0,0:0:0:0:
256,192,115811,1,8,0:0:0:0:
256,192,116072,1,8,0:0:0:0:
256,192,116333,1,0,0:0:0:0:
256,192,116398,1,0,0:0:0:0:
256,192,116463,1,0,0:0:0:0:
256,192,116528,1,0,0:0:0:0:
256,192,116594,1,8,0:0:0:0:
256,192,116724,1,0,0:0:0:0:
256,192,116767,1,0,0:0:0:0:
256,192,116811,1,0,0:0:0:0:
256,192,116854,1,8,0:0:0:0:
256,192,116985,1,0,0:0:0:0:
256,192,117115,1,0,0:0:0:0:
256,192,117246,1,8,0:0:0:0:
256,192,117376,1,0,0:0:0:0:
256,192,117637,1,12,0:0:0:0:
256,192,118028,1,0,0:0:0:0:
256,192,118159,1,8,0:0:0:0:
256,192,118420,1,0,0:0:0:0:
256,192,118681,1,8,0:0:0:0:
256,192,118941,1,0,0:0:0:0:
256,192,119202,1,8,0:0:0:0:
256,192,119463,1,0,0:0:0:0:
256,192,119528,1,0,0:0:0:0:
256,192,119594,1,0,0:0:0:0:
256,192,119659,1,0,0:0:0:0:
256,192,119724,1,8,0:0:0:0:
256,192,120115,1,0,0:0:0:0:
256,192,120246,1,8,0:0:0:0:
256,192,120507,1,0,0:0:0:0:
256,192,120767,1,8,0:0:0:0:
256,192,121028,1,0,0:0:0:0:
256,192,121289,1,8,0:0:0:0:
256,192,121550,1,0,0:0:0:0:
256,192,121615,1,0,0:0:0:0:
256,192,121681,1,0,0:0:0:0:
256,192,121746,1,0,0:0:0:0:
256,192,121811,1,8,0:0:0:0:
256,192,122202,1,0,0:0:0:0:
256,192,122333,1,8,0:0:0:0:
256,192,122594,1,0,0:0:0:0:
256,192,122854,1,8,0:0:0:0:
256,192,122985,1,0,0:0:0:0:
256,192,123115,1,0,0:0:0:0:
256,192,123376,1,8,0:0:0:0:
256,192,123637,1,0,0:0:0:0:
256,192,123702,1,0,0:0:0:0:
256,192,123767,1,0,0:0:0:0:
256,192,123833,1,0,0:0:0:0:
256,192,123898,1,8,0:0:0:0:
256,192,124289,1,0,0:0:0:0:
256,192,124420,1,8,0:0:0:0:
256,192,124681,1,0,0:0:0:0:
256,192,124941,1,8,0:0:0:0:
256,192,125072,1,0,0:0:0:0:
256,192,125202,1,0,0:0:0:0:
256,192,125463,1,0,0:0:0:0:
256,192,125528,1,0,0:0:0:0:
256,192,125594,1,0,0:0:0:0:
256,192,125659,1,0,0:0:0:0:
256,192,125724,1,8,0:0:0:0:
256,192,125789,1,8,0:0:0:0:
256,192,125854,1,8,0:0:0:0:
256,192,125920,1,8,0:0:0:0:
256,192,125985,1,0,0:0:0:0:
256,192,126115,1,8,0:0:0:0:
256,192,126376,1,0,0:0:0:0:
256,192,126507,1,8,0:0:0:0:
256,192,126637,1,0,0:0:0:0:
256,192,126767,1,8,0:0:0:0:
256,192,126833,1,8,0:0:0:0:
256,192,126898,1,8,0:0:0:0:
256,192,126963,1,8,0:0:0:0:
256,192,127028,1,0,0:0:0:0:
256,192,127159,1,8,0:0:0:0:
256,192,127550,1,0,0:0:0:0:
256,192,127811,1,8,0:0:0:0:
256,192,127941,1,8,0:0:0:0:
256,192,128072,1,0,0:0:0:0:
256,192,128202,1,8,0:0:0:0:
256,192,128463,1,8,0:0:0:0:
256,192,128594,1,0,0:0:0:0:
256,192,128985,1,8,0:0:0:0:
256,192,129050,1,8,0:0:0:0:
256,192,129115,1,0,0:0:0:0:
256,192,129376,1,8,0:0:0:0:
256,192,129637,1,0,0:0:0:0:
256,192,129898,1,8,0:0:0:0:
256,192,129963,1,8,0:0:0:0:
256,192,130028,1,8,0:0:0:0:
256,192,130094,1,8,0:0:0:0:
256,192,130159,1,0,0:0:0:0:
256,192,130289,1,8,0:0:0:0:
256,192,130550,1,0,0:0:0:0:
256,192,130681,1,8,0:0:0:0:
256,192,130811,1,0,0:0:0:0:
256,192,130941,1,8,0:0:0:0:
256,192,131007,1,8,0:0:0:0:
256,192,131072,1,8,0:0:0:0:
256,192,131137,1,8,0:0:0:0:
256,192,131202,1,0,0:0:0:0:
256,192,131333,1,8,0:0:0:0:
256,192,131724,1,0,0:0:0:0:
256,192,131985,1,8,0:0:0:0:
256,192,132115,1,8,0:0:0:0:
256,192,132246,1,0,0:0:0:0:
256,192,132376,1,8,0:0:0:0:
256,192,132637,1,8,0:0:0:0:
256,192,132768,1,0,0:0:0:0:
256,192,133289,1,0,0:0:0:0:
256,192,133550,1,8,0:0:0:0:
256,192,133811,1,0,0:0:0:0:
256,192,134333,1,4,0:0:0:0:
256,192,134724,1,8,0:0:0:0:
256,192,134854,1,0,0:0:0:0:
256,192,135115,1,8,0:0:0:0:
256,192,135376,1,0,0:0:0:0:
256,192,135637,1,8,0:0:0:0:
256,192,135767,1,8,0:0:0:0:
256,192,135898,1,0,0:0:0:0:
256,192,136159,1,8,0:0:0:0:
256,192,136420,1,0,0:0:0:0:
256,192,136811,1,8,0:0:0:0:
256,192,136941,1,0,0:0:0:0:
256,192,137202,1,8,0:0:0:0:
256,192,137463,1,0,0:0:0:0:
256,192,137724,1,8,0:0:0:0:
256,192,137985,1,0,0:0:0:0:
256,192,138115,1,0,0:0:0:0:
256,192,138246,1,8,0:0:0:0:
256,192,138507,1,0,0:0:0:0:
256,192,138898,1,8,0:0:0:0:
256,192,139028,1,0,0:0:0:0:
256,192,139289,1,8,0:0:0:0:
256,192,139550,1,0,0:0:0:0:
256,192,139811,1,8,0:0:0:0:
256,192,139941,1,8,0:0:0:0:
256,192,140072,1,0,0:0:0:0:
256,192,140333,1,8,0:0:0:0:
256,192,140594,1,0,0:0:0:0:
256,192,140985,1,8,0:0:0:0:
256,192,141115,1,0,0:0:0:0:
256,192,141376,1,8,0:0:0:0:
256,192,141637,1,0,0:0:0:0:
256,192,141702,1,0,0:0:0:0:
256,192,141767,1,0,0:0:0:0:
256,192,141833,1,0,0:0:0:0:
256,192,141898,1,8,0:0:0:0:
256,192,142028,1,0,0:0:0:0:
256,192,142159,1,8,0:0:0:0:
256,192,142289,1,0,0:0:0:0:
256,192,142420,1,8,0:0:0:0:
256,192,142550,1,8,0:0:0:0:
256,192,142681,1,4,0:0:0:0:
256,192,142941,1,0,0:0:0:0:
256,192,143202,1,8,0:0:0:0:
256,192,143463,1,8,0:0:0:0:
256,192,143724,1,0,0:0:0:0:
256,192,143985,1,0,0:0:0:0:
256,192,144115,1,8,0:0:0:0:
256,192,144246,1,0,0:0:0:0:
256,192,144507,1,8,0:0:0:0:
256,192,144767,1,0,0:0:0:0:
256,192,145028,1,0,0:0:0:0:
256,192,145289,1,8,0:0:0:0:
256,192,145550,1,0,0:0:0:0:
256,192,145681,1,0,0:0:0:0:
256,192,145811,1,8,0:0:0:0:
256,192,145941,1,8,0:0:0:0:
256,192,146072,1,0,0:0:0:0:
256,192,146333,1,8,0:0:0:0:
256,192,146594,1,0,0:0:0:0:
256,192,146854,1,0,0:0:0:0:
256,160,146985,1,0,0:0:0:0:
256,192,147115,1,8,0:0:0:0:
256,192,147246,1,8,0:0:0:0:
256,192,147376,1,0,0:0:0:0:
256,192,147507,1,0,0:0:0:0:
256,192,147637,1,8,0:0:0:0:
256,192,147767,1,8,0:0:0:0:
256,192,147898,1,0,0:0:0:0:
256,192,148028,1,8,0:0:0:0:
256,192,148159,1,0,0:0:0:0:
256,192,148289,1,0,0:0:0:0:
256,192,148420,1,8,0:0:0:0:
256,192,148550,1,8,0:0:0:0:
256,192,148681,1,0,0:0:0:0:
256,192,148811,1,0,0:0:0:0:
256,192,148941,1,8,0:0:0:0:
256,192,149463,1,8,0:0:0:0:
256,192,149985,1,8,0:0:0:0:
256,192,150246,1,0,0:0:0:0:
256,192,150311,1,0,0:0:0:0:
256,192,150376,1,0,0:0:0:0:
256,192,150441,1,0,0:0:0:0:
256,192,150507,1,0,0:0:0:0:
256,192,150767,1,8,0:0:0:0:
256,192,151028,1,4,0:0:0:0:
256,192,151159,1,8,0:0:0:0:
256,192,151224,1,8,0:0:0:0:
256,192,151289,1,0,0:0:0:0:
256,192,151420,1,8,0:0:0:0:
256,192,151550,1,0,0:0:0:0:
256,192,151615,1,0,0:0:0:0:
256,192,151681,1,0,0:0:0:0:
256,192,151746,1,0,0:0:0:0:
256,192,151811,1,8,0:0:0:0:
256,192,151876,1,8,0:0:0:0:
256,192,151941,1,0,0:0:0:0:
256,192,152007,1,8,0:0:0:0:
256,192,152072,1,0,0:0:0:0:
256,192,152267,1,8,0:0:0:0:
256,192,152333,1,0,0:0:0:0:
256,192,152463,1,8,0:0:0:0:
256,192,152594,1,0,0:0:0:0:
256,192,152659,1,0,0:0:0:0:
256,192,152724,1,0,0:0:0:0:
256,192,152789,1,8,0:0:0:0:
256,192,152854,1,0,0:0:0:0:
256,192,152985,1,8,0:0:0:0:
256,192,153115,1,0,0:0:0:0:
256,192,153246,1,8,0:0:0:0:
256,192,153311,1,8,0:0:0:0:
256,192,153376,1,0,0:0:0:0:
256,192,153507,1,8,0:0:0:0:
256,192,153637,1,0,0:0:0:0:
256,192,153702,1,0,0:0:0:0:
256,192,153767,1,8,0:0:0:0:
256,192,153898,1,0,0:0:0:0:
256,192,153963,1,8,0:0:0:0:
256,192,154028,1,0,0:0:0:0:
256,192,154094,1,0,0:0:0:0:
256,192,154159,1,8,0:0:0:0:
256,192,154354,1,8,0:0:0:0:
256,192,154420,1,0,0:0:0:0:
256,192,154550,1,8,0:0:0:0:
256,192,154681,1,0,0:0:0:0:
256,192,154811,1,8,0:0:0:0:
256,192,154941,1,0,0:0:0:0:
256,192,155007,1,0,0:0:0:0:
256,192,155072,1,8,0:0:0:0:
256,192,155137,1,8,0:0:0:0:
256,192,155202,1,0,0:0:0:0:
256,192,155333,1,8,0:0:0:0:
256,192,155398,1,8,0:0:0:0:
256,192,155463,1,0,0:0:0:0:
256,192,155594,1,8,0:0:0:0:
256,192,155724,1,0,0:0:0:0:
256,192,155789,1,0,0:0:0:0:
256,192,155854,1,8,0:0:0:0:
256,192,155920,1,8,0:0:0:0:
256,192,155985,1,0,0:0:0:0:
256,192,156050,1,8,0:0:0:0:
256,192,156115,1,0,0:0:0:0:
256,192,156181,1,0,0:0:0:0:
256,192,156246,1,8,0:0:0:0:
256,192,156441,1,8,0:0:0:0:
256,192,156507,1,0,0:0:0:0:
256,192,156637,1,8,0:0:0:0:
256,192,156767,1,0,0:0:0:0:
256,192,156898,1,8,0:0:0:0:
256,192,156963,1,8,0:0:0:0:
256,192,157028,1,0,0:0:0:0:
256,192,157159,1,8,0:0:0:0:
256,192,157289,1,0,0:0:0:0:
256,192,157354,1,0,0:0:0:0:
256,192,157420,1,8,0:0:0:0:
256,192,157485,1,8,0:0:0:0:
256,192,157550,1,8,0:0:0:0:
256,192,157681,1,0,0:0:0:0:
256,192,157746,1,0,0:0:0:0:
256,192,157811,1,8,0:0:0:0:
256,192,157941,1,8,0:0:0:0:
256,192,158072,1,0,0:0:0:0:
256,192,158202,1,8,0:0:0:0:
256,192,158267,1,8,0:0:0:0:
256,192,158333,1,0,0:0:0:0:
256,192,158463,1,8,0:0:0:0:
256,192,158594,1,8,0:0:0:0:
256,192,158659,1,8,0:0:0:0:
256,192,158724,1,0,0:0:0:0:
256,192,158789,1,0,0:0:0:0:
256,192,158854,1,0,0:0:0:0:
256,192,159115,1,8,0:0:0:0:
256,192,159376,1,4,0:0:0:0:
256,192,159507,1,8,0:0:0:0:
256,192,159572,1,8,0:0:0:0:
256,192,159637,1,0,0:0:0:0:
256,192,159767,1,8,0:0:0:0:
256,192,159898,1,0,0:0:0:0:
256,192,159963,1,8,0:0:0:0:
256,192,160028,1,0,0:0:0:0:
256,192,160094,1,0,0:0:0:0:
256,192,160159,1,8,0:0:0:0:
256,192,160224,1,8,0:0:0:0:
256,192,160289,1,8,0:0:0:0:
256,192,160354,1,8,0:0:0:0:
256,192,160420,1,0,0:0:0:0:
256,192,160615,1,8,0:0:0:0:
256,192,160681,1,0,0:0:0:0:
256,192,160811,1,8,0:0:0:0:
256,192,160941,1,0,0:0:0:0:
256,192,161072,1,8,0:0:0:0:
256,192,161137,1,8,0:0:0:0:
256,192,161202,1,0,0:0:0:0:
256,192,161333,1,8,0:0:0:0:
256,192,161463,1,0,0:0:0:0:
256,192,161528,1,0,0:0:0:0:
256,192,161594,1,0,0:0:0:0:
256,192,161659,1,8,0:0:0:0:
256,192,161724,1,0,0:0:0:0:
256,192,161854,1,8,0:0:0:0:
256,192,161920,1,8,0:0:0:0:
256,192,161985,1,0,0:0:0:0:
256,192,162115,1,8,0:0:0:0:
256,192,162246,1,0,0:0:0:0:
256,192,162311,1,0,0:0:0:0:
256,192,162376,1,8,0:0:0:0:
256,192,162441,1,8,0:0:0:0:
256,192,162507,1,8,0:0:0:0:
256,192,162637,1,8,0:0:0:0:
256,192,162702,1,8,0:0:0:0:
256,192,162767,1,0,0:0:0:0:
256,192,162898,1,8,0:0:0:0:
256,192,163028,1,0,0:0:0:0:
256,192,163159,1,8,0:0:0:0:
256,192,163289,1,0,0:0:0:0:
256,192,163354,1,0,0:0:0:0:
256,192,163420,1,8,0:0:0:0:
256,192,163485,1,8,0:0:0:0:
256,192,163550,1,0,0:0:0:0:
256,192,163681,1,8,0:0:0:0:
256,192,163746,1,8,0:0:0:0:
256,192,163811,1,0,0:0:0:0:
256,192,163941,1,8,0:0:0:0:
256,192,164072,1,0,0:0:0:0:
256,192,164137,1,0,0:0:0:0:
256,192,164202,1,0,0:0:0:0:
256,192,164267,1,8,0:0:0:0:
256,192,164333,1,0,0:0:0:0:
256,192,164398,1,0,0:0:0:0:
256,192,164463,1,8,0:0:0:0:
256,192,164528,1,8,0:0:0:0:
256,192,164594,1,0,0:0:0:0:
256,192,164789,1,8,0:0:0:0:
256,192,164854,1,0,0:0:0:0:
256,192,164985,1,8,0:0:0:0:
256,192,165115,1,0,0:0:0:0:
256,192,165181,1,0,0:0:0:0:
256,192,165246,1,8,0:0:0:0:
256,192,165376,1,0,0:0:0:0:
256,192,165507,1,8,0:0:0:0:
256,192,165637,1,0,0:0:0:0:
256,192,165702,1,8,0:0:0:0:
256,192,165767,1,0,0:0:0:0:
256,192,165833,1,0,0:0:0:0:
256,192,165898,1,8,0:0:0:0:
256,192,165963,1,8,0:0:0:0:
256,192,166028,1,0,0:0:0:0:
256,192,166094,1,8,0:0:0:0:
256,192,166159,1,0,0:0:0:0:
256,192,166224,1,0,0:0:0:0:
256,192,166289,1,0,0:0:0:0:
256,192,166354,1,8,0:0:0:0:
256,192,166420,1,0,0:0:0:0:
256,192,166485,1,0,0:0:0:0:
256,192,166550,1,8,0:0:0:0:
256,192,166615,1,8,0:0:0:0:
256,192,166681,1,0,0:0:0:0:
256,192,166941,1,8,0:0:0:0:
256,192,167007,1,8,0:0:0:0:
256,192,167072,1,0,0:0:0:0:
256,192,167137,1,0,0:0:0:0:
256,192,167202,1,0,0:0:0:0:
256,192,167463,1,8,0:0:0:0:
256,192,167594,1,8,0:0:0:0:
256,192,167724,1,4,0:0:0:0:
256,192,167854,1,8,0:0:0:0:
256,192,167920,1,8,0:0:0:0:
256,192,167985,1,0,0:0:0:0:
256,192,168115,1,8,0:0:0:0:
256,192,168246,1,0,0:0:0:0:
256,192,168507,1,8,0:0:0:0:
256,192,168637,1,8,0:0:0:0:
256,192,168767,1,0,0:0:0:0:
256,192,168898,1,0,0:0:0:0:
256,192,168963,1,0,0:0:0:0:
256,192,169028,1,8,0:0:0:0:
256,192,169159,1,8,0:0:0:0:
256,192,169289,1,0,0:0:0:0:
256,192,169550,1,8,0:0:0:0:
256,192,169681,1,8,0:0:0:0:
256,192,169811,1,0,0:0:0:0:
256,192,169876,1,8,0:0:0:0:
256,192,169941,1,8,0:0:0:0:
256,192,170007,1,8,0:0:0:0:
256,192,170072,1,0,0:0:0:0:
256,192,170137,1,0,0:0:0:0:
256,192,170202,1,8,0:0:0:0:
256,192,170267,1,8,0:0:0:0:
256,192,170333,1,0,0:0:0:0:
256,192,170398,1,8,0:0:0:0:
256,192,170463,1,0,0:0:0:0:
256,192,170528,1,0,0:0:0:0:
256,192,170594,1,8,0:0:0:0:
256,192,170659,1,8,0:0:0:0:
256,192,170724,1,8,0:0:0:0:
256,192,170789,1,8,0:0:0:0:
256,192,170854,1,0,0:0:0:0:
256,192,170985,1,8,0:0:0:0:
256,192,171050,1,8,0:0:0:0:
256,192,171115,1,0,0:0:0:0:
256,192,171246,1,8,0:0:0:0:
256,192,171376,1,0,0:0:0:0:
256,192,171637,1,8,0:0:0:0:
256,192,171702,1,8,0:0:0:0:
256,192,171767,1,8,0:0:0:0:
256,192,171833,1,8,0:0:0:0:
256,192,171898,1,0,0:0:0:0:
256,192,172028,1,8,0:0:0:0:
256,192,172094,1,8,0:0:0:0:
256,192,172159,1,0,0:0:0:0:
256,192,172289,1,8,0:0:0:0:
256,192,172420,1,0,0:0:0:0:
256,192,172681,1,8,0:0:0:0:
256,192,172811,1,8,0:0:0:0:
256,192,172941,1,0,0:0:0:0:
256,192,173072,1,0,0:0:0:0:
256,192,173137,1,0,0:0:0:0:
256,192,173202,1,8,0:0:0:0:
256,192,173333,1,8,0:0:0:0:
256,192,173463,1,0,0:0:0:0:
256,192,173724,1,8,0:0:0:0:
256,192,173854,1,8,0:0:0:0:
256,192,173985,1,0,0:0:0:0:
256,192,174050,1,0,0:0:0:0:
256,192,174115,1,8,0:0:0:0:
256,192,174181,1,8,0:0:0:0:
256,192,174246,1,0,0:0:0:0:
256,192,174311,1,8,0:0:0:0:
256,192,174376,1,0,0:0:0:0:
256,192,174441,1,0,0:0:0:0:
256,192,174507,1,8,0:0:0:0:
256,192,174572,1,8,0:0:0:0:
256,192,174637,1,8,0:0:0:0:
256,192,174702,1,8,0:0:0:0:
256,192,174767,1,0,0:0:0:0:
256,192,174833,1,0,0:0:0:0:
256,192,174898,1,8,0:0:0:0:
256,192,174963,1,8,0:0:0:0:
256,192,175028,1,0,0:0:0:0:
256,192,175159,1,8,0:0:0:0:
256,192,175224,1,8,0:0:0:0:
256,192,175289,1,0,0:0:0:0:
256,192,175420,1,8,0:0:0:0:
256,192,175550,1,0,0:0:0:0:
256,192,175811,1,8,0:0:0:0:
256,192,176072,1,0,0:0:0:0:
256,192,176137,1,0,0:0:0:0:
256,192,176202,1,8,0:0:0:0:
256,192,176267,1,8,0:0:0:0:
256,192,176333,1,8,0:0:0:0:
256,192,176463,1,0,0:0:0:0:
256,192,176528,1,0,0:0:0:0:
256,192,176594,1,8,0:0:0:0:
256,192,176724,1,8,0:0:0:0:
256,192,176854,1,0,0:0:0:0:
256,192,176985,1,8,0:0:0:0:
256,192,177050,1,8,0:0:0:0:
256,192,177115,1,0,0:0:0:0:
256,192,177246,1,0,0:0:0:0:
256,192,177376,1,8,0:0:0:0:
256,192,177441,1,8,0:0:0:0:
256,192,177507,1,0,0:0:0:0:
256,192,177572,1,0,0:0:0:0:
256,192,177637,1,0,0:0:0:0:
256,192,177767,1,8,0:0:0:0:
256,192,177898,1,8,0:0:0:0:
256,192,178028,1,0,0:0:0:0:
256,192,178159,1,8,0:0:0:0:
256,192,178224,1,8,0:0:0:0:
256,192,178289,1,0,0:0:0:0:
256,192,178354,1,8,0:0:0:0:
256,192,178420,1,0,0:0:0:0:
256,192,178485,1,0,0:0:0:0:
256,192,178550,1,8,0:0:0:0:
256,192,178615,1,8,0:0:0:0:
256,192,178681,1,0,0:0:0:0:
256,192,178746,1,8,0:0:0:0:
256,192,178811,1,0,0:0:0:0:
256,192,178876,1,0,0:0:0:0:
256,192,178941,1,8,0:0:0:0:
256,192,179007,1,8,0:0:0:0:
256,192,179072,1,8,0:0:0:0:
256,192,179137,1,8,0:0:0:0:
256,192,179202,1,0,0:0:0:0:
256,192,179333,1,8,0:0:0:0:
256,192,179398,1,8,0:0:0:0:
256,192,179463,1,0,0:0:0:0:
256,192,179594,1,0,0:0:0:0:
256,192,179724,1,8,0:0:0:0:
256,192,179854,1,8,0:0:0:0:
256,192,179985,1,0,0:0:0:0:
256,192,180050,1,8,0:0:0:0:
256,192,180115,1,0,0:0:0:0:
256,192,180181,1,0,0:0:0:0:
256,192,180246,1,8,0:0:0:0:
256,192,180311,1,8,0:0:0:0:
256,192,180376,1,8,0:0:0:0:
256,192,180441,1,8,0:0:0:0:
256,192,180507,1,0,0:0:0:0:
256,192,180637,1,8,0:0:0:0:
256,192,180702,1,8,0:0:0:0:
256,192,180767,1,0,0:0:0:0:
256,192,180898,1,8,0:0:0:0:
256,192,181028,1,0,0:0:0:0:
256,192,181094,1,0,0:0:0:0:
256,192,181159,1,8,0:0:0:0:
256,192,181289,1,8,0:0:0:0:
256,192,181420,1,0,0:0:0:0:
256,192,181485,1,0,0:0:0:0:
256,192,181550,1,0,0:0:0:0:
256,192,181615,1,8,0:0:0:0:
256,192,181681,1,0,0:0:0:0:
256,192,181811,1,8,0:0:0:0:
256,192,181941,1,0,0:0:0:0:
256,192,182072,1,8,0:0:0:0:
256,192,182137,1,8,0:0:0:0:
256,192,182202,1,8,0:0:0:0:
256,192,182267,1,8,0:0:0:0:
256,192,182333,1,0,0:0:0:0:
256,192,182463,12,0,183246,0:0:0:0:
256,192,183376,5,0,0:0:0:0:
256,192,183441,1,0,0:0:0:0:
256,192,183506,1,0,0:0:0:0:
256,192,183572,1,0,0:0:0:0:
256,192,183637,1,8,0:0:0:0:
256,192,183767,1,0,0:0:0:0:
256,192,183898,1,8,0:0:0:0:
256,192,184159,1,0,0:0:0:0:
256,192,184420,5,8,0:0:0:0:
256,192,184550,1,0,0:0:0:0:
256,192,184615,1,0,0:0:0:0:
256,192,184680,1,8,0:0:0:0:
256,192,184941,1,0,0:0:0:0:
256,192,185202,1,8,0:0:0:0:
256,192,185463,1,0,0:0:0:0:
256,192,185724,1,8,0:0:0:0:
256,192,185854,1,8,0:0:0:0:
256,192,185985,1,0,0:0:0:0:
256,192,186246,1,8,0:0:0:0:
256,192,186311,1,8,0:0:0:0:
256,192,186376,1,8,0:0:0:0:
256,192,186441,1,8,0:0:0:0:
256,192,186506,1,0,0:0:0:0:
256,192,186637,1,8,0:0:0:0:
256,192,186702,1,8,0:0:0:0:
256,192,186767,1,0,0:0:0:0:
256,192,187028,1,8,0:0:0:0:
256,192,187289,1,0,0:0:0:0:
256,192,187419,1,0,0:0:0:0:
256,192,187550,1,8,0:0:0:0:
256,192,187811,1,8,0:0:0:0:
256,192,187941,1,0,0:0:0:0:
256,192,188072,1,8,0:0:0:0:
256,192,188333,1,4,0:0:0:0:
256,192,188594,5,8,0:0:0:0:
256,192,188724,1,0,0:0:0:0:
256,192,188789,1,0,0:0:0:0:
256,192,188854,1,8,0:0:0:0:
256,192,189115,1,0,0:0:0:0:
256,192,189376,1,8,0:0:0:0:
256,192,189637,1,0,0:0:0:0:
256,192,189898,1,8,0:0:0:0:
256,192,190028,1,8,0:0:0:0:
256,192,190159,1,0,0:0:0:0:
256,192,190420,1,8,0:0:0:0:
256,192,190485,1,8,0:0:0:0:
256,192,190550,1,8,0:0:0:0:
256,192,190615,1,8,0:0:0:0:
256,192,190680,1,0,0:0:0:0:
256,192,190811,1,8,0:0:0:0:
256,192,190876,1,8,0:0:0:0:
256,192,190941,1,0,0:0:0:0:
256,192,191202,1,8,0:0:0:0:
256,192,191463,1,0,0:0:0:0:
256,192,191593,1,0,0:0:0:0:
256,192,191724,1,8,0:0:0:0:
256,192,191985,1,8,0:0:0:0:
256,192,192115,1,0,0:0:0:0:
256,192,192246,1,12,0:0:0:0:
256,192,192507,1,4,0:0:0:0:
256,192,192767,1,0,0:0:0:0:
256,192,192832,1,0,0:0:0:0:
256,192,192897,1,8,0:0:0:0:
256,192,192962,1,8,0:0:0:0:
256,192,193028,1,8,0:0:0:0:
256,192,193158,1,0,0:0:0:0:
256,192,193223,1,0,0:0:0:0:
256,192,193289,1,8,0:0:0:0:
256,192,193419,1,8,0:0:0:0:
256,192,193549,1,0,0:0:0:0:
256,192,193810,1,8,0:0:0:0:
256,192,193941,1,8,0:0:0:0:
256,192,194071,1,0,0:0:0:0:
256,192,194136,1,0,0:0:0:0:
256,192,194202,1,8,0:0:0:0:
256,192,194267,1,8,0:0:0:0:
256,192,194332,1,0,0:0:0:0:
256,192,194593,1,8,0:0:0:0:
256,192,194854,1,0,0:0:0:0:
256,192,194919,1,0,0:0:0:0:
256,192,194984,1,8,0:0:0:0:
256,192,195049,1,8,0:0:0:0:
256,192,195115,1,8,0:0:0:0:
256,192,195180,1,8,0:0:0:0:
256,192,195245,1,0,0:0:0:0:
256,192,195375,1,8,0:0:0:0:
256,192,195506,1,8,0:0:0:0:
256,192,195636,1,0,0:0:0:0:
256,192,195702,1,0,0:0:0:0:
256,192,195767,1,0,0:0:0:0:
256,192,195833,1,8,0:0:0:0:
256,192,195898,1,0,0:0:0:0:
256,192,196158,1,8,0:0:0:0:
256,192,196223,1,8,0:0:0:0:
256,192,196289,1,0,0:0:0:0:
256,192,196354,1,0,0:0:0:0:
256,192,196419,1,8,0:0:0:0:
256,192,196549,1,0,0:0:0:0:
256,192,196681,1,8,0:0:0:0:
256,192,196746,1,8,0:0:0:0:
256,192,196811,1,0,0:0:0:0:
256,192,196876,1,8,0:0:0:0:
256,192,196941,1,0,0:0:0:0:
256,192,197006,1,0,0:0:0:0:
256,192,197071,1,8,0:0:0:0:
256,192,197136,1,8,0:0:0:0:
256,192,197202,1,8,0:0:0:0:
256,192,197332,1,0,0:0:0:0:
256,192,197397,1,0,0:0:0:0:
256,192,197463,1,8,0:0:0:0:
256,192,197593,1,8,0:0:0:0:
256,192,197723,1,0,0:0:0:0:
256,192,197984,1,8,0:0:0:0:
256,192,198115,1,8,0:0:0:0:
256,192,198245,1,0,0:0:0:0:
256,192,198310,1,0,0:0:0:0:
256,192,198376,1,8,0:0:0:0:
256,192,198441,1,8,0:0:0:0:
256,192,198506,1,0,0:0:0:0:
256,192,198767,1,8,0:0:0:0:
256,192,199028,1,0,0:0:0:0:
256,192,199093,1,0,0:0:0:0:
256,192,199158,1,8,0:0:0:0:
256,192,199223,1,8,0:0:0:0:
256,192,199289,1,8,0:0:0:0:
256,192,199354,1,8,0:0:0:0:
256,192,199419,1,0,0:0:0:0:
256,192,199549,1,8,0:0:0:0:
256,192,199680,1,8,0:0:0:0:
256,192,199810,1,0,0:0:0:0:
256,192,200071,1,0,0:0:0:0:
256,192,200202,1,8,0:0:0:0:
256,192,200332,1,8,0:0:0:0:
256,192,200462,1,8,0:0:0:0:
256,192,200593,1,0,0:0:0:0:
