osu file format v14

[General]
AudioFilename: Yunomi - Mentai Cosmic.mp3
AudioLeadIn: 0
PreviewTime: 16621
Countdown: 0
SampleSet: Soft
StackLeniency: 0.7
Mode: 0
LetterboxInBreaks: 0
WidescreenStoryboard: 0

[Editor]
Bookmarks: 550,17692,34835,51978,69121,86264,103407,120550,137692,154835,169032,189121,206264,223407
DistanceSpacing: 0.6
BeatDivisor: 4
GridSize: 4
TimelineZoom: 8

[Metadata]
Title:Mentai Cosmic
TitleUnicode:めんたいコズミック
Artist:Yunomi
ArtistUnicode:Yunomi
Creator:Sinch
Version:Insane
Source:
Tags:一二花 Nica nasya sinch Rei24
BeatmapID:827952
BeatmapSetID:378264

[Difficulty]
HPDrainRate:6
CircleSize:4
OverallDifficulty:7
ApproachRate:9.2
SliderMultiplier:1.6
SliderTickRate:1

[Events]
//Background and Video events
0,0,"rei24cosmic.jpg",0,0
//Break Periods
2,155035,162837
//Storyboard Layer 0 (Background)
//Storyboard Layer 1 (Fail)
//Storyboard Layer 2 (Pass)
//Storyboard Layer 3 (Foreground)
//Storyboard Sound Samples

[TimingPoints]
550,267.857142857143,4,2,1,70,1,0
550,-100,4,2,10,70,0,0
16621,-133.333333333333,4,2,1,40,0,0
17090,-133.333333333333,4,2,1,5,0,0
17157,-133.333333333333,4,2,1,50,0,0
17558,-133.333333333333,4,2,1,5,0,0
17692,-100,4,2,24,70,0,1
34835,-100,4,2,24,70,0,0
36041,-100,4,2,1,70,0,0
36175,-100,4,2,24,70,0,0
40326,-100,4,2,1,70,0,0
40460,-100,4,2,24,70,0,0
42938,-100,4,2,1,5,0,0
43005,-100,4,2,1,70,0,0
43072,-100,4,2,1,5,0,0
43139,-100,4,2,1,70,0,0
43206,-100,4,2,1,5,0,0
43273,-100,4,2,1,70,0,0
43340,-100,4,2,1,5,0,0
43407,-100,4,2,24,70,0,0
44612,-100,4,2,1,70,0,0
44746,-100,4,2,24,70,0,0
48898,-100,4,2,1,70,0,0
49032,-100,4,2,24,70,0,0
53050,-100,4,2,1,70,0,0
53183,-100,4,2,24,70,0,0
59478,-100,4,2,1,70,0,0
59746,-100,4,1,25,45,0,0
60148,-100,4,2,24,70,0,0
69121,-100,4,2,24,70,0,0
85192,-125,4,2,24,60,0,0
86264,-100,4,2,24,70,0,1
87469,-100,4,2,1,70,0,1
87603,-100,4,2,24,70,0,1
91755,-100,4,2,1,70,0,1
91889,-100,4,2,24,70,0,1
94366,-100,4,2,1,5,0,1
94433,-100,4,2,1,70,0,1
94500,-100,4,2,1,5,0,1
94567,-100,4,2,1,70,0,1
94634,-100,4,2,1,5,0,1
94701,-100,4,2,1,70,0,1
94768,-100,4,2,1,5,0,1
94835,-100,4,2,24,70,0,1
96041,-100,4,2,1,70,0,1
96175,-100,4,2,24,70,0,1
100326,-100,4,2,1,70,0,1
100460,-100,4,2,24,70,0,1
101800,-133.333333333333,4,2,1,70,0,1
103139,-133.333333333333,4,2,24,70,0,1
103228,-133.333333333333,4,2,1,70,0,1
103407,-100,4,2,24,70,0,0
104612,-100,4,2,1,70,0,0
104746,-100,4,2,24,70,0,0
106487,-100,4,2,1,70,0,0
106621,-100,4,2,24,70,0,0
110505,-100,4,2,1,70,0,0
110639,-100,4,2,24,70,0,0
111308,-100,4,2,1,70,0,0
111442,-100,4,2,24,70,0,0
115326,-100,4,2,1,70,0,0
115459,-100,4,2,24,70,0,0
115728,-100,4,2,1,70,0,0
115996,-100,4,2,24,70,0,0
120148,-100,4,2,11,45,0,0
120550,-100,4,2,11,70,0,0
128317,-100,4,2,11,70,0,0
129121,-100,4,2,24,70,0,0
137692,-100,4,2,24,70,0,0
146264,-133.333333333333,4,2,11,70,0,0
146666,-133.333333333333,4,2,11,70,0,0
154300,-200,4,2,1,70,0,0
163407,-200,4,2,24,50,0,0
169835,-66.6666666666667,4,2,24,70,0,0
170570,-66.6666666666667,4,2,1,70,0,0
170773,-66.6666666666667,4,2,24,70,0,0
171175,-66.6666666666667,4,2,1,70,0,0
171978,-100,4,2,24,70,0,1
173183,-100,4,2,1,70,0,1
173317,-100,4,2,24,70,0,1
175460,-100,4,2,1,70,0,1
175594,-100,4,2,24,70,0,1
176130,-100,4,2,1,70,0,1
176264,-100,4,2,24,70,0,1
177603,-100,4,2,1,70,0,1
177737,-100,4,2,24,70,0,1
181755,-100,4,2,1,70,0,1
181889,-100,4,2,24,70,0,1
183898,-100,4,2,1,70,0,1
184166,-100,4,2,24,70,0,1
186175,-100,4,2,1,70,0,1
186308,-100,4,2,24,70,0,1
186978,-100,4,2,1,70,0,1
189121,-100,4,2,24,70,0,0
194545,-100,4,2,24,5,0,0
194612,-100,4,2,24,70,0,0
194679,-100,4,2,24,5,0,0
194746,-100,4,2,24,70,0,0
194813,-100,4,2,24,5,0,0
194880,-100,4,2,24,70,0,0
194947,-100,4,2,24,5,0,0
195014,-100,4,2,24,70,0,0
203116,-100,4,2,24,5,0,0
203183,-100,4,2,24,70,0,0
203250,-100,4,2,24,5,0,0
203317,-100,4,2,24,70,0,0
203384,-100,4,2,24,5,0,0
203451,-100,4,2,24,70,0,0
203518,-100,4,2,24,5,0,0
203585,-100,4,2,24,70,0,0
206264,-100,4,2,11,50,0,0
207335,-133.333333333333,4,2,11,50,0,0
208407,-100,4,2,11,50,0,0
209746,-133.333333333333,4,2,11,50,0,0
210550,-100,4,2,11,50,0,0
211621,-133.333333333333,4,2,11,50,0,0
212692,-100,4,1,11,50,0,0
212759,-100,4,2,11,50,0,0
212826,-100,4,1,11,50,0,0
212893,-100,4,2,11,50,0,0
212960,-100,4,2,11,15,0,0
213094,-100,4,2,11,50,0,0
213228,-100,4,1,11,50,0,0
213295,-100,4,2,11,50,0,0
213362,-100,4,1,11,50,0,0
213429,-100,4,2,11,50,0,0
213496,-100,4,2,11,15,0,0
213630,-100,4,2,11,50,0,0
213764,-133.333333333333,4,1,11,50,0,0
213831,-133.333333333333,4,2,24,50,0,0
214032,-133.333333333333,4,2,11,50,0,0
214835,-133.333333333333,4,2,10,50,0,0
216710,-133.333333333333,4,2,10,5,0,0
216978,-133.333333333333,4,2,10,50,0,0
218853,-133.333333333333,4,2,10,5,0,0
219121,-133.333333333333,4,2,10,50,0,0
220996,-133.333333333333,4,2,10,5,0,0
221264,-133.333333333333,4,2,10,50,0,0
222335,-133.333333333333,4,3,13,15,0,0
222469,-133.333333333333,4,3,12,15,0,0
222737,-133.333333333333,4,3,14,15,0,0
222871,-133.333333333333,4,3,16,15,0,0
223005,-133.333333333333,4,3,14,15,0,0
223139,-133.333333333333,4,3,12,15,0,0
223273,-133.333333333333,4,3,13,15,0,0
223407,-133.333333333333,4,3,15,15,0,0

[HitObjects]
104,156,550,6,0,P|169:113|249:127,1,160,4|0,0:3|0:0,0:0:0:0:
316,184,951,1,0,0:0:0:0:
248,288,1085,2,0,P|236:252|232:200,1,80,2|0,0:0|0:0,0:0:0:0:
392,120,1353,2,0,P|404:156|408:204,1,80
360,316,1621,6,0,L|472:328,1,79.9999999999999,4|0,3:0|0:0,0:0:0:0:
408,197,1889,2,0,L|329:188,1,79.9999999999999
264,336,2157,2,0,P|276:304|280:256,1,79.9999999999999,2|0,0:0|0:0,0:0:0:0:
236,112,2425,2,0,P|224:144|220:192,1,79.9999999999999
192,280,2692,6,0,P|108:288|60:228,1,160,4|0,3:0|0:0,0:0:0:0:
40,148,3094,1,0,0:0:0:0:
40,148,3228,2,0,L|64:60,1,79.9999999999999,2|0,0:0|0:0,0:0:0:0:
156,152,3496,2,0,L|164:248,1,79.9999999999999
328,160,3764,6,0,L|320:72,2,79.9999999999999,4|0|0,3:0|0:0|0:0,0:0:0:0:
412,140,4166,1,0,0:0:0:0:
412,140,4300,2,0,P|452:149|508:180,1,79.9999999999999,2|0,0:0|0:0,0:0:0:0:
364,268,4567,2,0,P|320:260|280:240,1,79.9999999999999
244,136,4835,6,0,P|166:123|96:176,1,160,4|0,3:0|0:0,0:0:0:0:
72,256,5237,1,0,0:0:0:0:
144,312,5371,2,0,P|160:272|164:228,2,79.9999999999999,2|0|0,0:0|0:0|0:0,0:0:0:0:
72,256,5773,1,0,0:0:0:0:
101,167,5907,6,0,P|141:151|193:151,1,79.9999999999999,4|0,3:0|0:0,0:0:0:0:
240,217,6174,2,0,P|200:233|148:233,1,79.9999999999999
16,176,6442,2,0,L|36:92,2,79.9999999999999,2|0|0,0:0|0:0|0:0,0:0:0:0:
0,264,6844,5,0,0:0:0:0:
60,328,6978,2,0,P|104:328|156:300,1,79.9999999999999,4|0,3:0|0:0,0:0:0:0:
204,184,7246,2,0,P|244:184|292:208,1,79.9999999999999
228,264,7514,5,2,0:0:0:0:
148,248,7648,1,0,0:0:0:0:
120,168,7782,1,0,0:0:0:0:
176,104,7916,1,2,0:0:0:0:
228,264,8183,5,0,0:0:0:0:
172,328,8317,1,0,0:0:0:0:
148,248,8451,1,0,0:0:0:0:
256,344,8585,2,0,P|300:340|344:324,1,80,2|0,0:0|0:0,0:0:0:0:
368,192,8853,2,0,P|328:192|288:204,1,80
333,328,9121,6,0,P|413:332|468:264,1,160,6|0,0:0|0:0,0:0:0:0:
512,200,9523,1,0,0:0:0:0:
512,200,9657,2,0,L|500:120,1,80,2|0,0:0|0:0,0:0:0:0:
372,172,9925,2,0,L|384:256,1,80
404,80,10192,6,0,L|316:92,1,80
308,92,10393,1,0,0:0:0:0:
308,92,10460,1,0,0:0:0:0:
152,164,10594,1,0,0:0:0:0:
248,264,10728,6,0,P|256:208|256:168,1,80,2|0,0:0|0:0,0:0:0:0:
256,168,10929,1,0,0:0:0:0:
256,168,10996,1,0,0:0:0:0:
156,288,11130,1,0,0:0:0:0:
316,328,11264,6,0,P|388:332|452:268,1,160
456,160,11666,1,0,0:0:0:0:
456,160,11800,2,0,L|444:72,1,80,2|0,0:0|0:0,0:0:0:0:
352,164,12067,2,0,L|360:252,1,80
316,328,12335,6,0,L|220:340,1,80
220,340,12536,1,0,0:0:0:0:
220,340,12603,1,0,0:0:0:0:
108,184,12737,1,0,0:0:0:0:
64,312,12871,2,0,P|128:300|172:260,1,120,2|0,0:3|0:0,0:0:0:0:
192,248,13139,2,0,L|196:152,1,80,8|0,0:3|0:0,0:0:0:0:
266,72,13407,6,0,P|342:72|390:144,1,160,6|0,0:0|0:0,0:0:0:0:
389,135,13808,1,0,0:0:0:0:
288,236,13942,2,0,L|124:208,1,160,0|0,0:0|0:0,0:0:0:0:
130,209,14344,1,0,0:0:0:0:
184,128,14478,6,0,P|192:88|192:40,1,80
52,260,14746,2,0,P|40:316|40:352,1,80
132,308,15014,2,0,P|208:280|280:308,1,160,2|0,0:0|0:0,0:0:0:0:
277,306,15416,1,0,0:0:0:0:
344,240,15550,6,0,L|356:157,1,80
440,232,15817,2,0,L|428:312,1,80
264,184,16085,2,0,L|276:104,1,80,2|0,0:0|0:0,0:0:0:0:
344,240,16353,5,0,0:0:0:0:
248,276,16487,1,0,0:0:0:0:
168,212,16621,2,2,P|72:216|20:312,1,210.000008010865,0|0,0:0|0:0,1:0:0:0:
20,324,17157,2,2,L|4:140,1,180.000006866455,2|2,2:0|1:0,0:0:0:0:
68,52,17692,6,0,P|107:55|135:82,1,80,2|0,0:0|0:0,0:0:0:0:
248,144,17960,1,0,0:0:0:0:
108,212,18094,1,2,0:0:0:0:
252,264,18228,2,0,P|291:257|324:235,1,80,2|0,0:0|0:0,0:0:0:0:
424,108,18496,6,0,L|435:187,1,80,8|0,0:0|0:0,0:0:0:0:
480,304,18764,1,2,0:0:0:0:
344,184,18898,1,0,0:0:0:0:
312,360,19032,1,2,0:0:0:0:
380,284,19166,1,2,0:0:0:0:
231,331,19300,2,0,P|180:303|123:317,1,120,10|0,0:0|0:0,0:0:0:0:
123,317,19567,2,0,L|94:242,1,80,8|0,0:0|0:0,0:0:0:0:
20,135,19835,6,0,P|88:99|159:130,1,160,2|0,0:0|0:0,0:0:0:0:
220,228,20237,1,2,0:0:0:0:
304,112,20371,2,0,P|248:124|232:152,1,80,2|0,0:0|0:0,0:0:0:0:
400,143,20639,2,0,P|407:105|392:68,1,80,8|0,0:0|0:0,0:0:0:0:
327,207,20907,5,2,3:2:0:0:
292,332,21041,1,0,3:2:0:0:
292,332,21108,1,0,3:2:0:0:
292,332,21175,1,2,3:2:0:0:
184,268,21308,1,2,3:2:0:0:
328,228,21442,1,8,3:2:0:0:
328,228,21509,1,0,3:2:0:0:
328,228,21576,1,0,3:2:0:0:
468,292,21710,5,2,0:0:0:0:
468,292,21844,1,0,0:0:0:0:
467,291,21978,2,0,P|439:264|401:252,1,80,2|0,0:0|0:0,0:0:0:0:
252,324,22246,1,0,0:0:0:0:
236,196,22380,1,2,0:0:0:0:
252,324,22514,2,0,L|172:315,1,80,2|0,0:0|0:0,0:0:0:0:
44,291,22782,6,0,P|50:252|68:217,1,80,8|0,0:0|0:0,0:0:0:0:
197,176,23050,1,2,0:0:0:0:
344,224,23183,1,0,0:0:0:0:
360,44,23317,1,2,0:0:0:0:
124,104,23451,1,2,0:0:0:0:
208,32,23585,2,0,P|232:106|198:176,1,160,8|8,0:0|0:0,0:0:0:0:
198,176,23987,5,0,0:0:0:0:
92,212,24121,1,2,0:0:0:0:
176,288,24255,1,0,0:0:0:0:
176,288,24322,1,0,0:0:0:0:
176,288,24389,2,0,L|255:297,1,80,8|2,0:0|0:0,0:0:0:0:
255,297,24590,1,0,0:0:0:0:
255,297,24657,2,0,L|334:306,1,80,8|0,0:0|0:0,0:0:0:0:
436,359,24925,2,0,P|447:322|444:282,1,80,2|0,0:0|0:0,0:0:0:0:
388,168,25192,5,2,0:0:0:0:
480,108,25326,1,0,0:0:0:0:
480,108,25393,1,8,0:0:0:0:
480,108,25460,2,0,L|400:117,1,80,8|8,0:0|0:0,0:0:0:0:
267,56,25728,2,0,P|255:114|266:172,1,120,2|0,0:0|0:0,0:0:0:0:
284,208,25996,2,0,P|254:258|197:270,1,120,2|0,0:0|0:0,0:0:0:0:
88,236,26264,6,0,L|98:156,1,80,2|0,0:0|0:0,0:0:0:0:
236,72,26532,1,0,0:0:0:0:
60,92,26666,1,2,0:0:0:0:
236,72,26800,2,0,L|225:151,1,80,2|0,0:0|0:0,0:0:0:0:
259,303,27067,6,0,P|262:264|274:226,1,80,8|0,0:0|0:0,0:0:0:0:
492,184,27335,1,2,0:0:0:0:
324,24,27469,1,0,0:0:0:0:
212,224,27603,1,2,0:0:0:0:
280,116,27737,1,2,0:0:0:0:
392,172,27871,2,0,P|407:228|381:281,1,120,8|0,0:0|0:0,0:0:0:0:
381,281,28139,2,0,L|302:288,1,80,8|0,0:0|0:0,0:0:0:0:
188,351,28407,6,0,P|186:273|130:219,1,160,2|0,0:0|0:0,0:0:0:0:
20,196,28808,1,2,0:0:0:0:
120,88,28942,2,0,P|112:126|86:157,1,80,2|0,0:0|0:0,0:0:0:0:
244,120,29210,2,0,P|214:94|200:56,1,80,8|0,0:0|0:0,0:0:0:0:
155,212,29478,5,2,3:2:0:0:
276,176,29612,1,0,3:2:0:0:
276,176,29679,1,0,3:2:0:0:
276,176,29746,1,2,3:2:0:0:
276,288,29880,1,2,3:2:0:0:
168,356,30014,1,8,3:2:0:0:
168,356,30081,1,0,3:2:0:0:
168,356,30148,1,0,3:2:0:0:
296,360,30282,5,2,0:0:0:0:
296,360,30416,1,0,0:0:0:0:
296,360,30550,2,0,L|376:348,1,80,2|0,0:0|0:0,0:0:0:0:
472,244,30817,1,0,0:0:0:0:
296,224,30951,1,2,0:0:0:0:
432,136,31085,2,0,L|425:215,1,80,12|0,0:0|0:0,0:0:0:0:
451,55,31353,6,0,P|412:50|373:58,1,80,8|0,0:0|0:0,0:0:0:0:
288,176,31621,1,2,0:0:0:0:
56,128,31755,1,0,0:0:0:0:
132,344,31889,1,2,0:0:0:0:
172,216,32023,1,2,0:0:0:0:
268,313,32157,2,0,P|325:329|381:311,1,120,12|0,0:0|0:0,0:0:0:0:
382,312,32425,6,0,L|393:233,1,80,8|0,0:0|0:0,0:0:0:0:
432,136,32692,1,2,0:0:0:0:
320,248,32826,1,0,0:0:0:0:
320,248,32893,1,8,0:0:0:0:
319,247,32960,2,0,P|292:220|287:181,1,80,8|2,0:0|0:0,0:0:0:0:
256,36,33228,1,2,0:0:0:0:
180,232,33362,1,2,0:0:0:0:
44,71,33496,2,0,P|83:71|116:92,1,80,4|2,0:0|0:0,0:0:0:0:
168,204,33764,5,0,0:0:0:0:
104,352,34032,1,0,0:0:0:0:
264,332,34300,2,0,L|382:314,1,120,8|0,0:0|0:0,0:0:0:0:
396,327,34567,2,0,P|423:276|409:219,1,120,2|0,0:0|0:0,0:0:0:0:
272,184,34835,6,0,P|344:192|400:120,1,160,6|0,0:0|0:0,0:1:0:0:
280,16,35237,1,8,0:0:0:0:
144,144,35371,2,0,B|128:324,1,160,2|8,0:0|0:0,0:1:0:0:
276,360,35773,1,0,0:0:0:0:
368,212,35907,6,0,P|308:224|272:232,1,80,2|2,0:0|3:2,0:1:0:0:
264,24,36175,2,0,P|225:33|186:41,1,80,0|8,0:0|0:0,0:1:0:0:
24,220,36442,2,0,L|212:179,1,160,2|8,0:0|0:0,0:1:0:0:
264,24,36844,1,0,0:0:0:0:
491,159,36978,6,0,B|320:130,1,160,6|0,0:0|0:0,0:0:0:0:
333,132,37380,1,8,0:0:0:0:
352,332,37514,2,0,L|172:296,1,160,2|8,0:0|0:0,0:0:0:0:
100,144,37916,1,0,0:0:0:0:
316,80,38050,6,0,P|324:144|320:176,1,80,2|8,0:0|0:3,0:0:0:0:
124,339,38317,2,0,P|116:275|120:243,1,80,0|8,0:0|0:3,0:0:0:0:
408,192,38585,2,0,P|364:244|264:232,1,160,2|4,0:0|3:0,0:0:0:0:
117,259,38987,1,0,0:0:0:0:
64,84,39121,6,0,P|168:104|252:120,1,160,6|0,0:0|0:0,0:0:0:0:
356,36,39523,1,8,0:0:0:0:
444,240,39657,2,0,P|365:224|286:209,1,160,2|8,0:0|0:0,0:0:0:0:
168,324,40058,1,0,0:0:0:0:
212,144,40192,6,0,L|224:248,1,80,2|2,0:0|3:2,0:0:0:0:
72,180,40460,2,0,L|60:76,1,80,0|8,0:0|0:0,0:0:0:0:
332,20,40728,2,0,P|364:96|316:184,1,160,2|8,0:0|0:0,0:0:0:0:
136,124,41130,1,0,0:0:0:0:
152,344,41264,6,0,P|204:304|316:328,1,160,6|8,0:0|0:3,0:0:0:0:
416,220,41666,1,8,0:0:0:0:
276,32,41800,2,0,L|256:204,1,160,2|8,0:0|0:0,0:0:0:0:
236,348,42201,1,0,0:0:0:0:
452,252,42335,2,0,P|456:200|436:140,1,80,2|8,0:0|0:3,0:0:0:0:
310,92,42603,2,0,L|206:112,1,80,8|8,0:0|0:3,0:0:0:0:
61,94,42871,6,0,L|70:144,1,40,2|0,0:0|0:0,0:0:0:0:
161,174,43005,2,0,L|170:224,1,40,2|0,0:0|0:0,0:0:0:0:
262,251,43139,2,0,L|271:301,1,40,6|0,0:0|0:0,0:0:0:0:
39,274,43273,1,2,0:0:0:0:
39,274,43340,1,0,0:0:0:0:
39,274,43407,6,0,P|155:278|175:338,1,160,6|0,0:0|0:0,0:0:0:0:
360,296,43808,1,8,0:0:0:0:
288,52,43942,2,0,L|264:212,1,160,2|8,0:0|0:0,0:0:0:0:
240,356,44344,1,0,0:0:0:0:
396,249,44478,6,0,L|390:170,1,80,2|2,0:0|3:2,0:0:0:0:
221,284,44746,2,0,L|228:364,1,80,0|8,0:0|0:0,0:0:0:0:
280,116,45014,2,0,P|200:106|128:178,1,160,2|8,0:0|0:0,0:0:0:0:
12,92,45416,1,0,0:0:0:0:
40,328,45550,6,0,P|104:312|208:284,1,160,6|0,0:0|0:0,0:0:0:0:
340,336,45951,1,8,0:0:0:0:
272,156,46085,2,0,P|194:176|117:196,1,160,2|8,0:0|0:0,0:0:0:0:
0,120,46487,1,0,0:0:0:0:
19,310,46621,6,0,L|117:333,1,80,2|8,0:0|0:3,0:0:0:0:
132,143,46889,2,0,L|232:167,1,80,8|8,0:0|0:3,0:0:0:0:
405,335,47157,2,0,P|350:282|252:297,1,160,2|4,0:0|3:0,0:0:0:0:
121,287,47558,1,0,0:0:0:0:
64,104,47692,6,0,P|152:104|212:52,1,160,6|0,0:0|0:0,0:0:0:0:
364,124,48094,1,0,0:0:0:0:
208,296,48228,2,0,L|368:260,1,160,12|8,0:3|0:0,0:0:0:0:
496,320,48630,1,0,0:0:0:0:
471,109,48764,6,0,L|369:123,1,80,2|2,0:0|3:2,0:0:0:0:
384,298,49032,2,0,L|282:312,1,80,0|8,0:0|0:0,0:0:0:0:
115,139,49300,2,0,P|198:121|267:187,1,160,12|8,0:3|0:0,0:0:0:0:
394,75,49701,1,0,0:0:0:0:
416,336,49835,6,0,B|428:180,1,120,6|8,0:0|0:3,0:0:0:0:
400,164,50103,1,8,0:3:0:0:
281,100,50237,1,8,0:3:0:0:
272,220,50371,6,0,B|284:64,1,120,8|8,0:0|0:3,0:0:0:0:
256,48,50639,1,8,0:3:0:0:
137,16,50773,1,8,0:3:0:0:
124,136,50907,6,0,L|140:-8,2,120,4|4|4,0:3|0:3|0:3,0:0:0:0:
42,249,51442,1,8,0:0:0:0:
42,249,51710,2,2,P|41:292|53:346,1,80,0|0,3:0|3:0,0:1:0:0:
200,348,51978,5,2,0:0:0:0:
200,348,52246,2,0,L|292:336,1,80,0|2,0:0|0:0,0:0:0:0:
140,236,52514,2,0,L|48:248,1,80,2|0,0:0|0:0,0:0:0:0:
20,144,52782,2,0,L|40:52,1,80,2|0,0:0|0:0,0:0:0:0:
252,112,53050,5,0,3:2:0:0:
232,216,53183,1,0,0:0:0:0:
140,148,53317,1,2,0:0:0:0:
256,92,53451,1,0,0:0:0:0:
228,236,53585,2,0,L|212:324,1,80,2|0,0:0|0:0,0:0:0:0:
316,356,53853,2,0,L|404:340,1,80,4|0,2:3|2:3,0:0:0:0:
228,236,54121,5,2,0:0:0:0:
296,160,54255,1,0,0:0:0:0:
360,256,54389,1,0,0:0:0:0:
308,128,54523,1,2,0:0:0:0:
228,234,54657,6,0,L|149:223,1,80,2|0,0:0|0:0,0:0:0:0:
241,83,54925,2,0,L|320:96,1,80,2|0,0:0|0:0,0:0:0:0:
360,256,55192,1,2,0:0:0:0:
444,172,55326,1,0,0:0:0:0:
472,292,55460,1,2,3:0:0:0:
444,172,55594,1,2,0:0:0:0:
333,274,55728,6,0,P|273:270|225:230,1,120,2|0,0:0|0:0,0:0:0:0:
208,260,55996,2,0,L|196:132,1,120,2|0,0:1|0:0,0:0:0:0:
120,220,56264,6,0,L|108:60,1,160,2|0,0:0|0:0,0:0:0:0:
12,172,56666,1,2,0:0:0:0:
208,260,56800,2,0,L|292:244,1,80
186,45,57067,2,0,L|102:61,1,80,2|0,0:0|0:0,0:0:0:0:
136,236,57335,2,0,L|248:212,1,80,2|0,2:3|0:0,0:0:0:0:
488,172,57603,5,2,0:0:0:0:
404,152,57737,1,0,0:0:0:0:
320,136,57871,1,2,0:0:0:0:
252,344,58139,2,0,L|164:324,1,80,8|2,3:0|0:0,0:0:0:0:
36,216,58407,6,0,P|96:164|180:184,1,160,6|0,0:0|0:0,0:0:0:0:
280,264,58808,1,2,0:0:0:0:
344,148,58942,2,0,L|328:64,1,80
432,96,59210,1,2,0:0:0:0:
264,228,59344,1,0,0:0:0:0:
456,304,59478,5,2,1:2:0:0:
368,216,59746,6,0,L|344:228,1,20,2|0,0:1|0:0,0:0:0:0:
264,228,59880,6,0,L|240:240,1,20,2|0,0:1|0:0,0:0:0:0:
160,240,60014,6,0,L|136:252,1,20,2|0,0:1|0:0,0:0:0:0:
328,376,60282,6,0,L|340:284,1,80,2|2,1:0|3:0,0:0:0:0:
300,64,60550,2,0,P|224:64|176:136,1,160,6|0,0:0|0:0,0:0:0:0:
200,264,60951,1,2,0:0:0:0:
338,296,61085,2,0,L|442:284,1,80,2|0,0:0|0:0,0:0:0:0:
340,148,61353,2,0,L|252:160,1,80,2|0,0:0|0:0,0:0:0:0:
56,248,61621,6,0,P|16:192|24:96,1,160,2|2,0:0|0:0,0:0:0:0:
176,60,62023,2,0,P|216:116|208:212,1,160,10|0,0:0|0:0,0:0:0:0:
66,327,62425,2,0,L|56:248,1,80,10|0,0:0|0:0,0:0:0:0:
140,152,62692,5,2,0:0:0:0:
244,204,62826,1,0,0:0:0:0:
160,280,62960,1,0,0:0:0:0:
272,204,63094,1,2,0:0:0:0:
128,120,63228,6,0,L|44:136,1,80,2|0,0:0|0:0,0:0:0:0:
264,312,63496,2,0,L|356:292,1,80,2|8,0:0|0:0,0:0:0:0:
416,208,63764,6,0,L|388:36,1,160,2|8,0:0|0:0,0:0:0:0:
316,116,64166,1,0,0:0:0:0:
480,80,64300,2,0,L|492:160,1,80,2|0,0:0|0:0,0:0:0:0:
412,296,64567,2,0,P|368:280|328:240,1,80,2|2,0:0|0:0,0:0:0:0:
300,144,64835,6,0,L|132:180,1,160
24,140,65237,1,2,0:0:0:0:
98,30,65371,2,0,P|138:98|138:201,1,160,10|2,0:0|0:0,0:0:0:0:
52,288,65773,5,0,0:0:0:0:
176,344,65907,2,0,L|264:324,1,80,2|0,0:0|0:0,0:0:0:0:
143,177,66175,2,0,L|59:193,1,80,2|8,0:0|0:0,0:0:0:0:
40,324,66442,2,0,L|204:288,1,160,2|2,0:0|0:0,0:0:0:0:
316,188,66844,1,0,0:0:0:0:
176,136,66978,5,2,0:0:0:0:
196,289,67112,1,0,0:0:0:0:
232,208,67246,1,0,0:0:0:0:
300,316,67380,1,2,0:0:0:0:
176,336,67514,2,0,L|84:320,1,80,10|0,0:0|0:0,0:0:0:0:
248,160,67782,2,0,L|344:180,1,80,2|8,0:0|2:3,0:0:0:0:
452,88,68050,6,0,L|460:140,1,40,2|0,3:0|0:0,0:0:0:0:
480,252,68183,1,2,3:0:0:0:
480,252,68250,1,2,3:0:0:0:
480,252,68317,2,0,L|464:316,1,40,2|0,0:0|0:0,0:0:0:0:
380,368,68451,5,2,0:0:0:0:
268,272,68585,2,0,P|204:264|152:296,1,120,2|0,3:2|0:0,0:0:0:0:
128,324,68853,2,0,L|40:308,1,80,8|2,3:0|0:0,0:0:0:0:
220,351,69121,2,0,P|238:276|200:207,1,160,2|0,0:0|0:0,0:0:0:0:
120,296,69523,1,0,0:0:0:0:
220,351,69657,2,0,P|297:359|355:308,1,160,2|0,0:0|0:0,0:0:0:0:
324,200,70058,1,0,0:0:0:0:
432,231,70192,2,0,P|439:192|429:154,1,80,2|0,0:0|0:0,0:0:0:0:
360,60,70460,2,0,L|280:68,1,80
280,68,70728,1,2,0:0:0:0:
248,259,70996,6,0,L|264:180,1,80
280,68,71264,2,0,P|230:128|152:136,1,160,2|0,0:0|0:0,0:0:0:0:
180,28,71666,1,0,0:0:0:0:
115,120,71800,2,0,P|93:151|99:190,1,80,2|0,0:0|0:0,0:0:0:0:
224,288,72067,2,0,P|207:252|171:238,1,80,0|0,3:0|3:0,3:0:0:0:
88,280,72335,1,2,0:0:0:0:
88,280,72603,6,0,L|168:280,1,80
264,339,72871,2,0,P|313:307|372:306,1,120,2|0,0:0|0:0,0:0:0:0:
416,312,73139,2,0,L|431:233,1,80
500,124,73407,2,0,L|340:134,1,160,2|0,0:0|0:0,0:0:0:0:
280,24,73808,1,0,0:0:0:0:
260,152,73942,2,0,L|100:136,1,160,2|0,0:0|0:0,0:0:0:0:
172,28,74344,1,0,0:0:0:0:
183,156,74478,2,0,P|172:193|142:219,1,80,2|0,0:0|0:0,0:0:0:0:
48,280,74746,2,0,P|75:308|112:323,1,80
220,296,75014,1,2,0:0:0:0:
220,296,75282,6,0,L|239:218,1,80
420,132,75550,1,2,0:0:0:0:
356,240,75683,1,0,3:0:0:0:
276,60,75817,1,2,0:0:0:0:
220,296,75951,1,0,3:0:0:0:
104,120,76085,2,0,P|162:172|241:182,1,160
241,182,76621,6,0,L|253:103,1,80
224,28,76889,1,0,3:0:0:0:
180,220,77023,1,0,3:0:0:0:
372,160,77157,2,0,L|260:196,1,80,0|0,3:0|0:0,0:0:0:0:
332,344,77425,1,0,3:0:0:0:
296,240,77558,1,0,3:0:0:0:
404,264,77692,5,8,0:0:0:0:
128,344,78228,1,8,0:0:0:0:
200,64,78764,1,8,0:0:0:0:
444,68,79300,1,8,0:0:0:0:
476,200,79567,1,8,0:0:0:0:
476,200,79657,1,8,0:0:0:0:
476,200,79746,1,8,0:0:0:0:
476,200,79835,5,8,0:0:0:0:
228,348,80371,1,8,0:0:0:0:
368,216,80907,1,8,0:0:0:0:
240,76,81442,1,8,0:0:0:0:
112,84,81710,1,8,0:0:0:0:
112,84,81800,1,8,0:0:0:0:
112,84,81889,1,8,0:0:0:0:
112,84,81978,6,0,P|116:128|104:164,1,80,8|0,0:0|0:0,0:0:0:0:
200,144,82246,2,0,P|181:184|153:209,1,80,8|0,0:0|0:0,0:0:0:0:
248,240,82514,2,0,P|211:265|174:273,1,80,8|0,0:0|0:0,0:0:0:0:
240,346,82782,2,0,P|196:350|160:338,1,80,8|0,0:0|0:0,0:0:0:0:
383,359,83050,2,0,P|361:328|363:288,1,80,8|0,0:0|0:0,0:0:0:0:
452,220,83317,1,8,0:0:0:0:
356,232,83451,1,8,0:0:0:0:
260,248,83585,2,0,L|248:168,1,80,8|0,0:0|0:0,0:0:0:0:
328,56,83853,2,0,L|339:135,1,80,8|0,0:0|0:0,0:0:0:0:
368,320,84121,6,0,L|405:357,2,53.3333333333333
324,288,84389,5,0,3:0:0:0:
272,272,84478,5,0,3:0:0:0:
220,276,84567,5,0,3:0:0:0:
172,304,84657,6,0,L|182:356,2,53.3333333333333,0|0|0,3:0|3:0|3:0,3:0:0:0:
124,280,84925,5,0,3:0:0:0:
84,244,85014,5,0,3:0:0:0:
68,192,85103,5,0,3:0:0:0:
88,100,85192,6,0,P|195:119|284:55,1,224,8|0,0:0|0:0,0:0:0:0:
292,40,85728,2,0,L|341:225,1,192
283,323,86264,6,0,L|96:298,1,160,6|0,0:0|0:0,0:0:0:0:
64,88,86666,1,8,0:0:0:0:
352,188,86800,2,0,L|176:164,1,160,2|8,0:0|0:0,0:0:0:0:
28,248,87201,1,0,0:0:0:0:
184,340,87335,5,2,0:0:0:0:
152,144,87469,1,2,3:2:0:0:
308,240,87603,1,0,0:0:0:0:
272,40,87737,1,8,0:0:0:0:
425,153,87871,2,0,P|352:168|240:191,1,160,2|8,0:0|0:0,0:0:0:0:
80,136,88273,1,0,0:0:0:0:
234,331,88407,6,2,L|257:139,1,160,6|0,0:0|0:0,0:1:0:0:
188,16,88808,1,8,0:0:0:0:
90,220,88942,1,2,0:0:0:0:
368,184,89076,2,0,L|384:80,1,80,0|8,0:0|0:0,0:0:0:0:
228,28,89344,1,0,0:0:0:0:
256,288,89478,5,2,0:0:0:0:
86,96,89612,1,0,0:0:0:0:
86,96,89679,1,8,0:3:0:0:
86,96,89746,2,0,L|180:72,1,80,4|8,0:0|0:3,0:0:0:0:
439,240,90014,2,0,L|257:208,1,160,6|4,0:0|3:0,0:0:0:0:
119,296,90416,1,0,0:0:0:0:
167,61,90550,6,0,P|260:52|332:112,1,160,6|0,0:0|0:0,0:0:0:0:
389,240,90951,1,8,0:0:0:0:
192,352,91085,2,0,L|172:180,1,160,2|8,0:0|0:0,0:0:0:0:
220,32,91487,1,0,0:0:0:0:
325,226,91621,5,2,0:0:0:0:
66,132,91755,1,2,3:2:0:0:
291,38,91889,2,0,P|286:114|282:155,1,80
271,309,92157,2,0,P|332:321|405:251,1,160,2|8,0:0|0:0,0:0:0:0:
392,84,92558,1,0,0:0:0:0:
127,179,92692,6,0,B|287:203,1,160,6|8,0:0|0:3,0:0:0:0:
473,171,93094,1,8,0:3:0:0:
333,57,93228,2,0,L|324:160,1,80,2|0,0:0|0:0,0:0:0:0:
158,284,93496,2,0,P|202:270|246:254,1,80,8|0,0:0|0:0,0:0:0:0:
389,287,93764,1,2,0:0:0:0:
198,106,93898,1,8,0:3:0:0:
240,362,94032,1,0,0:0:0:0:
356,127,94166,1,8,0:3:0:0:
126,258,94300,6,0,L|129:303,1,40,2|0,0:0|0:0,0:0:0:0:
231,211,94433,2,0,L|234:264,1,40,2|0,0:0|0:0,0:0:0:0:
330,161,94567,2,0,L|333:219,1,40,6|0,0:0|0:0,0:0:0:0:
194,319,94701,1,2,0:0:0:0:
194,319,94768,1,0,0:0:0:0:
194,319,94835,6,0,L|186:131,1,160,6|0,0:0|0:0,0:0:0:0:
282,0,95237,1,8,0:0:0:0:
451,212,95371,2,0,P|380:173|283:195,1,160,2|8,0:0|0:0,0:0:0:0:
176,288,95773,1,0,0:0:0:0:
244,92,95907,5,2,0:0:0:0:
296,348,96041,1,2,3:2:0:0:
112,242,96175,1,0,0:0:0:0:
385,154,96308,1,8,0:0:0:0:
210,11,96442,2,0,P|202:106|194:180,1,160,2|8,0:0|0:0,0:0:0:0:
261,319,96844,1,0,0:0:0:0:
464,201,96978,6,2,P|389:196|276:212,1,160,2|0,0:0|0:0,0:1:0:0:
118,121,97380,1,10,0:0:0:0:
86,321,97514,2,0,P|149:306|183:297,1,80,2|0,0:0|0:0,0:0:0:0:
336,235,97782,2,0,P|337:194|321:139,1,80,8|0,0:0|0:0,0:0:0:0:
170,18,98050,5,2,0:0:0:0:
62,182,98183,1,0,0:0:0:0:
62,182,98250,1,8,0:3:0:0:
62,182,98317,2,0,L|152:197,1,80,0|8,0:0|0:3,0:0:0:0:
414,300,98585,2,0,L|248:322,1,160,2|4,0:0|3:0,0:0:0:0:
203,129,98987,1,0,0:0:0:0:
496,148,99121,6,0,L|320:172,1,160,6|0,0:0|0:0,0:0:0:0:
216,40,99523,1,8,0:0:0:0:
72,264,99657,2,0,P|124:280|216:200,1,160,12|8,0:3|0:0,0:0:0:0:
296,84,100058,1,0,0:0:0:0:
344,324,100192,5,2,0:0:0:0:
136,144,100326,1,2,3:2:0:0:
192,344,100460,1,0,0:0:0:0:
296,84,100594,1,8,0:0:0:0:
422,310,100728,2,0,L|331:325,1,80,12|0,0:3|0:0,0:0:0:0:
320,28,100996,2,0,L|224:12,1,80,8|0,0:0|0:0,0:0:0:0:
57,146,101264,6,0,P|147:161|241:175,1,160,6|0,0:0|0:0,0:0:0:0:
360,273,101666,1,8,0:0:0:0:
199,319,101800,2,0,L|258:328,1,60.0000022888184,4|0,0:3|0:0,0:0:0:0:
389,140,102067,2,0,L|455:151,1,60.0000022888184,4|8,0:3|0:0,0:0:0:0:
496,312,102335,2,0,P|460:324|424:324,1,60.0000022888184,0|0,3:0|0:0,0:0:0:0:
284,268,102603,2,0,P|248:260|220:256,1,60.0000022888184
68,336,102871,5,8,0:3:0:0:
60,296,102960,1,2,0:0:0:0:
52,256,103050,1,2,0:0:0:0:
44,216,103139,1,4,0:3:0:0:
36,176,103228,1,2,0:0:0:0:
28,136,103317,1,2,0:0:0:0:
20,96,103407,6,0,P|76:44|156:64,1,160,6|0,0:0|0:0,0:0:0:0:
213,171,103808,1,8,0:0:0:0:
213,171,103942,2,0,L|384:137,1,160,2|10,0:0|0:0,0:0:0:0:
467,191,104344,1,0,0:0:0:0:
402,313,104478,6,0,P|386:269|384:233,1,80,2|2,0:0|3:2,0:0:0:0:
427,65,104746,2,0,L|516:89,1,80,0|2,0:0|0:0,0:0:0:0:
467,191,105014,2,0,P|387:212|324:168,1,160,2|8,0:0|0:0,0:0:0:0:
240,105,105416,1,8,0:3:0:0:
177,317,105550,6,0,P|238:269|324:279,1,160,6|0,0:0|0:0,0:0:0:0:
404,341,105951,1,8,0:0:0:0:
477,270,106085,2,0,L|465:181,1,80,2|0,0:0|0:0,0:0:0:0:
403,94,106353,2,0,L|313:107,1,80,2|2,0:0|3:2,0:0:0:0:
234,164,106621,5,2,0:0:0:0:
350,246,106755,1,8,0:3:0:0:
230,315,106889,1,2,0:0:0:0:
350,246,107023,1,2,0:3:0:0:
213,150,107157,2,0,L|230:69,1,80,8|0,0:0|0:0,0:0:0:0:
365,167,107425,2,0,L|349:248,1,80,2|0,0:0|0:0,0:0:0:0:
232,315,107692,6,0,L|75:284,1,160,6|0,0:0|0:0,0:0:0:0:
192,213,108094,1,10,0:0:0:0:
192,213,108228,2,0,L|369:249,1,160,2|8,0:0|0:0,0:0:0:0:
433,198,108630,1,0,0:0:0:0:
351,143,108764,2,0,P|350:101|356:64,1,80,2|0,0:0|0:0,0:0:0:0:
505,253,109032,2,0,P|506:295|500:332,1,80,2|2,0:3|0:0,0:0:0:0:
405,277,109300,2,0,P|334:270|272:335,1,160,0|4,0:0|0:3,0:0:0:0:
274,328,109701,1,0,0:0:0:0:
69,296,109835,6,0,P|147:298|203:239,1,160,2|0,0:0|0:0,0:0:0:0:
240,149,110237,1,2,0:0:0:0:
309,226,110371,2,0,L|391:213,1,80,2|2,0:0|0:0,0:0:0:0:
285,54,110639,2,0,L|184:69,1,80,2|8,0:0|0:0,0:0:0:0:
66,144,110907,5,2,0:0:0:0:
201,242,111041,1,8,0:3:0:0:
136,323,111175,1,0,0:0:0:0:
160,150,111308,1,2,0:3:0:0:
294,255,111442,5,8,0:0:0:0:
330,269,111508,1,0,0:0:0:0:
370,268,111575,1,0,0:0:0:0:
406,250,111642,1,0,0:0:0:0:
431,219,111709,1,6,2:3:0:0:
441,181,111776,1,0,0:0:0:0:
435,142,111843,1,0,0:0:0:0:
415,105,111911,1,0,0:0:0:0:
378,83,111978,6,0,L|212:52,1,160,6|0,0:0|0:0,0:0:0:0:
97,182,112380,1,2,0:0:0:0:
242,303,112514,2,0,P|263:223|252:139,1,160,2|8,0:0|0:0,0:0:0:0:
150,48,112916,1,0,0:0:0:0:
97,182,113050,2,0,L|110:268,1,80,2|0,0:0|0:0,0:0:0:0:
242,303,113317,2,0,L|332:284,1,80,0|2,0:0|0:0,0:0:0:0:
501,248,113585,2,0,P|424:248|368:184,1,160,2|4,0:0|0:3,0:0:0:0:
284,120,113987,5,0,0:0:0:0:
180,130,114121,2,0,L|197:35,1,80,6|0,0:0|0:0,0:0:0:0:
381,111,114389,2,0,L|367:207,1,80,0|2,0:0|0:0,0:0:0:0:
197,270,114657,2,0,P|126:275|72:213,1,160,2|2,0:0|0:0,0:0:0:0:
195,106,115058,1,8,0:0:0:0:
253,342,115192,5,2,0:0:0:0:
348,269,115326,1,2,2:0:0:0:
246,192,115460,1,2,0:0:0:0:
236,320,115594,1,0,0:0:0:0:
364,252,115728,6,0,P|359:205|356:158,1,80,10|0,2:3|0:0,0:0:0:0:
300,52,115996,2,0,P|339:58|385:65,1,80,4|8,0:3|2:3,0:0:0:0:
246,192,116264,2,0,P|166:205|104:149,1,160,6|0,0:0|0:0,0:0:0:0:
32,224,116666,5,2,0:0:0:0:
20,108,116800,2,0,P|84:60|168:80,1,160,8|0,0:0|0:0,0:0:0:0:
246,191,117201,1,0,0:0:0:0:
335,124,117335,2,0,P|328:84|319:29,1,80,2|2,0:0|2:3,0:0:0:0:
139,176,117603,2,0,P|145:215|150:256,1,80,0|2,0:0|0:0,0:0:0:0:
266,337,117871,2,0,P|346:344|411:291,1,160,8|4,0:0|3:0,0:0:0:0:
372,131,118273,1,2,0:0:0:0:
265,170,118407,6,0,P|254:221|252:304,1,120,6|8,0:0|0:3,0:0:0:0:
250,288,118675,1,8,0:3:0:0:
349,237,118808,1,8,0:3:0:0:
372,131,118942,6,0,P|333:95|262:52,1,120,8|8,0:0|0:3,0:0:0:0:
276,59,119210,1,8,0:3:0:0:
265,170,119344,1,8,0:3:0:0:
349,237,119478,6,0,P|398:221|471:181,2,120,4|4|4,0:3|0:3|0:3,0:0:0:0:
251,275,120014,1,8,0:0:0:0:
148,258,120148,2,0,L|133:307,2,40,0|0|0,3:0|3:0|3:0,0:0:0:0:
140,256,120416,5,0,0:0:0:0:
131,251,120550,2,0,P|92:185|118:112,1,160,0|0,3:0|3:0,0:0:0:0:
251,275,120951,1,0,3:0:0:0:
332,120,121085,2,0,L|183:178,1,160,0|0,3:0|3:0,0:0:0:0:
327,327,121621,6,0,P|367:261|443:258,1,160,0|0,3:0|3:0,0:0:0:0:
420,352,122023,1,0,3:0:0:0:
460,264,122157,2,0,L|428:108,1,160,0|0,3:0|3:0,0:0:0:0:
224,44,122692,6,0,L|263:113,1,80,0|0,3:0|0:0,0:0:0:0:
228,288,122960,2,0,L|257:213,1,80,0|0,3:0|3:0,0:0:0:0:
428,168,123228,2,0,L|348:167,1,80,0|0,3:0|0:0,0:0:0:0:
96,200,123496,1,0,3:0:0:0:
96,200,123764,6,0,L|175:200,1,80,0|0,3:0|3:0,0:0:0:0:
344,176,124032,1,0,3:0:0:0:
240,100,124166,1,0,3:0:0:0:
172,208,124300,2,0,P|202:280|265:329,1,160,0|0,3:0|3:0,0:0:0:0:
348,252,124701,1,0,3:0:0:0:
408,360,124835,2,0,L|434:202,1,160,0|0,3:0|3:0,0:0:0:0:
104,24,125371,2,0,L|78:182,1,160,0|0,3:0|3:0,0:0:0:0:
407,359,125907,2,0,P|371:314|313:311,1,120,0|0,3:0|0:0,0:0:0:0:
304,328,126175,2,0,L|224:324,1,80,0|0,3:0|3:0,0:0:0:0:
100,352,126442,5,0,3:0:0:0:
100,352,126576,1,0,0:0:0:0:
100,352,126710,1,0,3:0:0:0:
100,352,126844,1,0,0:0:0:0:
100,352,126978,2,0,L|74:194,1,160,0|0,3:0|3:0,0:0:0:0:
176,272,127380,1,0,3:0:0:0:
176,272,127514,2,0,L|161:193,1,80,0|0,3:0|0:0,0:0:0:0:
252,192,127782,2,0,L|237:113,1,80,0|0,3:0|0:0,0:0:0:0:
224,32,128050,1,0,3:0:0:0:
100,352,128317,6,0,L|118:358,1,20,2|0,0:0|0:0,0:0:0:0:
176,272,128451,6,0,L|194:278,1,20,2|0,0:0|0:0,0:0:0:0:
252,192,128585,6,0,L|270:198,1,20,2|0,0:0|0:0,0:0:0:0:
396,348,128853,6,0,L|320:321,1,80,2|0,0:0|0:0,0:0:0:0:
64,251,129121,2,0,P|100:182|174:159,1,160,2|0,0:0|0:0,0:0:0:0:
368,192,129523,1,0,0:0:0:0:
324,312,129657,2,0,L|245:326,1,80,2|0,0:0|0:0,0:0:0:0:
224,116,129925,2,0,L|145:130,1,80
56,332,130192,5,2,0:0:0:0:
32,92,130326,1,0,0:0:0:0:
228,288,130460,1,0,0:0:0:0:
176,96,130594,1,2,0:0:0:0:
72,216,130728,2,0,L|151:210,1,80
176,96,130996,2,0,L|255:90,1,80,2|0,0:0|0:0,0:0:0:0:
372,32,131264,6,0,P|387:68|383:108,1,80,2|0,0:0|0:0,0:0:0:0:
308,292,131532,2,0,P|292:255|296:215,1,80
472,192,131800,2,0,P|435:207|395:203,1,80,2|0,0:0|0:0,0:0:0:0:
212,127,132068,2,0,P|248:111|288:115,1,80
416,276,132335,2,0,L|256:289,1,160,2|0,0:0|0:0,0:0:0:0:
140,344,132737,1,2,0:0:0:0:
140,344,132871,2,0,L|151:264,1,80
44,196,133139,2,0,L|120:171,1,80,2|0,0:0|0:0,0:0:0:0:
168,52,133407,5,2,0:0:0:0:
216,172,133541,1,0,0:0:0:0:
296,116,133675,1,0,0:0:0:0:
364,204,133808,1,0,0:0:0:0:
451,108,133942,2,0,P|426:161|426:221,1,120,2|0,0:0|0:0,0:0:0:0:
439,276,134210,2,0,P|404:293|364:295,1,80
272,360,134478,2,0,L|113:337,1,160,2|0,0:0|0:0,0:0:0:0:
48,244,134880,1,2,0:0:0:0:
48,244,135014,2,0,L|127:255,1,80
284,232,135282,2,0,L|204:220,1,80,2|0,0:0|0:0,0:0:0:0:
135,88,135550,6,0,P|123:125|131:164,1,80,2|0,0:0|0:0,0:0:0:0:
380,164,135817,2,0,P|388:125|376:88,1,80
256,344,136085,1,2,0:0:0:0:
256,192,136353,5,0,0:0:0:0:
256,40,136621,1,0,3:0:0:0:
256,40,136688,1,0,3:0:0:0:
256,40,136755,1,0,3:0:0:0:
256,40,136822,1,0,3:0:0:0:
256,40,136889,2,0,L|256:120,1,80,0|0,3:0|0:0,0:0:0:0:
255,343,137157,2,0,P|203:315|144:315,1,120,2|0,0:3|0:0,0:0:0:0:
108,328,137425,2,0,L|98:248,1,80,2|0,0:3|0:0,0:0:0:0:
3,139,137692,6,0,P|79:83|163:121,1,160,6|0,0:0|3:0,0:0:0:0:
259,202,138094,1,0,0:0:0:0:
98,285,138228,2,0,P|95:238|90:176,1,80,2|0,0:0|0:0,0:0:0:0:
240,56,138496,2,0,P|288:105|391:95,1,160,0|2,3:0|0:0,0:0:0:0:
490,45,138898,5,0,0:0:0:0:
457,261,139032,2,2,P|404:230|369:198,1,80,0|0,0:0|0:0,0:1:0:0:
209,181,139300,2,2,P|261:151|306:136,1,80,2|0,0:0|0:0,0:1:0:0:
401,6,139567,2,0,P|400:66|390:112,1,80
336,261,139835,6,0,L|152:280,1,160,2|0,0:0|3:0,0:0:0:0:
57,186,140237,1,0,0:0:0:0:
230,53,140371,2,0,P|232:98|236:153,1,80,2|0,0:0|0:0,0:0:0:0:
184,344,140639,2,2,P|182:299|178:244,1,80,0|0,3:0|0:0,0:1:0:0:
350,124,140907,6,0,L|363:314,1,160,2|2,0:0|0:1,0:0:0:0:
184,344,141308,1,0,0:0:0:0:
100,191,141442,2,0,P|172:211|273:214,1,160,2|0,0:1|3:0,0:1:0:0:
434,189,141844,1,0,0:0:0:0:
271,27,141978,6,0,P|260:99|263:132,1,80,2|0,0:0|0:0,0:0:0:0:
273,303,142246,1,0,3:0:0:0:
142,135,142380,1,0,0:0:0:0:
354,176,142514,2,0,P|351:139|346:72,1,80,2|0,0:0|0:0,0:0:0:0:
203,236,142782,2,0,P|206:273|211:340,1,80,0|0,3:0|0:0,0:0:0:0:
436,355,143050,2,0,P|467:312|434:203,1,160,2|2,0:0|0:1,0:0:0:0:
324,100,143451,1,0,0:0:0:0:
241,275,143585,2,0,P|151:288|96:224,1,160,2|0,0:1|3:0,0:0:0:0:
74,96,143987,1,0,0:0:0:0:
244,156,144121,5,2,0:0:0:0:
57,292,144255,1,0,0:0:0:0:
196,366,144389,2,0,L|190:277,1,80,2|0,3:2|0:0,0:0:0:0:
396,228,144657,1,2,0:0:0:0:
176,113,144791,1,0,0:0:0:0:
339,27,144925,2,0,L|332:137,1,80,2|0,3:2|0:0,0:0:0:0:
317,303,145192,6,0,L|322:325,1,20,2|0,0:3|0:0,0:0:0:0:
177,230,145326,1,0,0:0:0:0:
88,158,145460,6,0,L|83:180,1,20,0|0,3:0|0:0,0:0:0:0:
275,62,145594,1,0,3:3:0:0:
139,29,145728,1,0,3:0:0:0:
133,81,145817,1,0,3:0:0:0:
145,133,145907,1,0,3:0:0:0:
174,177,145996,1,0,3:0:0:0:
217,207,146085,1,0,3:0:0:0:
267,225,146175,1,0,3:0:0:0:
320,228,146264,6,0,L|301:360,1,120.000004577637,4|0,3:3|0:0,0:0:0:0:
448,280,146666,1,2,3:2:0:0:
326,101,146800,2,0,L|249:117,1,60.0000022888184
143,258,147067,2,0,L|150:325,1,60.0000022888184,2|0,3:2|0:0,0:0:0:0:
228,185,147335,2,0,P|177:149|103:162,2,120.000004577637,0|2|2,3:2|3:2|3:2,0:0:0:0:
342,297,148139,6,0,P|379:287|404:274,1,60.0000022888184,0|0,3:0|0:0,0:0:0:0:
444,170,148407,1,2,3:2:0:0:
228,277,148675,2,0,L|238:348,2,60.0000022888184,0|2|0,0:0|3:2|0:0,0:0:0:0:
281,166,149210,2,0,L|268:92,1,60.0000022888184,2|0,3:2|0:0,0:0:0:0:
161,221,149478,2,0,P|57:203|19:196,1,120.000004577637,2|0,3:2|3:0,0:0:0:0:
219,16,150014,6,0,L|202:98,1,60.0000022888184,2|0,3:2|0:0,0:0:0:0:
307,102,150282,2,0,L|289:182,1,60.0000022888184
388,205,150550,2,0,L|362:337,1,120.000004577637,2|0,3:2|0:0,0:0:0:0:
227,347,150951,1,2,3:2:0:0:
159,235,151085,2,0,P|102:234|33:279,1,120.000004577637,0|2,0:0|3:2,0:0:0:0:
266,162,151621,6,0,P|257:95|247:28,2,120.000004577637,0|2|2,3:2|3:2|3:2,0:0:0:0:
311,288,152425,2,0,L|301:365,1,60.0000022888184,2|0,3:2|0:0,0:0:0:0:
204,252,152692,6,0,P|174:257|142:268,7,60.0000022888184,2|2|2|2|2|2|2|2,3:2|0:0|0:0|3:2|0:0|0:0|3:2|0:0,0:0:0:0:
86,213,153764,6,0,L|282:229,1,180.000006866455
424,320,154300,6,2,L|300:340,1,120,0|0,0:0|0:0,0:1:0:0:
216,312,154835,5,4,0:1:0:0:
256,196,163407,5,10,0:0:0:0:
240,276,163675,1,8,0:0:0:0:
320,292,163942,1,10,0:0:0:0:
336,212,164210,1,8,0:0:0:0:
256,196,164478,5,10,0:0:0:0:
176,180,164746,1,8,0:0:0:0:
176,180,164880,1,2,0:0:0:0:
176,180,165014,1,10,0:0:0:0:
112,236,165282,5,10,0:0:0:0:
108,260,165371,1,2,0:0:0:0:
104,284,165460,1,2,0:0:0:0:
100,312,165550,1,12,0:0:0:0:
180,296,165817,5,10,0:0:0:0:
256,324,166085,1,8,0:0:0:0:
332,296,166353,1,8,0:0:0:0:
256,324,166621,5,8,0:0:0:0:
256,196,166889,1,8,0:0:0:0:
256,196,167023,1,8,0:0:0:0:
256,196,167157,1,12,0:0:0:0:
332,152,167425,5,8,0:0:0:0:
336,176,167558,1,8,0:0:0:0:
408,228,167692,5,14,0:0:0:0:
412,204,167826,1,0,0:0:0:0:
484,176,167960,1,10,0:0:0:0:
464,100,168094,1,0,0:0:0:0:
404,48,168228,5,12,0:0:0:0:
408,24,168362,1,0,0:0:0:0:
328,40,168496,1,10,0:0:0:0:
252,56,168630,1,0,0:0:0:0:
172,40,168764,5,14,0:0:0:0:
164,64,168898,1,8,0:0:0:0:
72,132,169032,1,2,0:0:0:0:
96,126,169166,1,0,0:0:0:0:
200,176,169300,5,14,0:0:0:0:
183,157,169434,1,0,0:0:0:0:
260,128,169567,5,8,0:0:0:0:
336,104,169701,1,10,0:0:0:0:
420,104,169835,6,0,P|460:112|508:140,2,80.0000030517579,12|8|8,0:0|0:0|0:0,0:0:0:0:
344,128,170103,5,8,0:3:0:0:
288,184,170192,5,8,0:3:0:0:
264,260,170282,5,8,0:3:0:0:
296,336,170371,6,0,P|328:308|352:264,2,80.0000030517579,6|2|2,0:0|0:0|0:0,0:0:0:0:
212,348,170639,5,4,0:3:0:0:
140,316,170728,5,4,0:3:0:0:
124,236,170817,5,2,0:0:0:0:
156,160,170907,5,14,0:0:0:0:
356,224,171175,5,2,0:0:0:0:
212,348,171442,5,2,0:3:0:0:
300,36,171710,5,4,0:3:0:0:
256,192,171978,6,0,P|174:209|94:222,1,160,6|0,0:0|0:0,0:0:0:0:
8,308,172380,1,2,0:0:0:0:
8,128,172514,2,0,P|47:123|88:115,1,80,8|0,0:0|0:0,0:0:0:0:
256,192,172782,5,0,0:0:0:0:
120,320,172916,1,0,0:0:0:0:
264,280,173050,1,2,0:0:0:0:
112,168,173183,1,2,0:0:0:0:
272,80,173317,2,0,L|284:159,1,80,0|2,0:0|0:0,0:0:0:0:
344,344,173585,6,0,P|418:323|439:243,1,160,8|4,0:0|0:3,0:0:0:0:
408,104,173987,1,0,0:0:0:0:
304,185,174121,2,0,P|221:197|142:206,1,160,2|0,0:0|0:0,0:0:0:0:
52,300,174523,1,2,0:0:0:0:
188,352,174657,2,0,P|229:349|277:340,1,80,8|2,0:0|0:0,0:0:0:0:
216,160,174925,2,0,P|177:166|127:172,1,80
9,207,175192,6,2,P|24:169|43:123,1,80,2|0,0:0|0:0,0:0:0:0:
70,7,175460,2,0,P|94:39|124:78,1,80,2|2,0:0|0:0,0:0:0:0:
215,160,175728,1,8,0:0:0:0:
88,256,175862,1,0,0:0:0:0:
244,332,175996,2,0,L|323:311,1,80,8|2,0:3|0:3,0:0:0:0:
479,162,176264,6,0,P|415:117|341:135,1,160,6|0,0:0|0:0,0:0:0:0:
201,245,176666,1,2,0:0:0:0:
152,144,176800,2,0,L|168:47,1,80,8|0,0:0|0:0,0:0:0:0:
341,134,177067,1,0,0:0:0:0:
201,245,177201,1,0,0:0:0:0:
359,323,177335,5,2,0:0:0:0:
308,213,177469,1,0,0:0:0:0:
252,360,177603,1,2,0:0:0:0:
397,338,177737,1,2,0:0:0:0:
308,213,177871,2,0,P|227:202|142:187,1,160,8|4,0:0|0:3,0:0:0:0:
149,188,178273,1,0,0:0:0:0:
61,292,178407,2,0,P|101:299|155:307,1,80,2|0,0:0|0:0,0:0:0:0:
240,217,178675,5,0,0:0:0:0:
274,354,178808,1,2,0:0:0:0:
369,265,178942,2,0,P|361:223|355:185,1,80,8|0,0:0|0:0,0:0:0:0:
344,44,179210,5,2,0:0:0:0:
235,126,179344,1,0,0:0:0:0:
355,186,179478,2,0,P|397:179|433:172,1,80,2|4,0:0|0:3,0:0:0:0:
344,44,179746,6,0,P|298:52|246:60,1,80,2|2,0:3|0:0,0:0:0:0:
70,181,180014,2,0,P|128:184|193:160,1,120,8|0,0:0|0:0,0:0:0:0:
213,149,180282,2,0,P|222:189|226:229,1,80,4|8,0:3|2:3,0:0:0:0:
126,350,180550,2,0,P|118:309|115:265,1,80,6|0,0:0|0:0,0:0:0:0:
121,107,180817,5,0,0:0:0:0:
29,222,180951,1,0,0:0:0:0:
194,299,181085,2,0,P|233:294|273:289,1,80,8|0,0:0|0:0,0:0:0:0:
174,197,181353,5,0,0:0:0:0:
126,350,181487,1,0,0:0:0:0:
26,247,181621,1,2,0:0:0:0:
115,270,181755,5,2,0:0:0:0:
158,114,181889,1,2,2:0:0:0:
261,222,182023,1,2,0:0:0:0:
115,270,182157,2,0,P|40:253|4:167,1,160,8|4,0:0|0:3,0:0:0:0:
3,183,182558,1,0,0:0:0:0:
158,114,182692,6,0,P|236:126|330:140,1,160,2|0,0:0|0:0,0:0:0:0:
492,128,183094,1,2,0:0:0:0:
405,280,183228,2,0,P|365:274|309:264,1,80,8|0,0:0|0:0,0:0:0:0:
216,204,183496,5,0,0:0:0:0:
288,352,183630,1,0,0:0:0:0:
388,204,183764,2,0,P|382:158|379:126,1,80,2|8,0:0|0:3,0:0:0:0:
312,40,184032,5,2,0:0:0:0:
468,160,184166,1,2,0:0:0:0:
296,252,184300,2,0,P|213:261|155:209,1,160,8|4,0:0|0:3,0:0:0:0:
104,124,184701,1,2,0:3:0:0:
0,360,184835,6,0,P|60:309|146:316,1,160,6|0,0:0|0:0,0:0:0:0:
230,353,185237,1,2,0:0:0:0:
230,353,185371,2,0,P|269:344|327:333,1,80,8|0,0:0|0:0,0:0:0:0:
195,174,185639,2,0,L|111:191,1,80,2|0,0:0|0:0,0:0:0:0:
25,203,185907,5,2,0:0:0:0:
142,103,186041,1,0,0:0:0:0:
0,208,186175,1,2,0:0:0:0:
161,269,186308,1,2,0:0:0:0:
279,172,186442,6,0,L|264:84,1,80,8|0,0:0|0:0,0:0:0:0:
137,55,186710,1,8,0:0:0:0:
367,162,186844,1,2,0:0:0:0:
165,314,186978,5,6,0:1:0:0:
161,269,187246,1,0,0:0:0:0:
157,226,187514,1,2,2:0:0:0:
152,180,187782,2,0,L|128:161,6,20,2|2|0|0|0|0|0,0:1|0:1|0:1|0:1|0:1|0:1|0:1,0:0:0:0:
234,237,188050,5,2,2:0:0:0:
312,213,188317,5,10,0:3:0:0:
391,185,188585,5,4,0:3:0:0:
461,226,188853,5,6,0:0:0:0:
461,226,189121,6,0,B|396:196|396:196|314:229,1,160,2|0,0:0|0:0,0:0:0:0:
144,344,189523,1,2,0:0:0:0:
336,307,189657,2,0,P|317:231|262:175,1,160,2|8,0:0|0:0,0:0:0:0:
88,168,190058,1,0,0:0:0:0:
208,28,190192,5,2,0:0:0:0:
384,56,190326,1,0,0:0:0:0:
384,56,190393,1,0,0:0:0:0:
384,56,190460,2,0,L|331:116,1,80,2|8,0:0|0:0,0:0:0:0:
240,180,190728,2,0,P|286:216|345:220,1,120,2|0,0:0|0:0,0:0:0:0:
424,240,190996,2,0,L|353:278,1,80,8|0,0:0|0:0,0:0:0:0:
200,352,191264,6,0,L|44:315,1,160,2|0,0:0|0:0,0:0:0:0:
292,248,191666,1,2,0:0:0:0:
191,60,191800,2,0,P|156:129|185:201,1,160,8|8,0:0|0:0,0:0:0:0:
276,348,192201,1,0,0:0:0:0:
260,132,192335,5,2,0:0:0:0:
468,144,192469,1,0,0:0:0:0:
468,144,192536,1,8,0:0:0:0:
468,144,192603,2,0,L|368:188,1,80,8|8,0:0|0:0,0:0:0:0:
291,247,192871,2,0,P|233:251|189:291,1,120,2|0,0:0|0:0,0:0:0:0:
139,355,193139,2,0,P|102:343|72:316,1,80,2|0,0:0|0:0,0:0:0:0:
28,163,193407,6,0,P|63:95|139:81,1,160,2|0,0:0|0:0,0:0:0:0:
220,248,193808,1,2,0:0:0:0:
432,156,193942,2,0,P|399:226|324:247,1,160,2|8,0:0|0:0,0:0:0:0:
124,176,194344,1,0,0:0:0:0:
288,28,194478,6,0,L|292:67,1,40,2|0,0:0|0:0,0:0:0:0:
264,300,194612,2,0,L|259:260,1,40
416,180,194746,2,0,L|376:184,1,40,2|0,0:0|0:0,0:0:0:0:
144,156,194880,2,0,L|183:151,1,40,2|0,0:0|0:0,0:0:0:0:
408,92,195014,2,0,L|401:211,1,120,8|0,0:0|0:0,0:0:0:0:
352,276,195282,2,0,P|381:302|419:312,1,80,2|0,0:0|0:0,0:0:0:0:
419,312,195550,6,0,L|260:332,1,160,2|8,0:0|0:0,0:0:0:0:
260,332,195951,1,2,0:0:0:0:
76,188,196085,2,0,L|234:207,1,160,2|8,0:0|0:0,0:0:0:0:
234,207,196486,1,2,0:0:0:0:
312,48,196621,5,2,0:0:0:0:
440,88,196755,1,0,0:0:0:0:
440,88,196822,1,8,0:0:0:0:
440,88,196889,2,0,P|440:127|418:160,1,80,8|8,0:0|0:0,0:0:0:0:
256,168,197157,2,0,L|237:161,7,20,4|0|0|0|0|0|0|0,0:0|0:0|0:0|0:0|0:0|0:0|0:0|0:0,0:0:0:0:
288,240,197425,2,0,L|268:244,7,20,4|0|0|0|0|0|0|0,0:0|0:0|0:0|0:0|0:0|0:0|0:0|0:0,0:0:0:0:
351,285,197692,6,0,P|415:241|433:165,1,160
292,28,198094,1,2,0:0:0:0:
88,100,198228,2,0,L|118:257,1,160,2|8,0:0|0:0,0:0:0:0:
192,360,198630,1,0,0:0:0:0:
264,196,198764,5,2,0:0:0:0:
484,256,198898,1,0,0:0:0:0:
484,256,198965,1,0,0:0:0:0:
484,256,199032,2,0,L|404:267,1,80,2|2,0:0|0:0,0:0:0:0:
320,331,199300,2,0,P|362:291|370:233,1,120,2|0,0:0|0:0,0:0:0:0:
304,188,199567,2,0,L|310:108,1,80,8|0,0:0|0:0,0:0:0:0:
471,88,199835,6,0,P|406:131|328:125,1,160,2|0,0:0|0:0,0:0:0:0:
164,32,200237,1,2,0:0:0:0:
324,52,200371,2,0,P|310:128|246:173,1,160,2|8,0:0|0:0,0:0:0:0:
40,168,200773,1,0,0:0:0:0:
176,76,200907,5,2,0:0:0:0:
136,300,201041,1,0,0:0:0:0:
136,300,201108,1,8,0:0:0:0:
136,299,201175,2,0,P|172:286|195:253,1,80,8|8,0:0|0:0,0:0:0:0:
288,168,201442,2,0,L|408:176,1,120,2|0,0:0|0:0,0:0:0:0:
464,120,201710,2,0,L|384:113,1,80,2|0,0:0|0:0,0:0:0:0:
236,52,201978,6,0,L|185:203,1,160,2|0,0:0|0:0,0:0:0:0:
120,352,202380,1,2,0:0:0:0:
28,220,202514,2,0,L|187:233,1,160,12|8,0:0|0:0,0:0:0:0:
416,328,202916,1,0,0:0:0:0:
383,87,203050,6,0,P|364:86|344:90,1,40,2|0,0:0|0:0,0:0:0:0:
151,64,203183,2,0,P|150:83|154:103,1,40
128,296,203317,2,0,P|147:297|167:293,1,40,2|0,0:0|0:0,0:0:0:0:
360,319,203451,2,0,P|361:300|357:280,1,40,2|0,0:0|0:0,0:0:0:0:
255,52,203585,2,0,P|249:111|266:168,1,120,12|0,0:0|0:0,0:0:0:0:
311,236,203853,2,0,P|276:254|237:256,1,80,8|0,0:0|0:0,0:0:0:0:
96,336,204121,5,2,0:0:0:0:
32,208,204255,1,0,0:0:0:0:
32,208,204322,1,8,0:0:0:0:
32,208,204389,2,8,L|112:208,1,80
264,160,204657,1,2,0:0:0:0:
180,44,204791,1,0,0:0:0:0:
180,44,204858,1,8,0:0:0:0:
180,44,204925,2,8,L|100:44,1,80
332,44,205192,6,8,L|385:44,2,53.3333333333333
400,136,205460,6,8,L|453:136,2,53.3333333333333
280,144,205728,5,8,0:3:0:0:
296,204,205817,5,8,0:3:0:0:
336,252,205907,5,8,0:3:0:0:
396,276,205996,5,8,0:3:0:0:
324,296,206085,5,8,0:3:0:0:
252,320,206175,5,8,0:3:0:0:
180,340,206264,6,0,L|149:154,1,160,6|0,3:2|0:0,0:0:0:0:
190,45,206666,1,2,3:2:0:0:
303,191,206800,2,0,P|391:192|441:126,1,160,0|2,0:0|3:2,0:0:0:0:
407,25,207201,1,0,0:0:0:0:
216,116,207335,6,0,L|208:198,1,60.0000022888184,0|0,3:0|0:0,0:0:0:0:
328,260,207603,2,0,L|336:342,1,60.0000022888184,2|0,3:2|3:0,0:0:0:0:
192,384,207871,1,2,3:2:0:0:
103,179,208139,1,0,3:0:0:0:
103,179,208407,6,0,P|156:185|292:201,1,160,2|0,3:2|3:0,0:0:0:0:
382,279,208808,1,2,3:2:0:0:
439,54,208942,2,0,P|374:52|300:133,1,160,0|2,0:2|3:2,0:0:0:0:
266,255,209344,1,0,0:0:0:0:
462,256,209478,2,0,L|449:162,1,80,0|0,3:2|0:0,0:0:0:0:
210,48,209746,6,0,L|200:126,1,60.0000022888184,8|8,3:0|3:0,0:0:0:0:
306,169,210014,2,0,L|299:230,1,60.0000022888184,8|0,3:0|0:0,0:0:0:0:
387,298,210282,2,0,L|380:359,1,60.0000022888184,8|0,0:3|0:0,0:0:0:0:
222,374,210550,6,0,P|185:319|232:215,1,160,2|0,3:2|0:0,0:0:0:0:
353,94,210951,1,2,3:2:0:0:
475,212,211085,2,0,P|405:259|308:235,1,160,2|2,0:2|3:2,0:0:0:0:
189,138,211487,1,0,0:0:0:0:
115,265,211621,6,0,P|120:316|132:344,1,60.0000022888184,0|0,3:0|0:0,0:0:0:0:
260,360,211889,2,0,P|259:321|247:281,1,60.0000022888184,2|0,3:2|3:0,0:0:0:0:
289,171,212157,1,2,3:2:0:0:
435,312,212425,1,2,3:2:0:0:
435,312,212692,6,2,L|273:284,1,160,2|2,3:2|0:1,0:0:0:0:
224,148,213094,1,2,3:2:0:0:
67,313,213228,2,2,L|51:137,1,160,2|2,2:2|3:1,0:0:0:0:
115,20,213630,1,2,0:0:0:0:
224,148,213764,6,2,L|196:163,3,30.0000011444092,0|0|0|0,3:1|3:1|3:1|3:1,0:0:0:0:
374,174,214032,5,0,3:1:0:0:
266,61,214166,1,0,3:1:0:0:
291,214,214300,1,8,3:0:0:0:
361,82,214433,5,0,3:0:0:0:
224,148,214567,1,4,3:3:0:0:
80,210,214701,1,0,3:0:0:0:
232,6,214835,6,2,L|249:124,1,120.000004577637,6|0,0:0|0:0,0:0:0:0:
279,265,215237,1,2,0:0:0:0:
129,340,215371,2,0,P|137:280|149:204,1,120.000004577637,2|2,0:0|0:0,0:0:0:0:
64,121,215773,1,0,0:0:0:0:
310,202,215907,6,0,P|316:169|314:120,1,60.0000022888184
188,59,216175,2,0,P|182:92|184:141,1,60.0000022888184,2|0,0:0|0:0,0:0:0:0:
276,276,216442,2,0,P|340:281|386:234,1,120.000004577637,2|0,0:0|0:0,0:0:0:0:
207,123,216978,6,0,P|127:140|66:152,1,120.000004577637,2|0,0:0|0:0,0:0:0:0:
0,75,217380,1,2,0:0:0:0:
26,251,217514,2,0,P|79:248|157:278,1,120.000004577637,2|2,0:0|0:0,0:0:0:0:
252,227,217916,1,0,0:0:0:0:
162,75,218050,6,0,L|154:137,1,60.0000022888184
341,237,218317,2,0,L|333:177,1,60.0000022888184,2|0,0:0|0:0,0:0:0:0:
221,354,218585,2,0,P|204:292|223:224,1,120.000004577637,2|0,0:0|0:0,0:0:0:0:
420,108,219121,6,0,P|361:122|298:138,1,120.000004577637,2|0,0:0|0:0,0:0:0:0:
174,78,219523,1,2,0:0:0:0:
97,195,219657,2,0,P|156:209|219:225,1,120.000004577637,2|2,0:0|0:0,0:0:0:0:
330,300,220058,1,0,0:0:0:0:
283,142,220192,6,0,L|284:112|285:82,1,60.0000022888184
238,271,220460,2,0,L|244:330,1,60.0000022888184,2|8,0:0|0:0,0:0:0:0:
154,173,220728,2,0,P|95:146|19:146,1,120.000004577637,2|0,0:0|0:0,0:0:0:0:
273,69,221264,6,0,L|400:46,1,120.000004577637,2|0,0:0|0:0,0:0:0:0:
476,140,221666,1,2,0:0:0:0:
336,249,221800,2,0,P|340:212|338:182,1,60.0000022888184,2|0,0:0|0:0,0:0:0:0:
200,27,222067,2,2,P|193:71|194:106,1,60.0000022888184,2|0,0:0|0:0,0:1:0:0:
405,140,222335,5,4,0:3:0:0:
362,281,222469,1,4,0:3:0:0:
207,160,222603,1,4,0:3:0:0:
207,160,222737,1,4,0:3:0:0:
181,334,222871,5,4,0:3:0:0:
282,226,223005,5,4,0:3:0:0:
264,372,223139,5,4,0:3:0:0:
191,244,223273,5,4,0:3:0:0:
328,308,223407,5,4,0:3:0:0:
