osu file format v13

[General]
AudioFilename: Log Horizon ED - Your song by Yun chi HD.mp3
AudioLeadIn: 0
PreviewTime: 13984
Countdown: 0
SampleSet: Soft
StackLeniency: 0.7
Mode: 3
LetterboxInBreaks: 0
SpecialStyle: 0
WidescreenStoryboard: 1

[Editor]
DistanceSpacing: 1
BeatDivisor: 4
GridSize: 4
TimelineZoom: 1

[Metadata]
Title:Your song*
TitleUnicode:Your song*
Artist:Yun*chi
ArtistUnicode:Yun*chi
Creator:victorica_db
Version:4K HD
Source:ログ・ホライズン
Tags:TV Size Log Horizon ending simple_star Sweet Vanilla Spring Roll Selisi
BeatmapID:321978
BeatmapSetID:126752

[Difficulty]
HPDrainRate:7
CircleSize:4
OverallDifficulty:7
ApproachRate:5
SliderMultiplier:1.7
SliderTickRate:1

[Events]
//Background and Video events
0,0,"3.jpg",0,0
Video,14000,"Video.avi"
//Break Periods
//Storyboard Layer 0 (Background)
//Storyboard Layer 1 (Fail)
//Storyboard Layer 2 (Pass)
//Storyboard Layer 3 (Foreground)
//Storyboard Sound Samples
//Background Colour Transformations
3,100,163,162,255

[TimingPoints]
369,461.538461538462,4,2,0,30,1,0
66830,-100,4,2,0,30,0,1
101907,-100,4,2,0,30,0,0

[HitObjects]
192,192,369,5,0,0:0:0:0:
64,192,830,1,0,0:0:0:0:
448,192,830,1,0,0:0:0:0:
192,192,1292,1,0,0:0:0:0:
64,192,1753,1,0,0:0:0:0:
448,192,1753,1,0,0:0:0:0:
320,192,2215,1,0,0:0:0:0:
192,192,2676,1,0,0:0:0:0:
64,192,2676,1,0,0:0:0:0:
320,192,3138,1,0,0:0:0:0:
192,192,3369,1,0,0:0:0:0:
64,192,3599,1,0,0:0:0:0:
448,192,3599,1,0,0:0:0:0:
320,192,3830,1,0,0:0:0:0:
192,192,4061,1,0,0:0:0:0:
64,192,4522,1,0,0:0:0:0:
320,192,4522,1,0,0:0:0:0:
192,192,4984,1,0,0:0:0:0:
64,192,5445,1,0,0:0:0:0:
320,192,5445,1,0,0:0:0:0:
192,192,5907,1,0,0:0:0:0:
448,192,5907,1,0,0:0:0:0:
192,192,6369,1,0,0:0:0:0:
64,192,6369,1,0,0:0:0:0:
448,192,6599,1,0,0:0:0:0:
64,192,6599,128,0,6830:0:0:0:0:
320,192,6830,1,0,0:0:0:0:
192,192,7061,1,0,0:0:0:0:
320,192,7061,128,0,7292:0:0:0:0:
64,192,7292,1,0,0:0:0:0:
448,192,7292,1,0,0:0:0:0:
320,192,7522,1,0,0:0:0:0:
64,192,7753,1,0,0:0:0:0:
320,192,8215,1,0,0:0:0:0:
64,192,8215,1,0,0:0:0:0:
448,192,8445,128,0,8676:0:0:0:0:
64,192,8676,1,0,0:0:0:0:
192,192,8907,128,0,9138:0:0:0:0:
448,192,9138,1,0,0:0:0:0:
64,192,9138,1,0,0:0:0:0:
320,192,9599,1,0,0:0:0:0:
64,192,10061,1,0,0:0:0:0:
320,192,10061,1,0,0:0:0:0:
448,192,10292,128,0,10522:0:0:0:0:
192,192,10522,1,0,0:0:0:0:
64,192,10753,128,0,10984:0:0:0:0:
320,192,10984,1,0,0:0:0:0:
448,192,10984,1,0,0:0:0:0:
64,192,11445,1,0,0:0:0:0:
320,192,11445,1,0,0:0:0:0:
448,192,11445,1,0,0:0:0:0:
192,192,11907,1,0,0:0:0:0:
448,192,11907,1,0,0:0:0:0:
320,192,12138,128,0,12369:0:0:0:0:
64,192,12369,1,0,0:0:0:0:
64,192,12599,128,0,12830:0:0:0:0:
192,192,12830,1,0,0:0:0:0:
448,192,12830,1,0,0:0:0:0:
64,192,13292,1,0,0:0:0:0:
320,192,13292,128,0,14215:0:0:0:0:
448,192,13753,1,0,0:0:0:0:
192,192,13753,1,0,0:0:0:0:
64,192,14215,1,0,0:0:0:0:
448,192,14215,128,0,14676:0:0:0:0:
192,192,14445,1,0,0:0:0:0:
64,192,14676,1,0,0:0:0:0:
320,192,14676,1,0,0:0:0:0:
192,192,14676,128,0,15138:0:0:0:0:
448,192,14907,1,0,0:0:0:0:
64,192,15138,1,0,0:0:0:0:
320,192,15138,1,0,0:0:0:55:bassdrum.wav
192,192,15369,1,0,0:0:0:0:
448,192,15369,1,0,0:0:0:0:
64,192,15599,1,0,0:0:0:0:
448,192,15599,1,0,0:0:0:0:
320,192,15599,1,0,0:0:0:55:clap.wav
64,192,16061,1,0,0:0:0:0:
320,192,16061,1,0,0:0:0:55:bassdrum.wav
192,192,16292,1,0,0:0:0:0:
448,192,16292,1,0,0:0:0:0:
64,192,16522,1,0,0:0:0:0:
448,192,16522,1,0,0:0:0:0:
320,192,16522,1,0,0:0:0:55:clap.wav
64,192,16984,1,0,0:0:0:0:
192,192,16984,1,0,0:0:0:55:bassdrum.wav
192,192,17215,1,0,0:0:0:0:
320,192,17215,1,0,0:0:0:0:
320,192,17445,1,0,0:0:0:55:clap.wav
448,192,17445,1,0,0:0:0:0:
64,192,17445,1,0,0:0:0:0:
64,192,17907,128,0,18830:0:0:0:0:
320,192,17907,1,0,0:0:0:55:bassdrum.wav
320,192,18369,1,0,0:0:0:0:
448,192,18369,128,0,18830:0:0:0:0:
192,192,18369,1,0,0:0:0:55:clap.wav
320,192,18830,1,0,0:0:0:0:
192,192,18830,1,0,0:0:0:55:bassdrum.wav
64,192,19061,1,0,0:0:0:0:
320,192,19061,1,0,0:0:0:0:
64,192,19292,1,0,0:0:0:0:
448,192,19292,1,0,0:0:0:0:
320,192,19292,1,0,0:0:0:55:clap.wav
64,192,19753,1,0,0:0:0:0:
320,192,19753,1,0,0:0:0:55:bassdrum.wav
192,192,19984,1,0,0:0:0:0:
448,192,19984,1,0,0:0:0:0:
64,192,20215,1,0,0:0:0:0:
448,192,20215,1,0,0:0:0:0:
320,192,20215,1,0,0:0:0:55:clap.wav
64,192,20676,1,0,0:0:0:55:bassdrum.wav
448,192,20676,128,0,21599:0:0:0:0:
64,192,21138,128,0,21599:0:0:0:0:
192,192,21138,1,0,0:0:0:0:
320,192,21138,1,0,0:0:0:55:clap.wav
192,192,21599,128,0,21830:0:0:0:0:
320,192,21830,128,0,22061:0:0:0:0:
448,192,22061,128,0,22292:0:0:0:0:
64,192,22061,1,0,0:0:0:30:cymbol.wav
192,192,22061,1,0,0:0:0:30:clap.wav
320,192,22292,128,0,22522:0:0:0:0:
192,192,22292,1,0,0:0:0:0:
64,192,22522,1,0,0:0:0:0:
192,192,22753,1,0,0:0:0:0:
448,192,22984,1,0,0:0:0:0:
320,192,23215,1,0,0:0:0:0:
64,192,23445,1,0,0:0:0:0:
192,192,23676,1,0,0:0:0:0:
320,192,23907,1,0,0:0:0:0:
192,192,24138,1,0,0:0:0:0:
64,192,24369,1,0,0:0:0:0:
448,192,24599,1,0,0:0:0:0:
192,192,24599,1,0,0:0:0:0:
64,192,24830,1,0,0:0:0:0:
448,192,25061,1,0,0:0:0:0:
320,192,25061,1,0,0:0:0:0:
64,192,25292,1,0,0:0:0:0:
320,192,25522,1,0,0:0:0:0:
192,192,25522,1,0,0:0:0:0:
64,192,25753,1,0,0:0:0:0:
320,192,25984,1,0,0:0:0:0:
192,192,26215,1,0,0:0:0:0:
448,192,26445,1,0,0:0:0:0:
320,192,26445,1,0,0:0:0:0:
192,192,26676,1,0,0:0:0:0:
448,192,26907,1,0,0:0:0:0:
64,192,26907,1,0,0:0:0:0:
192,192,27138,1,0,0:0:0:0:
448,192,27369,1,0,0:0:0:0:
192,192,27599,1,0,0:0:0:0:
448,192,27830,1,0,0:0:0:0:
64,192,28061,1,0,0:0:0:0:
320,192,28292,1,0,0:0:0:0:
448,192,28292,1,0,0:0:0:0:
64,192,28522,1,0,0:0:0:0:
192,192,28753,1,0,0:0:0:0:
448,192,28753,1,0,0:0:0:0:
64,192,28984,1,0,0:0:0:0:
320,192,29215,1,0,0:0:0:0:
64,192,29445,1,0,0:0:0:0:
192,192,29676,1,0,0:0:0:0:
448,192,29676,1,0,0:0:0:0:
320,192,29792,1,0,0:0:0:0:
64,192,29907,1,0,0:0:0:30:cymbol.wav
448,192,29907,1,0,0:0:0:0:
192,192,29907,1,0,0:0:0:30:cymbol.wav
320,192,30138,1,0,0:0:0:0:
64,192,30369,1,0,0:0:0:0:
448,192,30599,1,0,0:0:0:0:
64,192,30830,1,0,0:0:0:0:
448,192,31061,1,0,0:0:0:0:
64,192,31292,1,0,0:0:0:0:
448,192,31522,1,0,0:0:0:0:
192,192,31753,1,0,0:0:0:0:
320,192,31984,1,0,0:0:0:0:
448,192,31984,1,0,0:0:0:0:
192,192,32215,1,0,0:0:0:0:
320,192,32445,1,0,0:0:0:0:
192,192,32676,1,0,0:0:0:0:
320,192,32907,1,0,0:0:0:0:
192,192,33138,1,0,0:0:0:0:
320,192,33369,1,0,0:0:0:0:
64,192,33369,1,0,0:0:0:0:
192,192,33599,1,0,0:0:0:0:
448,192,33830,1,0,0:0:0:0:
320,192,33830,1,0,0:0:0:0:
192,192,34061,1,0,0:0:0:0:
448,192,34292,1,0,0:0:0:0:
320,192,34292,1,0,0:0:0:0:
64,192,34522,1,0,0:0:0:0:
320,192,34753,1,0,0:0:0:0:
64,192,34984,1,0,0:0:0:0:
320,192,35215,1,0,0:0:0:0:
64,192,35445,1,0,0:0:0:0:
320,192,35445,1,0,0:0:0:0:
192,192,35676,1,0,0:0:0:0:
320,192,35907,1,0,0:0:0:0:
192,192,36138,1,0,0:0:0:0:
448,192,36138,1,0,0:0:0:0:
320,192,36369,1,0,0:0:0:0:
192,192,36599,1,0,0:0:0:0:
64,192,36830,1,0,0:0:0:0:
448,192,36830,1,0,0:0:0:0:
192,192,36945,1,0,0:0:0:0:
320,192,37061,1,0,0:0:0:0:
192,192,37176,1,0,0:0:0:0:
64,192,37292,1,0,0:0:0:30:bassdrum.wav
320,192,37292,1,0,0:0:0:0:
448,192,37522,1,0,0:0:0:30:hihat.wav
64,192,37753,1,0,0:0:0:0:
192,192,37753,1,0,0:0:0:0:
320,192,37984,1,0,0:0:0:30:hihat.wav
192,192,38215,1,0,0:0:0:30:bassdrum.wav
448,192,38215,1,0,0:0:0:0:
64,192,38445,1,0,0:0:0:30:hihat.wav
192,192,38676,1,0,0:0:0:30:bassdrum.wav
448,192,38676,1,0,0:0:0:0:
64,192,38907,1,0,0:0:0:30:hihat.wav
320,192,39138,1,0,0:0:0:0:
448,192,39138,1,0,0:0:0:30:bassdrum.wav
192,192,39369,128,0,39599:0:0:0:0:
64,192,39369,1,0,0:0:0:30:hihat.wav
64,192,39599,1,0,0:0:0:30:bassdrum.wav
448,192,39599,1,0,0:0:0:0:
320,192,39830,128,0,40061:0:0:0:0:
192,192,39830,1,0,0:0:0:30:hihat.wav
64,192,40061,1,0,0:0:0:55:bassdrum.wav
192,192,40061,1,0,0:0:0:0:
448,192,40292,128,0,40522:0:0:0:0:
320,192,40292,1,0,0:0:0:0:
64,192,40292,1,0,0:0:0:0:
64,192,40522,1,0,0:0:0:55:bassdrum.wav
192,192,40522,1,0,0:0:0:0:
64,192,40753,1,0,0:0:0:0:
448,192,40753,1,0,0:0:0:0:
64,192,40984,1,0,0:0:0:0:
192,192,40984,1,0,0:0:0:30:bassdrum.wav
320,192,41215,128,0,41445:0:0:0:0:
448,192,41215,1,0,0:0:0:30:hihat.wav
192,192,41445,1,0,0:0:0:30:bassdrum.wav
448,192,41445,1,0,0:0:0:0:
64,192,41676,1,0,0:0:0:30:hihat.wav
192,192,41676,128,0,41907:0:0:0:0:
320,192,41907,1,0,0:0:0:0:
448,192,41907,1,0,0:0:0:30:bassdrum.wav
192,192,42138,1,0,0:0:0:30:hihat.wav
64,192,42369,1,0,0:0:0:0:
320,192,42369,1,0,0:0:0:30:bassdrum.wav
192,192,42599,1,0,0:0:0:30:hihat.wav
320,192,42830,1,0,0:0:0:30:bassdrum.wav
448,192,42830,1,0,0:0:0:0:
192,192,43061,1,0,0:0:0:30:hihat.wav
320,192,43061,128,0,43292:0:0:0:0:
64,192,43292,1,0,0:0:0:0:
448,192,43292,1,0,0:0:0:30:bassdrum.wav
320,192,43522,1,0,0:0:0:30:hihat.wav
192,192,43522,128,0,43753:0:0:0:0:
64,192,43753,1,0,0:0:0:0:
448,192,43753,1,0,0:0:0:30:bassdrum.wav
320,192,43984,1,0,0:0:0:30:hihat.wav
64,192,44215,1,0,0:0:0:55:bassdrum.wav
192,192,44215,1,0,0:0:0:0:
64,192,44445,1,0,0:0:0:0:
320,192,44445,1,0,0:0:0:0:
448,192,44445,128,0,44676:0:0:0:0:
64,192,44676,1,0,0:0:0:0:
192,192,44676,1,0,0:0:0:30:bassdrum.wav
320,192,44907,1,0,0:0:0:30:hihat.wav
448,192,44907,128,0,45138:0:0:0:0:
64,192,45138,1,0,0:0:0:0:
320,192,45138,1,0,0:0:0:30:bassdrum.wav
192,192,45369,128,0,45599:0:0:0:0:
320,192,45369,1,0,0:0:0:30:hihat.wav
64,192,45599,1,0,0:0:0:0:
448,192,45599,1,0,0:0:0:30:bassdrum.wav
320,192,45830,1,0,0:0:0:30:hihat.wav
64,192,46061,1,0,0:0:0:0:
192,192,46061,1,0,0:0:0:30:bassdrum.wav
448,192,46292,1,0,0:0:0:30:hihat.wav
64,192,46522,1,0,0:0:0:0:
320,192,46522,1,0,0:0:0:30:bassdrum.wav
192,192,46753,1,0,0:0:0:30:hihat.wav
448,192,46753,128,0,46984:0:0:0:0:
64,192,46984,1,0,0:0:0:0:
320,192,46984,1,0,0:0:0:55:bassdrum.wav
192,192,47215,1,0,0:0:0:30:hihat.wav
320,192,47445,1,0,0:0:0:30:bassdrum.wav
448,192,47445,1,0,0:0:0:0:
192,192,47676,1,0,0:0:0:30:hihat.wav
448,192,47907,1,0,0:0:0:0:
320,192,47907,1,0,0:0:0:30:bassdrum.wav
64,192,48138,1,0,0:0:0:30:hihat.wav
192,192,48253,1,0,0:0:0:0:
64,192,48369,1,0,0:0:0:0:
320,192,48369,1,0,0:0:0:30:bassdrum.wav
448,192,48369,128,0,49292:0:0:0:0:
192,192,48599,1,0,0:0:0:30:hihat.wav
64,192,48830,1,0,0:0:0:0:
192,192,48830,1,0,0:0:0:30:bassdrum.wav
320,192,49061,1,0,0:0:0:30:hihat.wav
64,192,49292,1,0,0:0:0:0:
192,192,49292,1,0,0:0:0:30:bassdrum.wav
320,192,49522,1,0,0:0:0:30:hihat.wav
192,192,49753,1,0,0:0:0:30:bassdrum.wav
448,192,49753,1,0,0:0:0:0:
64,192,49984,1,0,0:0:0:30:hihat.wav
192,192,50215,1,0,0:0:0:0:
320,192,50215,1,0,0:0:0:55:bassdrum.wav
448,192,50215,128,0,50907:0:0:0:0:
64,192,50445,1,0,0:0:0:55:hihat.wav
64,192,50676,1,0,0:0:0:0:
320,192,50676,1,0,0:0:0:55:clap.wav
192,192,50907,1,0,0:0:0:55:hihat.wav
64,192,50907,128,0,51138:0:0:0:0:
448,192,51138,1,0,0:0:0:0:
192,192,51138,128,0,51369:0:0:0:0:
320,192,51138,1,0,0:0:0:30:clap.wav
320,192,51369,128,0,51599:0:0:0:0:
64,192,51369,1,0,0:0:0:55:hihat.wav
64,192,51599,1,0,0:0:0:30:clap.wav
448,192,51599,128,0,52061:0:0:0:0:
192,192,51715,1,0,0:0:0:30:clap.wav
64,192,51830,1,0,0:0:0:30:clap.wav
192,192,51945,1,0,0:0:0:30:clap.wav
320,192,52061,1,0,0:0:0:30:clap.wav
64,192,52061,128,0,52984:0:0:0:0:
192,192,52292,1,0,0:0:0:0:
320,192,52522,1,0,0:0:0:0:
448,192,52753,1,0,0:0:0:0:
192,192,52984,128,0,53907:0:0:0:0:
320,192,52984,1,0,0:0:0:0:
320,192,53215,1,0,0:0:0:0:
64,192,53445,1,0,0:0:0:0:
448,192,53445,1,0,0:0:0:30:cymbol.wav
448,192,53676,1,0,0:0:0:0:
320,192,53907,128,0,54830:0:0:0:0:
64,192,53907,1,0,0:0:0:0:
192,192,54138,1,0,0:0:0:0:
448,192,54369,1,0,0:0:0:0:
192,192,54599,1,0,0:0:0:0:
448,192,54830,128,0,55753:0:0:0:0:
64,192,54830,1,0,0:0:0:0:
192,192,55061,1,0,0:0:0:0:
320,192,55292,1,0,0:0:0:0:
64,192,55292,1,0,0:0:0:0:
192,192,55522,1,0,0:0:0:0:
64,192,55753,128,0,56676:0:0:0:0:
320,192,55753,1,0,0:0:0:0:
192,192,55984,1,0,0:0:0:0:
448,192,56215,1,0,0:0:0:0:
320,192,56445,1,0,0:0:0:0:
192,192,56676,128,0,57599:0:0:0:0:
448,192,56676,1,0,0:0:0:0:
320,192,56907,1,0,0:0:0:0:
64,192,57138,1,0,0:0:0:30:cymbol.wav
448,192,57138,1,0,0:0:0:0:
320,192,57369,1,0,0:0:0:0:
320,192,57599,128,0,58522:0:0:0:0:
64,192,57599,1,0,0:0:0:0:
448,192,57830,1,0,0:0:0:0:
64,192,58061,1,0,0:0:0:0:
192,192,58292,1,0,0:0:0:0:
448,192,58522,128,0,59445:0:0:0:0:
64,192,58522,1,0,0:0:0:0:
192,192,58753,1,0,0:0:0:0:
320,192,58984,1,0,0:0:0:30:cymbol.wav
64,192,58984,1,0,0:0:0:0:
192,192,59215,1,0,0:0:0:0:
192,192,59445,1,0,0:0:0:0:
64,192,59445,128,0,60369:0:0:0:0:
320,192,59676,1,0,0:0:0:0:
192,192,59907,1,0,0:0:0:0:
320,192,60138,1,0,0:0:0:0:
192,192,60369,128,0,61292:0:0:0:0:
448,192,60369,1,0,0:0:0:0:
320,192,60599,1,0,0:0:0:0:
64,192,60830,1,0,0:0:0:0:
448,192,60830,1,0,0:0:0:30:cymbol.wav
320,192,61061,1,0,0:0:0:0:
320,192,61292,128,0,61753:0:0:0:0:
64,192,61292,1,0,0:0:0:0:
448,192,61292,1,0,0:0:0:0:
192,192,61522,1,0,0:0:0:0:
64,192,61753,1,0,0:0:0:0:
192,192,61984,1,0,0:0:0:0:
448,192,61984,1,0,0:0:0:0:
320,192,62215,128,0,62676:0:0:0:0:
192,192,62445,1,0,0:0:0:0:
64,192,62676,128,0,62907:0:0:0:0:
448,192,62676,1,0,0:0:0:0:
192,192,62676,1,0,0:0:0:0:
192,192,62907,128,0,63369:0:0:0:0:
320,192,62907,1,0,0:0:0:0:
64,192,63138,128,0,66369:0:0:0:0:
448,192,63138,1,0,0:0:0:0:
320,192,63369,128,0,63599:0:0:0:0:
448,192,63369,1,0,0:0:0:0:
448,192,63599,128,0,65907:0:0:0:0:
192,192,63599,1,0,0:0:0:30:bassdrum.wav
320,192,63830,1,0,0:0:0:30:hihat.wav
192,192,64061,1,0,0:0:0:30:bassdrum.wav
320,192,64292,1,0,0:0:0:30:hihat.wav
192,192,64522,1,0,0:0:0:30:cymbol.wav
320,192,64753,1,0,0:0:0:55:bassdrum.wav
320,192,64869,1,0,0:0:0:55:bassdrum.wav
192,192,64984,128,0,66369:0:0:0:0:
320,192,65907,128,0,66369:0:0:0:0:
448,192,66369,128,0,66484:0:0:0:0:
320,192,66484,128,0,66599:0:0:0:0:
192,192,66599,128,0,66715:0:0:0:0:
64,192,66715,128,0,66830:0:0:0:0:
320,192,66830,1,0,0:0:0:30:bassdrum.wav
192,192,66830,1,0,0:0:0:0:
192,192,67061,1,0,0:0:0:30:hihat.wav
64,192,67292,1,0,0:0:0:0:
320,192,67292,1,0,0:0:0:30:clap.wav
448,192,67292,1,0,0:0:0:0:
320,192,67522,1,0,0:0:0:30:hihat.wav
64,192,67753,1,0,0:0:0:0:
448,192,67753,1,0,0:0:0:30:bassdrum.wav
192,192,67984,1,0,0:0:0:30:hihat.wav
64,192,68215,1,0,0:0:0:0:
448,192,68215,1,0,0:0:0:30:clap.wav
192,192,68215,1,0,0:0:0:0:
320,192,68445,1,0,0:0:0:30:hihat.wav
320,192,68676,1,0,0:0:0:30:bassdrum.wav
64,192,68676,128,0,69138:0:0:0:0:
448,192,68676,1,0,0:0:0:0:
448,192,68907,1,0,0:0:0:70:hihat.wav
320,192,69138,1,0,0:0:0:0:
448,192,69138,1,0,0:0:0:0:
192,192,69138,128,0,69599:0:0:0:0:
64,192,69369,1,0,0:0:0:70:hihat.wav
64,192,69599,1,0,0:0:0:70:bassdrum.wav
320,192,69599,128,0,70061:0:0:0:0:
448,192,69599,1,0,0:0:0:0:
192,192,69830,1,0,0:0:0:70:hihat.wav
64,192,70061,1,0,0:0:0:0:
192,192,70061,1,0,0:0:0:30:clap.wav
448,192,70061,128,0,70522:0:0:0:0:
320,192,70292,1,0,0:0:0:70:hihat.wav
64,192,70292,1,0,0:0:0:0:
192,192,70522,1,0,0:0:0:0:
320,192,70522,1,0,0:0:0:70:bassdrum.wav
192,192,70753,1,0,0:0:0:70:hihat.wav
192,192,70984,1,0,0:0:0:30:clap.wav
448,192,70984,1,0,0:0:0:0:
64,192,70984,1,0,0:0:0:0:
448,192,71215,1,0,0:0:0:70:hihat.wav
64,192,71445,1,0,0:0:0:70:bassdrum.wav
448,192,71445,1,0,0:0:0:0:
320,192,71676,1,0,0:0:0:70:hihat.wav
64,192,71907,1,0,0:0:0:0:
320,192,71907,1,0,0:0:0:30:clap.wav
448,192,71907,1,0,0:0:0:0:
192,192,72138,1,0,0:0:0:0:
192,192,72369,1,0,0:0:0:0:
320,192,72369,1,0,0:0:0:55:bassdrum.wav
64,192,72369,128,0,72830:0:0:0:0:
448,192,72599,1,0,0:0:0:55:hihat.wav
320,192,72830,1,0,0:0:0:55:clap.wav
448,192,72830,1,0,0:0:0:0:
192,192,72830,128,0,73292:0:0:0:0:
320,192,73061,1,0,0:0:0:55:hihat.wav
64,192,73292,1,0,0:0:0:55:bassdrum.wav
320,192,73292,128,0,73753:0:0:0:0:
448,192,73292,1,0,0:0:0:0:
192,192,73522,1,0,0:0:0:55:hihat.wav
64,192,73753,1,0,0:0:0:0:
448,192,73753,1,0,0:0:0:30:clap.wav
320,192,73869,1,0,0:0:0:0:
192,192,73984,1,0,0:0:0:0:
448,192,73984,128,0,74215:0:0:0:0:
64,192,74099,1,0,0:0:0:0:
192,192,74215,1,0,0:0:0:30:bassdrum.wav
320,192,74215,1,0,0:0:0:0:
448,192,74445,1,0,0:0:0:30:hihat.wav
192,192,74676,1,0,0:0:0:30:clap.wav
448,192,74676,1,0,0:0:0:0:
64,192,74676,1,0,0:0:0:0:
320,192,74907,1,0,0:0:0:30:hihat.wav
192,192,75138,1,0,0:0:0:0:
448,192,75138,1,0,0:0:0:30:bassdrum.wav
64,192,75369,1,0,0:0:0:30:hihat.wav
64,192,75599,1,0,0:0:0:0:
192,192,75599,1,0,0:0:0:30:clap.wav
448,192,75599,1,0,0:0:0:0:
320,192,75830,1,0,0:0:0:30:hihat.wav
192,192,76061,1,0,0:0:0:30:bassdrum.wav
320,192,76061,1,0,0:0:0:0:
64,192,76061,128,0,76522:0:0:0:0:
320,192,76292,1,0,0:0:0:30:hihat.wav
320,192,76522,1,0,0:0:0:30:clap.wav
448,192,76522,1,0,0:0:0:0:
192,192,76522,128,0,76984:0:0:0:0:
448,192,76753,1,0,0:0:0:30:hihat.wav
64,192,76984,1,0,0:0:0:0:
448,192,76984,1,0,0:0:0:55:bassdrum.wav
320,192,76984,128,0,77445:0:0:0:0:
64,192,77215,1,0,0:0:0:30:hihat.wav
192,192,77445,1,0,0:0:0:0:
64,192,77445,1,0,0:0:0:30:clap.wav
448,192,77445,1,0,0:0:0:0:
320,192,77676,1,0,0:0:0:30:hihat.wav
64,192,77907,1,0,0:0:0:30:bassdrum.wav
192,192,77907,1,0,0:0:0:0:
320,192,78138,1,0,0:0:0:30:hihat.wav
192,192,78369,1,0,0:0:0:30:clap.wav
448,192,78369,1,0,0:0:0:0:
64,192,78369,1,0,0:0:0:0:
320,192,78599,1,0,0:0:0:30:hihat.wav
320,192,78830,1,0,0:0:0:30:bassdrum.wav
448,192,78830,1,0,0:0:0:0:
192,192,79061,1,0,0:0:0:30:hihat.wav
64,192,79292,1,0,0:0:0:0:
320,192,79292,1,0,0:0:0:30:clap.wav
448,192,79292,1,0,0:0:0:0:
192,192,79522,1,0,0:0:0:30:hihat.wav
448,192,79753,128,0,80215:0:0:0:0:
320,192,79753,1,0,0:0:0:30:bassdrum.wav
192,192,79984,1,0,0:0:0:0:
320,192,80215,128,0,80676:0:0:0:0:
64,192,80215,1,0,0:0:0:0:
192,192,80215,1,0,0:0:0:55:clap.wav
448,192,80445,1,0,0:0:0:0:
192,192,80676,128,0,81138:0:0:0:0:
64,192,80676,1,0,0:0:0:55:bassdrum.wav
448,192,80676,1,0,0:0:0:0:
320,192,80907,1,0,0:0:0:0:
64,192,81138,128,0,81599:0:0:0:0:
320,192,81138,1,0,0:0:0:0:
448,192,81138,1,0,0:0:0:55:clap.wav
192,192,81253,1,0,0:0:0:0:
320,192,81369,1,0,0:0:0:0:
448,192,81484,1,0,0:0:0:0:
192,192,81599,1,0,0:0:0:0:
320,192,81599,1,0,0:0:0:30:bassdrum.wav
192,192,81830,1,0,0:0:0:30:hihat.wav
64,192,82061,1,0,0:0:0:0:
320,192,82061,1,0,0:0:0:30:clap.wav
448,192,82061,1,0,0:0:0:0:
192,192,82292,1,0,0:0:0:30:hihat.wav
64,192,82522,1,0,0:0:0:30:bassdrum.wav
192,192,82522,1,0,0:0:0:0:
320,192,82753,1,0,0:0:0:30:hihat.wav
64,192,82984,1,0,0:0:0:0:
320,192,82984,1,0,0:0:0:30:clap.wav
448,192,82984,1,0,0:0:0:0:
192,192,83215,1,0,0:0:0:30:hihat.wav
64,192,83445,1,0,0:0:0:30:bassdrum.wav
320,192,83445,1,0,0:0:0:0:
448,192,83445,128,0,83907:0:0:0:0:
192,192,83676,1,0,0:0:0:30:hihat.wav
64,192,83907,1,0,0:0:0:0:
192,192,83907,1,0,0:0:0:30:clap.wav
320,192,83907,128,0,84369:0:0:0:0:
192,192,84138,1,0,0:0:0:30:hihat.wav
64,192,84369,1,0,0:0:0:30:bassdrum.wav
448,192,84369,1,0,0:0:0:0:
192,192,84369,128,0,84830:0:0:0:0:
320,192,84599,1,0,0:0:0:30:hihat.wav
448,192,84830,1,0,0:0:0:30:clap.wav
64,192,84830,1,0,0:0:0:0:
320,192,84830,128,0,85292:0:0:0:0:
192,192,85061,1,0,0:0:0:0:
448,192,85061,1,0,0:0:0:0:
64,192,85292,1,0,0:0:0:0:
192,192,85292,1,0,0:0:0:30:bassdrum.wav
320,192,85522,1,0,0:0:0:30:hihat.wav
192,192,85753,1,0,0:0:0:30:clap.wav
64,192,85753,1,0,0:0:0:0:
448,192,85753,1,0,0:0:0:0:
192,192,85984,1,0,0:0:0:30:hihat.wav
448,192,86215,1,0,0:0:0:0:
64,192,86215,1,0,0:0:0:30:bassdrum.wav
320,192,86445,1,0,0:0:0:30:hihat.wav
64,192,86676,1,0,0:0:0:0:
320,192,86676,1,0,0:0:0:30:clap.wav
448,192,86676,1,0,0:0:0:0:
192,192,86907,1,0,0:0:0:30:hihat.wav
320,192,87138,1,0,0:0:0:30:bassdrum.wav
64,192,87138,1,0,0:0:0:0:
448,192,87138,128,0,87599:0:0:0:0:
192,192,87369,1,0,0:0:0:30:hihat.wav
64,192,87599,1,0,0:0:0:0:
192,192,87599,1,0,0:0:0:30:clap.wav
320,192,87599,128,0,88061:0:0:0:0:
192,192,87830,1,0,0:0:0:30:hihat.wav
64,192,88061,1,0,0:0:0:0:
448,192,88061,1,0,0:0:0:55:clap.wav
192,192,88061,128,0,88522:0:0:0:0:
320,192,88292,1,0,0:0:0:30:hihat.wav
448,192,88522,128,0,88753:0:0:0:0:
64,192,88522,128,0,88984:0:0:0:0:
320,192,88522,1,0,0:0:0:55:bassdrum.wav
320,192,88753,1,0,0:0:0:0:
192,192,88984,1,0,0:0:0:30:bassdrum.wav
448,192,88984,1,0,0:0:0:0:
320,192,89215,1,0,0:0:0:30:hihat.wav
192,192,89445,1,0,0:0:0:30:clap.wav
64,192,89445,1,0,0:0:0:0:
448,192,89445,1,0,0:0:0:0:
192,192,89676,1,0,0:0:0:30:hihat.wav
320,192,89907,1,0,0:0:0:30:bassdrum.wav
448,192,89907,1,0,0:0:0:0:
192,192,90138,1,0,0:0:0:30:hihat.wav
64,192,90369,1,0,0:0:0:0:
448,192,90369,1,0,0:0:0:0:
192,192,90369,1,0,0:0:0:30:clap.wav
320,192,90599,1,0,0:0:0:30:hihat.wav
64,192,90830,1,0,0:0:0:0:
192,192,90830,1,0,0:0:0:30:bassdrum.wav
448,192,91061,1,0,0:0:0:30:hihat.wav
320,192,91292,1,0,0:0:0:0:
192,192,91292,1,0,0:0:0:30:clap.wav
64,192,91292,1,0,0:0:0:0:
192,192,91522,1,0,0:0:0:30:bassdrum.wav
320,192,91753,1,0,0:0:0:30:hihat.wav
64,192,91753,1,0,0:0:0:0:
448,192,91984,1,0,0:0:0:30:hihat.wav
64,192,92215,1,0,0:0:0:0:
320,192,92215,1,0,0:0:0:30:clap.wav
448,192,92215,1,0,0:0:0:0:
192,192,92445,1,0,0:0:0:30:hihat.wav
64,192,92676,1,0,0:0:0:30:bassdrum.wav
448,192,92676,1,0,0:0:0:0:
320,192,92676,128,0,93138:0:0:0:0:
192,192,92907,1,0,0:0:0:30:hihat.wav
192,192,93138,1,0,0:0:0:30:clap.wav
64,192,93138,1,0,0:0:0:0:
448,192,93138,128,0,93599:0:0:0:0:
64,192,93369,1,0,0:0:0:30:hihat.wav
64,192,93599,1,0,0:0:0:0:
320,192,93599,1,0,0:0:0:30:bassdrum.wav
192,192,93599,128,0,94061:0:0:0:0:
448,192,93830,1,0,0:0:0:30:hihat.wav
448,192,94061,1,0,0:0:0:0:
64,192,94061,1,0,0:0:0:30:clap.wav
320,192,94061,128,0,94407:0:0:0:0:
64,192,94292,1,0,0:0:0:30:hihat.wav
192,192,94522,1,0,0:0:0:30:bassdrum.wav
448,192,94522,1,0,0:0:0:0:
64,192,94522,1,0,0:0:0:0:
320,192,94522,128,0,95215:0:0:0:0:
448,192,94753,1,0,0:0:0:30:hihat.wav
64,192,94753,1,0,0:0:0:0:
64,192,94984,1,0,0:0:0:0:
192,192,94984,1,0,0:0:0:30:clap.wav
448,192,94984,1,0,0:0:0:0:
64,192,95215,1,0,0:0:0:0:
448,192,95215,1,0,0:0:0:0:
192,192,95445,1,0,0:0:0:0:
320,192,95445,128,0,95907:0:0:0:0:
192,192,95907,128,0,96369:0:0:0:0:
64,192,95907,1,0,0:0:0:0:
448,192,95907,1,0,0:0:0:30:clap.wav
320,192,96022,1,0,0:0:0:0:
448,192,96138,1,0,0:0:0:0:
320,192,96253,1,0,0:0:0:0:
64,192,96369,128,0,98676:0:0:0:0:
448,192,96369,1,0,0:0:0:0:
320,192,96599,1,0,0:0:0:0:
192,192,96830,1,0,0:0:0:0:
448,192,96830,1,0,0:0:0:0:
320,192,97292,1,0,0:0:0:0:
192,192,97522,1,0,0:0:0:0:
192,192,97753,1,0,0:0:0:0:
448,192,97753,1,0,0:0:0:0:
320,192,98215,1,0,0:0:0:0:
448,192,98445,1,0,0:0:0:0:
192,192,98676,1,0,0:0:0:0:
448,192,98676,1,0,0:0:0:0:
320,192,98907,1,0,0:0:0:0:
192,192,99138,128,0,99599:0:0:0:0:
64,192,99138,1,0,0:0:0:0:
320,192,99599,128,0,100061:0:0:0:0:
448,192,99599,1,0,0:0:0:30:clap.wav
64,192,99599,1,0,0:0:0:0:
64,192,100061,1,0,0:0:0:0:
448,192,100061,128,0,102369:0:0:0:0:
192,192,100292,1,0,0:0:0:0:
64,192,100522,1,0,0:0:0:0:
320,192,100522,1,0,0:0:0:0:
320,192,100984,128,0,101215:0:0:0:0:
192,192,101215,128,0,101445:0:0:0:0:
64,192,101445,128,0,101676:0:0:0:0:
192,192,101676,128,0,101907:0:0:0:0:
64,192,101907,128,0,103522:0:0:0:0:
320,192,101907,1,0,0:0:0:0:
192,192,102369,128,0,103522:0:0:0:0:
320,192,102830,128,0,103522:0:0:0:0:
