osu file format v13

[General]
AudioFilename: Log Horizon ED - Your song by Yun chi HD.mp3
AudioLeadIn: 0
PreviewTime: 13984
Countdown: 0
SampleSet: Soft
StackLeniency: 0.7
Mode: 3
LetterboxInBreaks: 0
SpecialStyle: 0
WidescreenStoryboard: 1

[Editor]
DistanceSpacing: 1
BeatDivisor: 4
GridSize: 4
TimelineZoom: 1

[Metadata]
Title:Your song*
TitleUnicode:Your song*
Artist:Yun*chi
ArtistUnicode:Yun*chi
Creator:victorica_db
Version:4K EZ
Source:ログ・ホライズン
Tags:TV Size Log Horizon ending simple_star Sweet Vanilla Spring Roll Selisi
BeatmapID:332782
BeatmapSetID:126752

[Difficulty]
HPDrainRate:7
CircleSize:4
OverallDifficulty:7
ApproachRate:5
SliderMultiplier:1.7
SliderTickRate:1

[Events]
//Background and Video events
0,0,"3.jpg",0,0
Video,14000,"Video.avi"
//Break Periods
//Storyboard Layer 0 (Background)
//Storyboard Layer 1 (Fail)
//Storyboard Layer 2 (Pass)
//Storyboard Layer 3 (Foreground)
//Storyboard Sound Samples
//Background Colour Transformations
3,100,163,162,255

[TimingPoints]
369,461.538461538462,4,2,0,30,1,0
66830,-100,4,2,0,30,0,1
101907,-100,4,2,0,30,0,0

[HitObjects]
320,192,369,5,0,0:0:0:0:
64,192,830,1,0,0:0:0:0:
320,192,1292,1,0,0:0:0:0:
64,192,1753,1,0,0:0:0:0:
320,192,2215,1,0,0:0:0:0:
64,192,2676,1,0,0:0:0:0:
320,192,3138,1,0,0:0:0:0:
192,192,3369,1,0,0:0:0:0:
320,192,3599,1,0,0:0:0:0:
448,192,3830,1,0,0:0:0:0:
320,192,4061,1,0,0:0:0:0:
64,192,4522,1,0,0:0:0:0:
320,192,4984,1,0,0:0:0:0:
64,192,5445,1,0,0:0:0:0:
448,192,5907,1,0,0:0:0:0:
64,192,6369,1,0,0:0:0:0:
448,192,6830,1,0,0:0:0:0:
192,192,7061,1,0,0:0:0:0:
320,192,7292,1,0,0:0:0:0:
64,192,7522,1,0,0:0:0:0:
448,192,7753,1,0,0:0:0:0:
192,192,8215,1,0,0:0:0:0:
448,192,8676,1,0,0:0:0:0:
192,192,9138,1,0,0:0:0:0:
448,192,9599,1,0,0:0:0:0:
320,192,10061,1,0,0:0:0:0:
192,192,10522,1,0,0:0:0:0:
448,192,10984,1,0,0:0:0:0:
320,192,11445,1,0,0:0:0:0:
192,192,11907,1,0,0:0:0:0:
320,192,12369,1,0,0:0:0:0:
192,192,12830,1,0,0:0:0:0:
320,192,13292,128,0,14215:0:0:0:0:
64,192,14215,5,0,0:0:0:0:
192,192,14676,1,0,0:0:0:0:
320,192,15138,128,0,17445:0:0:0:0:
64,192,17907,1,0,0:0:0:0:
192,192,18369,1,0,0:0:0:0:
320,192,18830,128,0,21138:0:0:0:0:
192,192,21138,1,0,0:0:0:30:clap.wav
64,192,22061,1,0,0:0:0:0:
320,192,22061,1,0,0:0:0:30:clap.wav
192,192,24599,1,0,0:0:0:0:
320,192,25061,1,0,0:0:0:0:
448,192,25522,1,0,0:0:0:0:
64,192,26445,1,0,0:0:0:0:
448,192,26907,1,0,0:0:0:0:
192,192,28292,1,0,0:0:0:0:
320,192,28753,1,0,0:0:0:0:
64,192,29676,1,0,0:0:0:0:
320,192,29907,1,0,0:0:0:30:bassdrum.wav
448,192,29907,1,0,0:0:0:30:cymbol.wav
192,192,30138,1,0,0:0:0:0:
320,192,30599,1,0,0:0:0:0:
320,192,31984,1,0,0:0:0:0:
448,192,33369,1,0,0:0:0:0:
320,192,33830,1,0,0:0:0:0:
192,192,34292,1,0,0:0:0:0:
192,192,35445,1,0,0:0:0:0:
448,192,35445,1,0,0:0:0:0:
448,192,36138,1,0,0:0:0:0:
320,192,36369,1,0,0:0:0:0:
192,192,36599,1,0,0:0:0:0:
64,192,36830,1,0,0:0:0:0:
448,192,36830,1,0,0:0:0:0:
320,192,37292,1,0,0:0:0:30:cymbol.wav
192,192,37753,1,0,0:0:0:30:bassdrum.wav
320,192,38215,1,0,0:0:0:30:bassdrum.wav
192,192,38676,1,0,0:0:0:30:bassdrum.wav
320,192,39138,1,0,0:0:0:30:bassdrum.wav
64,192,39599,1,0,0:0:0:30:bassdrum.wav
320,192,40061,1,0,0:0:0:30:bassdrum.wav
64,192,40522,1,0,0:0:0:30:bassdrum.wav
320,192,40984,1,0,0:0:0:30:bassdrum.wav
192,192,41445,1,0,0:0:0:30:bassdrum.wav
320,192,41907,1,0,0:0:0:30:bassdrum.wav
64,192,42369,1,0,0:0:0:30:bassdrum.wav
448,192,42830,1,0,0:0:0:30:bassdrum.wav
192,192,43292,1,0,0:0:0:30:bassdrum.wav
448,192,43753,1,0,0:0:0:30:bassdrum.wav
192,192,44215,1,0,0:0:0:30:bassdrum.wav
448,192,44676,1,0,0:0:0:30:bassdrum.wav
192,192,45138,1,0,0:0:0:30:bassdrum.wav
320,192,45599,1,0,0:0:0:30:bassdrum.wav
192,192,46061,1,0,0:0:0:30:bassdrum.wav
320,192,46522,1,0,0:0:0:30:bassdrum.wav
192,192,46984,1,0,0:0:0:30:bassdrum.wav
320,192,47445,1,0,0:0:0:30:bassdrum.wav
192,192,47907,1,0,0:0:0:30:bassdrum.wav
64,192,48369,1,0,0:0:0:0:
448,192,48369,1,0,0:0:0:0:
320,192,48830,1,0,0:0:0:30:bassdrum.wav
192,192,49292,1,0,0:0:0:30:bassdrum.wav
320,192,49753,1,0,0:0:0:30:bassdrum.wav
64,192,50215,1,0,0:0:0:0:
192,192,50215,1,0,0:0:0:0:
320,192,50676,1,0,0:0:0:0:
448,192,51138,1,0,0:0:0:30:clap.wav
320,192,51369,1,0,0:0:0:0:
192,192,51599,1,0,0:0:0:30:bassdrum.wav
192,192,51830,1,0,0:0:0:30:bassdrum.wav
448,192,52061,1,0,0:0:0:0:
64,192,52061,1,0,0:0:0:0:
64,192,52984,1,0,0:0:0:0:
320,192,52984,1,0,0:0:0:0:
64,192,53907,1,0,0:0:0:0:
192,192,53907,1,0,0:0:0:0:
64,192,54830,1,0,0:0:0:0:
448,192,54830,1,0,0:0:0:0:
320,192,55753,1,0,0:0:0:0:
448,192,55753,1,0,0:0:0:0:
192,192,56676,1,0,0:0:0:0:
320,192,56676,1,0,0:0:0:0:
64,192,57599,1,0,0:0:0:0:
192,192,57599,1,0,0:0:0:0:
64,192,58522,1,0,0:0:0:0:
448,192,58522,1,0,0:0:0:0:
320,192,59445,1,0,0:0:0:0:
448,192,59445,1,0,0:0:0:0:
64,192,60369,1,0,0:0:0:0:
192,192,60369,1,0,0:0:0:0:
64,192,61292,1,0,0:0:0:0:
448,192,61292,1,0,0:0:0:0:
192,192,62215,1,0,0:0:0:0:
320,192,62676,1,0,0:0:0:0:
448,192,62676,1,0,0:0:0:0:
64,192,63138,1,0,0:0:0:0:
320,192,63599,1,0,0:0:0:0:
64,192,64061,1,0,0:0:0:0:
320,192,64522,1,0,0:0:0:0:
448,192,64522,1,0,0:0:0:0:
64,192,64984,128,0,65907:0:0:0:0:
320,192,65907,128,0,66830:0:0:0:0:
192,192,66830,1,0,0:0:0:30:bassdrum.wav
448,192,67292,1,0,0:0:0:30:clap.wav
64,192,67753,1,0,0:0:0:30:bassdrum.wav
320,192,68215,1,0,0:0:0:30:clap.wav
192,192,68676,1,0,0:0:0:30:bassdrum.wav
320,192,69138,1,0,0:0:0:30:clap.wav
192,192,69369,1,0,0:0:0:0:
64,192,69599,1,0,0:0:0:30:bassdrum.wav
320,192,70061,1,0,0:0:0:30:clap.wav
448,192,70522,1,0,0:0:0:30:bassdrum.wav
192,192,70984,1,0,0:0:0:30:clap.wav
448,192,71445,1,0,0:0:0:30:bassdrum.wav
192,192,71907,1,0,0:0:0:30:clap.wav
320,192,72369,1,0,0:0:0:30:bassdrum.wav
192,192,72830,1,0,0:0:0:30:clap.wav
320,192,73061,1,0,0:0:0:0:
448,192,73292,1,0,0:0:0:30:bassdrum.wav
192,192,73753,128,0,74215:0:0:0:0:
64,192,74215,1,0,0:0:0:30:bassdrum.wav
448,192,74676,1,0,0:0:0:30:clap.wav
64,192,75138,1,0,0:0:0:30:bassdrum.wav
448,192,75599,1,0,0:0:0:30:clap.wav
64,192,76061,1,0,0:0:0:30:bassdrum.wav
448,192,76522,1,0,0:0:0:30:clap.wav
192,192,76984,1,0,0:0:0:30:bassdrum.wav
320,192,77445,1,0,0:0:0:30:clap.wav
64,192,77907,1,0,0:0:0:30:bassdrum.wav
320,192,78369,1,0,0:0:0:30:clap.wav
64,192,78830,1,0,0:0:0:30:bassdrum.wav
320,192,79292,1,0,0:0:0:30:clap.wav
64,192,79753,1,0,0:0:0:0:
192,192,80215,1,0,0:0:0:0:
320,192,80676,1,0,0:0:0:0:
448,192,81138,128,0,81599:0:0:0:0:
64,192,81599,1,0,0:0:0:30:bassdrum.wav
448,192,82061,1,0,0:0:0:30:clap.wav
64,192,82522,1,0,0:0:0:30:bassdrum.wav
448,192,82984,1,0,0:0:0:30:clap.wav
192,192,83445,1,0,0:0:0:30:bassdrum.wav
448,192,83907,1,0,0:0:0:30:clap.wav
320,192,84138,1,0,0:0:0:0:
192,192,84369,1,0,0:0:0:0:
320,192,84830,1,0,0:0:0:30:clap.wav
64,192,85292,1,0,0:0:0:30:bassdrum.wav
448,192,85753,1,0,0:0:0:30:clap.wav
64,192,86215,1,0,0:0:0:30:bassdrum.wav
448,192,86676,1,0,0:0:0:30:clap.wav
192,192,87138,1,0,0:0:0:30:bassdrum.wav
64,192,87599,1,0,0:0:0:0:
192,192,87830,1,0,0:0:0:0:
320,192,88061,1,0,0:0:0:0:
64,192,88522,128,0,88984:0:0:0:0:
448,192,88984,1,0,0:0:0:0:
320,192,89445,1,0,0:0:0:30:clap.wav
192,192,89907,1,0,0:0:0:30:bassdrum.wav
320,192,90369,1,0,0:0:0:30:clap.wav
64,192,90830,1,0,0:0:0:30:bassdrum.wav
448,192,91292,1,0,0:0:0:30:clap.wav
192,192,91753,1,0,0:0:0:30:bassdrum.wav
320,192,92215,1,0,0:0:0:30:clap.wav
192,192,92676,1,0,0:0:0:30:bassdrum.wav
320,192,93138,1,0,0:0:0:30:clap.wav
192,192,93599,1,0,0:0:0:30:bassdrum.wav
320,192,94061,1,0,0:0:0:30:clap.wav
64,192,94522,1,0,0:0:0:0:
64,192,94984,1,0,0:0:0:0:
192,192,95445,1,0,0:0:0:0:
320,192,95907,1,0,0:0:0:0:
448,192,96369,128,0,98676:0:0:0:0:
192,192,99138,1,0,0:0:0:0:
320,192,99599,1,0,0:0:0:0:
448,192,100061,128,0,102369:0:0:0:0:
