osu file format v14

[General]
AudioFilename: Log Horizon ED - Your song by Yun chi HD.mp3
AudioLeadIn: 1500
PreviewTime: 66843
Countdown: 0
SampleSet: Soft
StackLeniency: 0.7
Mode: 0
LetterboxInBreaks: 0
WidescreenStoryboard: 0

[Editor]
Bookmarks: 15138
DistanceSpacing: 1.2
BeatDivisor: 4
GridSize: 32
TimelineZoom: 1.9

[Metadata]
Title:Your song*
TitleUnicode:Your song*
Artist:Yun*chi
ArtistUnicode:Yun*chi
Creator:Beomsan
Version:Insane*
Source:ログ・ホライズン
Tags:TV Size Log Horizon ending LogHora ログホラ Doyak guineaQ eINess
BeatmapID:776730
BeatmapSetID:352479

[Difficulty]
HPDrainRate:6
CircleSize:4
OverallDifficulty:7
ApproachRate:8
SliderMultiplier:1.5
SliderTickRate:1

[Events]
//Background and Video events
0,0,"LogHorizon.jpg",0,0
Video,14228,"ED+video.avi"
//Break Periods
//Storyboard Layer 0 (Background)
//Storyboard Layer 1 (Fail)
//Storyboard Layer 2 (Pass)
//Storyboard Layer 3 (Foreground)
//Storyboard Sound Samples

[TimingPoints]
382,461.538461538462,4,2,20,35,1,0
14689,-100,4,2,6,40,0,0
14805,-100,4,2,20,50,0,0
15151,-80,4,2,21,80,0,1
21612,-80,4,2,20,80,0,1
21728,-80,4,2,21,80,0,1
22074,-80,4,2,20,60,0,1
22535,-100,4,2,20,70,0,0
36151,-100,4,2,2,70,0,0
36266,-100,4,2,20,70,0,0
36843,-100,4,2,6,55,0,0
37305,-100,4,2,21,60,0,0
37535,-100,4,2,21,60,0,0
40305,-100,4,2,20,75,0,0
40535,-100,4,2,21,60,0,0
40766,-100,4,2,20,75,0,0
40997,-100,4,2,21,60,0,0
44458,-100,4,2,20,60,0,0
44689,-100,4,2,21,60,0,0
50228,-100,4,2,6,45,0,0
50343,-100,4,2,21,60,0,0
52074,-100,4,2,21,60,0,0
52535,-100,4,2,21,60,0,0
53458,-100,4,2,20,60,0,0
53574,-100,4,2,21,60,0,0
54843,-100,4,2,20,60,0,0
55305,-100,4,2,2,50,0,0
55535,-100,4,2,20,60,0,0
55766,-100,4,2,21,60,0,0
57151,-100,4,2,2,50,0,0
57382,-100,4,2,21,60,0,0
58997,-100,4,2,2,50,0,0
59458,-100,4,2,21,60,0,0
60843,-100,4,2,2,50,0,0
61305,-100,4,2,21,60,0,0
62689,-100,4,2,2,50,0,0
62805,-100,4,2,21,60,0,0
64535,-100,4,2,2,50,0,0
64997,-100,4,2,6,50,0,0
65112,-100,4,2,6,50,0,0
65458,-100,4,2,20,60,0,0
65920,-100,4,2,20,60,0,0
66382,-100,4,2,21,60,0,0
66843,-80,4,2,21,90,0,1
67189,-80,4,2,21,90,0,1
73766,-80,4,2,21,90,0,1
74228,-80,4,2,21,90,0,1
80689,-80,4,2,21,90,0,0
81151,-80,4,2,21,90,0,0
81612,-80,4,2,21,90,0,1
88535,-80,4,2,21,90,0,1
88997,-80,4,2,21,90,0,1
95458,-80,4,2,21,90,0,0
95920,-80,4,2,21,90,0,0
96382,-80,4,2,21,80,0,1
101458,-80,4,2,6,55,0,1
101574,-80,4,2,21,50,0,1
102035,-80,4,2,21,30,0,1
103535,-80,4,2,21,5,0,0

[Colours]
Combo1 : 255,255,140
Combo2 : 0,255,128
Combo3 : 0,128,255
Combo4 : 255,113,113

[HitObjects]
88,264,382,6,0,B|170:240|166:297|251:262,1,150,2|8,0:0|0:0,0:0:0:0:
196,96,1305,2,0,P|182:175|240:171,1,150,2|8,0:0|0:0,0:0:0:0:
392,128,2228,2,0,P|404:256|388:284,1,150,2|8,0:0|0:0,0:0:0:0:
256,344,3151,5,2,0:0:0:0:
236,256,3382,1,2,0:0:0:0:
280,180,3612,1,10,0:0:0:0:
260,92,3843,1,2,0:0:0:0:
204,168,4074,6,0,P|322:158|344:132,1,150,2|8,0:0|0:0,0:0:0:0:
176,88,4997,2,0,P|56:100|36:124,1,150,2|8,0:0|0:0,0:0:0:0:
124,280,5920,2,0,L|280:264,1,150,2|8,0:0|0:0,0:0:0:0:
384,220,6843,5,2,0:0:0:0:
372,132,7074,1,2,0:0:0:0:
282,131,7305,1,8,0:0:0:0:
294,219,7536,1,2,0:0:0:0:
384,220,7766,6,0,L|360:64,1,150,2|8,0:0|0:0,0:0:0:0:
150,71,8689,2,0,L|128:220,1,150,2|8,0:0|0:0,0:0:0:0:
228,204,9382,2,0,L|232:176,3,18.75,0|0|0|0,0:0|0:0|0:0|0:0,0:0:0:0:
222,232,9612,6,0,B|294:263|294:263|367:229,1,150,2|8,0:0|0:0,0:0:0:0:
320,60,10535,2,0,B|248:29|248:29|175:63,1,150,2|8,0:0|0:0,0:0:0:0:
252,148,11228,2,0,L|252:116,3,18.75,0|0|0|0,0:0|0:0|0:0|0:0,0:0:0:0:
252,172,11458,6,0,L|252:337,1,150,4|8,0:0|0:0,0:0:0:0:
428,297,12382,2,0,L|428:147,1,150,2|8,0:0|0:0,0:0:0:0:
256,192,13305,12,4,14689,0:0:0:0:
352,120,15151,6,0,P|380:156|384:216,2,93.75,6|0|8,0:0|0:0|0:0,0:0:0:0:
216,72,15843,1,0,0:0:0:0:
216,72,15958,1,0,0:0:0:0:
216,72,16074,1,2,0:0:0:0:
163,200,16305,2,0,P|208:211|254:206,1,93.75,0|8,0:0|0:0,0:0:0:0:
140,116,16766,1,0,0:0:0:0:
40,180,16997,6,0,P|56:264|68:280,1,93.75,2|0,0:0|0:0,0:0:0:0:
184,300,17458,1,8,0:0:0:0:
300,200,17689,1,0,0:0:0:0:
191,98,17920,2,0,P|185:148|236:234,1,140.625,2|0,0:0|0:0,0:0:0:0:
226,226,18382,1,8,0:0:0:0:
376,216,18612,1,0,0:0:0:0:
376,216,18728,1,0,0:0:0:0:
376,216,18843,6,0,P|380:160|360:116,1,93.75,6|0,0:0|0:0,0:0:0:0:
237,46,19305,2,0,P|261:96|300:124,1,93.75,8|0,0:0|0:0,0:0:0:0:
424,44,19766,2,0,P|367:40|324:59,1,93.75,2|0,0:0|0:0,0:0:0:0:
288,199,20228,2,0,P|244:212|198:208,1,93.75,8|0,0:0|0:0,0:0:0:0:
336,120,20689,6,0,P|376:224|360:260,1,140.625,6|0,0:0|0:0,0:0:0:0:
368,245,21151,1,8,0:0:0:0:
258,126,21382,1,0,0:0:0:0:
354,22,21612,1,2,0:0:0:0:
354,22,21728,1,0,0:0:0:0:
354,22,21843,1,2,0:0:0:0:
466,90,22074,1,12,0:0:0:0:
453,221,22305,1,0,0:0:0:0:
290,145,22535,6,0,L|205:150,2,75,2|0|2,0:0|0:0|0:0,0:0:0:0:
290,145,23228,1,0,0:0:0:0:
224,71,23458,2,0,L|137:75,2,75,2|0|2,0:0|0:0|0:0,0:0:0:0:
320,60,24151,6,0,P|378:165|364:197,1,150
296,226,24843,1,2,0:0:0:0:
290,145,25074,1,0,0:0:0:0:
464,151,25305,2,0,P|480:187|480:227,1,75,2|0,0:0|0:0,0:0:0:0:
416,279,25766,2,0,P|400:243|400:203,1,75,2|0,0:0|0:0,0:0:0:0:
417,362,26228,6,0,L|341:374,2,75,2|0|2,0:0|0:0|0:0,0:0:0:0:
337,294,26920,2,0,L|261:306,2,75,0|2|0,0:0|0:0|0:0,0:0:0:0:
328,204,27612,1,2,0:0:0:0:
331,114,27843,6,0,P|280:55|259:93,1,150,0|0,0:0|0:0,0:0:0:0:
260,177,28535,2,0,P|295:200|334:202,1,75,2|0,0:0|0:0,0:0:0:0:
331,114,28997,1,2,0:0:0:0:
260,177,29228,1,0,0:0:0:0:
180,128,29458,2,0,P|219:94|252:86,1,75,2|0,0:0|0:0,0:0:0:0:
260,177,29920,6,0,P|272:213|268:261,1,75,4|0,2:1|0:0,0:0:0:0:
182,230,30382,2,0,P|174:267|146:306,1,75,2|0,0:0|0:0,0:0:0:0:
92,232,30843,2,0,P|66:260|23:280,2,75,2|0|2,0:0|0:0|0:0,0:0:0:0:
134,150,31535,6,0,P|255:170|265:188,1,150,0|0,0:0|0:0,0:0:0:0:
287,91,32228,2,0,P|250:64|220:55,1,75,2|0,0:0|0:0,0:0:0:0:
69,114,32689,2,0,P|106:141|136:150,2,75,2|0|2,0:0|0:0|0:0,0:0:0:0:
88,239,33382,6,0,P|166:253|235:236,1,150,0|0,0:0|0:0,0:0:0:0:
234,237,34074,1,2,0:0:0:0:
292,104,34305,2,0,P|284:176|340:152,1,150
235,49,34997,2,0,P|198:91|192:109,1,75,2|0,0:0|0:0,0:0:0:0:
250,252,35458,5,0,0:0:0:0:
369,360,35689,1,0,0:0:0:0:
334,204,35920,1,0,0:0:0:0:
268,347,36151,1,0,0:0:0:0:
406,270,36382,5,0,0:0:0:0:
406,270,36497,1,0,0:0:0:0:
406,270,36612,1,0,0:0:0:0:
408,124,36843,1,4,0:0:0:0:
374,104,36958,1,0,0:0:0:0:
338,103,37073,1,0,0:0:0:0:
304,118,37189,1,0,0:0:0:0:
281,147,37305,6,0,P|250:173|208:185,1,75,6|0,0:0|0:0,0:0:0:0:
142,133,37766,2,0,P|172:106|214:94,1,75,2|0,0:0|0:0,0:0:0:0:
281,147,38228,2,0,P|298:183|298:227,2,75,2|0|2,0:0|0:0|0:0,0:0:0:0:
216,204,38920,6,0,P|287:301|314:301,1,150,0|0,0:0|0:0,0:0:0:0:
382,244,39612,1,2,0:0:0:0:
480,261,39843,1,0,0:0:0:0:
470,361,40074,1,0,0:0:0:0:
372,344,40305,1,2,0:0:0:0:
402,251,40535,1,0,0:0:0:0:
394,153,40766,1,2,0:0:0:0:
313,172,40997,6,0,P|312:135|327:102,1,75,2|0,0:0|0:0,0:0:0:0:
454,212,41458,2,0,P|416:235|384:235,1,75,2|0,0:0|0:0,0:0:0:0:
413,72,41920,2,0,P|452:92|468:120,2,75,2|0|0,0:0|0:0|0:0,0:0:0:0:
331,103,42612,6,0,P|231:155|198:139,1,150
110,172,43305,1,2,0:0:0:0:
73,81,43535,1,0,0:0:0:0:
169,53,43766,1,2,0:0:0:0:
206,144,43996,1,0,0:0:0:0:
110,172,44228,1,2,0:0:0:0:
102,270,44458,1,2,0:0:0:0:
150,346,44689,6,0,P|190:346|226:330,1,75,2|0,0:0|0:0,0:0:0:0:
250,252,45151,2,0,P|210:252|174:268,1,75,2|0,0:0|0:0,0:0:0:0:
305,313,45612,2,0,P|329:245|325:229,2,75,2|0|2,0:0|0:0|0:0,0:0:0:0:
250,252,46305,6,0,P|330:163|354:169,1,150,0|0,0:0|0:0,0:0:0:0:
467,120,46997,1,2,0:0:0:0:
467,249,47228,1,0,0:0:0:0:
390,144,47458,1,2,0:0:0:0:
512,183,47689,1,0,0:0:0:0:
390,223,47920,1,2,0:0:0:0:
467,120,48151,1,0,0:0:0:0:
467,249,48382,6,0,P|429:296|405:304,1,75,2|0,0:0|0:0,0:0:0:0:
332,271,48843,1,2,0:0:0:0:
240,255,49074,2,0,P|207:273|186:304,1,75,0|2,0:0|0:0,0:0:0:0:
274,334,49535,1,0,0:0:0:0:
367,334,49766,2,0,P|354:297|330:269,1,75,2|0,0:0|0:0,0:0:0:0:
186,303,50228,5,6,0:0:0:0:
332,271,50458,1,0,0:0:0:0:
381,144,50689,1,2,0:0:0:0:
235,176,50919,1,2,0:0:0:0:
401,223,51151,6,0,P|456:182|462:161,1,75,8|2,0:0|0:0,0:0:0:0:
287,113,51612,1,8,0:0:0:0:
253,96,51727,1,4,0:3:0:0:
216,97,51842,1,8,0:3:0:0:
183,115,51958,1,8,0:0:0:0:
163,146,52074,6,0,B|151:169|154:212|181:236|181:236|151:261|147:289,1,150,6|0,0:0|0:0,0:0:0:0:
224,303,52766,1,2,0:0:0:0:
269,368,52997,2,0,P|301:312|301:296,2,75,0|2|0,0:0|0:0|0:0,0:0:0:0:
363,152,53920,6,0,B|407:160|427:216|411:256|411:256|435:288,1,150,2|0,0:0|0:0,0:0:0:0:
343,224,54612,1,2,0:0:0:0:
288,169,54843,2,0,P|287:131|307:98,2,75,2|0|0,0:0|3:0|0:0,0:0:0:0:
343,224,55535,1,0,3:2:0:0:
334,304,55766,6,0,P|265:329|197:303,1,150,2|0,0:0|0:0,0:0:0:0:
267,240,56458,1,2,0:0:0:0:
190,223,56689,2,0,P|132:257|124:273,2,75,0|2|0,0:0|0:0|0:0,0:0:0:0:
387,224,57612,6,0,P|379:144|335:168,1,150,2|0,0:0|0:0,0:0:0:0:
307,228,58305,1,2,0:0:0:0:
347,296,58535,2,0,P|410:305|425:298,2,75,2|0|0,0:0|0:0|0:0,0:0:0:0:
307,228,59228,1,0,0:0:0:0:
268,298,59458,6,0,P|236:189|256:166,1,150,2|0,0:0|0:0,0:0:0:0:
232,94,60151,1,2,0:0:0:0:
155,76,60382,2,0,L|68:87,2,75,0|2|0,0:0|0:0|0:0,0:0:0:0:
224,216,61305,6,0,P|230:325|204:352,1,150,2|0,0:0|0:0,0:0:0:0:
155,276,61997,1,2,0:0:0:0:
148,197,62228,2,0,P|173:155|210:139,2,75
331,110,63151,5,2,0:0:0:0:
235,65,63382,1,0,3:0:0:0:
154,133,63612,1,2,0:0:0:0:
241,248,63843,1,0,0:0:0:0:
321,122,64074,5,2,0:0:0:0:
225,77,64305,1,0,3:0:0:0:
144,145,64535,1,2,0:0:0:0:
249,166,64766,2,0,L|299:157,1,37.5,2|0,0:0|0:0,0:0:0:0:
308,189,64997,5,4,0:0:0:0:
319,224,65112,1,0,0:0:0:0:
320,261,65227,1,0,0:0:0:0:
311,297,65343,1,0,0:0:0:0:
284,325,65458,2,0,L|236:333,3,37.5,2|0|0|0,0:0|0:0|0:0|0:0,0:0:0:0:
332,325,65920,5,2,0:0:0:0:
369,327,66035,1,0,0:0:0:0:
406,330,66150,1,0,0:0:0:0:
444,332,66266,1,0,0:0:0:0:
482,333,66382,5,8,0:0:0:0:
473,297,66498,1,8,0:0:0:0:
474,260,66613,1,8,0:0:0:0:
486,225,66728,1,8,0:0:0:0:
498,191,66843,6,0,P|498:115|450:64,1,140.625,6|0,0:0|0:0,0:0:0:0:
427,49,67305,1,8,0:0:0:0:
319,140,67535,1,0,0:0:0:0:
176,132,67766,2,0,P|173:85|192:43,1,93.75,2|0,0:0|0:0,0:0:0:0:
244,180,68228,1,8,0:0:0:0:
104,208,68458,1,0,0:0:0:0:
56,76,68689,6,0,P|108:80|156:108,1,93.75,2|0,0:0|0:0,0:0:0:0:
184,239,69151,1,8,0:0:0:0:
98,350,69382,1,0,0:0:0:0:
249,315,69612,2,0,P|283:216|260:177,1,140.625,2|0,0:0|0:0,0:0:0:0:
247,165,70074,2,0,L|353:176,1,93.75,12|0,0:0|0:0,0:0:0:0:
362,156,70420,1,0,0:0:0:0:
383,137,70535,6,0,P|360:71|290:46,1,140.625,6|0,0:0|0:0,0:0:0:0:
260,54,70997,1,8,0:0:0:0:
127,119,71228,2,0,P|128:165|154:203,1,93.75,0|2,0:0|0:0,0:0:0:0:
310,203,71689,2,0,P|340:133|334:107,1,93.75,0|8,0:0|0:0,0:0:0:0:
236,242,72151,1,0,0:0:0:0:
308,282,72382,6,0,P|376:247|387:222,1,93.75,6|0,0:0|0:0,0:0:0:0:
251,339,72843,2,0,P|319:361|350:349,1,93.75,8|0,0:0|0:0,0:0:0:0:
489,266,73305,2,0,L|482:220,3,46.875,2|0|0|0,0:0|0:0|0:0|0:0,0:0:0:0:
472,185,73766,5,12,0:0:0:0:
460,151,73882,1,0,0:0:0:0:
439,123,73997,1,0,0:0:0:0:
411,103,74112,1,0,0:0:0:0:
377,93,74228,6,0,B|330:121|330:121|239:110,1,140.625,6|0,0:0|0:0,0:0:0:0:
203,106,74689,1,8,0:0:0:0:
293,218,74920,2,0,P|309:266|301:314,1,93.75,0|2,0:0|0:0,0:0:0:0:
158,317,75382,2,0,L|62:285,1,93.75,0|8,0:0|0:0,0:0:0:0:
136,160,75843,6,0,P|172:184|224:188,1,93.75,0|6,0:0|0:0,0:0:0:0:
367,118,76305,2,0,P|323:115|276:137,1,93.75,0|8,0:0|0:0,0:0:0:0:
354,254,76766,1,0,0:0:0:0:
244,352,76997,1,2,0:0:0:0:
242,305,77112,1,0,0:0:0:0:
254,260,77227,1,0,0:0:0:0:
419,184,77458,2,0,P|447:133|442:85,1,93.75,8|0,0:0|0:0,0:0:0:0:
290,174,77920,6,0,P|242:171|186:190,1,93.75,6|0,0:0|0:0,0:0:0:0:
332,344,78382,2,0,P|351:291|352:240,1,93.75,8|0,0:0|0:0,0:0:0:0:
379,80,78843,2,0,P|332:75|289:58,1,93.75,2|0,0:0|0:0,0:0:0:0:
118,174,79305,2,0,P|165:169|208:152,1,93.75,8|0,0:0|0:0,0:0:0:0:
150,35,79766,5,2,0:0:0:0:
290,59,79997,1,0,0:0:0:0:
258,198,80228,1,8,0:0:0:0:
118,174,80459,1,0,0:0:0:0:
308,141,80689,5,2,0:0:0:0:
308,141,80805,1,0,0:0:0:0:
308,141,80920,1,8,0:0:0:0:
308,141,81035,1,0,0:0:0:0:
353,151,81151,5,8,0:0:0:0:
391,176,81266,1,8,0:0:0:0:
417,215,81381,1,8,0:0:0:0:
426,261,81497,1,8,0:0:0:0:
416,306,81612,6,0,B|337:375|337:375|297:379,1,140.625,6|0,0:0|0:0,0:0:0:0:
260,377,82074,1,8,0:0:0:0:
360,262,82305,1,0,0:0:0:0:
507,298,82535,2,0,P|454:310|394:298,1,93.75,2|0,0:0|0:0,0:0:0:0:
297,217,82997,1,8,0:0:0:0:
158,251,83228,1,0,0:0:0:0:
237,373,83458,6,0,P|241:317|225:261,1,93.75,6|0,0:0|0:0,0:0:0:0:
84,183,83920,1,8,0:0:0:0:
85,330,84151,1,0,0:0:0:0:
168,212,84382,2,0,B|214:123|214:123|217:81,1,140.625,2|0,0:0|0:0,0:0:0:0:
213,42,84843,1,8,0:0:0:0:
262,215,85074,1,0,0:0:0:0:
262,215,85189,1,0,0:0:0:0:
262,215,85305,6,0,B|313:238|313:238|407:232,1,140.625,6|0,0:0|0:0,0:0:0:0:
435,229,85766,1,8,0:0:0:0:
512,296,85997,2,0,P|466:326|424:330,1,93.75,0|2,0:0|0:0,0:0:0:0:
327,371,86458,2,0,P|320:319|335:273,1,93.75,0|8,0:0|0:0,0:0:0:0:
245,175,86920,6,0,P|289:139|306:104,1,93.75,0|6,0:0|0:0,0:0:0:0:
175,56,87382,1,0,0:0:0:0:
175,56,87612,2,0,P|131:92|114:127,1,93.75,8|0,0:0|0:0,0:0:0:0:
89,299,88074,2,0,L|136:292,3,46.875,2|0|0|0,0:0|0:0|0:0|0:0,0:0:0:0:
170,287,88535,5,8,0:0:0:0:
205,286,88650,1,0,0:0:0:0:
238,295,88765,1,0,0:0:0:0:
268,314,88881,1,0,0:0:0:0:
292,340,88997,6,0,B|301:312|324:292|359:286|359:286|345:264|342:237,1,140.625,6|0,0:0|0:0,0:0:0:0:
346,202,89458,1,8,0:0:0:0:
364,363,89689,1,0,0:0:0:0:
268,241,89920,2,0,P|272:157|284:141,1,93.75,2|0,0:0|0:0,0:0:0:0:
421,168,90382,2,0,P|417:252|405:268,1,93.75,8|0,0:0|0:0,0:0:0:0:
268,241,90843,5,6,0:0:0:0:
366,88,91074,1,0,0:0:0:0:
392,213,91305,1,8,0:0:0:0:
240,115,91535,1,0,0:0:0:0:
345,280,91766,1,2,0:0:0:0:
314,152,91997,1,0,0:0:0:0:
456,264,92228,6,0,P|463:343|456:360,1,93.75,8|0,0:0|0:0,0:0:0:0:
268,359,92689,2,0,P|261:280|268:263,1,93.75,6|0,0:0|0:0,0:0:0:0:
361,60,93151,1,8,0:0:0:0:
325,215,93382,1,0,0:0:0:0:
172,180,93612,1,2,0:0:0:0:
207,24,93843,1,0,0:0:0:0:
252,184,94074,1,8,0:0:0:0:
112,272,94305,1,0,0:0:0:0:
19,169,94535,5,6,0:0:0:0:
19,169,94766,1,2,0:0:0:0:
207,111,94997,1,8,0:0:0:0:
207,111,95228,1,2,0:0:0:0:
387,160,95458,5,8,0:0:0:0:
390,175,95573,1,0,0:0:0:0:
394,191,95688,1,2,0:0:0:0:
398,205,95804,1,0,0:0:0:0:
399,231,95920,5,8,0:3:0:0:
376,272,96035,1,0,0:0:0:0:
338,299,96150,1,8,0:0:0:0:
293,306,96266,1,8,0:0:0:0:
248,294,96382,6,0,B|200:299|148:284|148:284|111:302,1,140.625,6|0,0:0|0:0,0:0:0:0:
152,328,96843,1,8,0:0:0:0:
258,213,97074,1,0,0:0:0:0:
168,45,97305,2,0,B|177:92|166:145|166:145|188:180,1,140.625,2|0,0:0|0:0,0:0:0:0:
219,143,97766,1,8,0:0:0:0:
65,127,97997,1,0,0:0:0:0:
195,254,98228,6,0,P|307:270|323:250,1,140.625,6|0,0:0|0:0,0:0:0:0:
336,231,98689,1,8,0:0:0:0:
290,97,98920,1,0,0:0:0:0:
150,87,99151,2,0,P|178:127|230:143,1,93.75,2|0,0:0|0:0,0:0:0:0:
348,179,99612,2,0,P|404:139|344:107,1,140.625,8|0,0:0|0:0,0:0:0:0:
331,102,100074,5,6,0:0:0:0:
381,256,100305,1,0,0:0:0:0:
493,152,100535,1,8,0:0:0:0:
365,68,100766,1,0,0:0:0:0:
261,168,100997,2,0,P|273:220|309:260,1,93.75,2|2,0:0|0:0,0:0:0:0:
417,339,101458,2,0,P|405:287|369:247,1,93.75,4|6,0:0|0:0,0:0:0:0:
270,355,101920,5,2,0:0:0:0:
256,192,102035,12,0,103535,0:0:0:0:
