osu file format v14

[General]
AudioFilename: 01. Wonderful Wonder World.mp3
AudioLeadIn: 0
PreviewTime: 62321
Countdown: 0
SampleSet: Soft
StackLeniency: 0.7
Mode: 0
LetterboxInBreaks: 0
WidescreenStoryboard: 0

[Editor]
DistanceSpacing: 0.9
BeatDivisor: 4
GridSize: 4
TimelineZoom: 3.1

[Metadata]
Title:Wonderful Wonder World*
TitleUnicode:Wonderful Wonder World*
Artist:Yun*chi
ArtistUnicode:ユンチ
Creator:lit120
Version:Insane
Source:ログ・ホライズン
Tags:log horizon 2 second season full ver version ending crcp-10328 -Hakurei- blizs fantastica KoiSuru_ k_i_a_i
BeatmapID:696404
BeatmapSetID:311832

[Difficulty]
HPDrainRate:7
CircleSize:4
OverallDifficulty:7
ApproachRate:8
SliderMultiplier:1.8
SliderTickRate:1

[Events]
//Background and Video events
0,0,"BG.jpg",0,0
//Break Periods
2,4396,10946
2,11896,14696
2,96071,102821
//Storyboard Layer 0 (Background)
//Storyboard Layer 1 (Fail)
//Storyboard Layer 2 (Pass)
//Storyboard Layer 3 (Foreground)
//Storyboard Sound Samples

[TimingPoints]
446,468.75,4,2,1,50,1,0
797,-100,4,2,1,15,0,0
914,-100,4,2,1,50,0,0
1266,-100,4,2,1,15,0,0
1383,-100,4,2,1,50,0,0
1735,-100,4,2,1,15,0,0
1852,-100,4,2,1,50,0,0
2203,-100,4,2,1,15,0,0
2321,-100,4,2,1,50,0,0
4196,-100,4,2,1,60,0,0
15446,-100,4,2,1,50,0,0
18727,-100,4,2,1,60,0,0
19196,-133.333333333333,4,2,1,60,0,0
19899,-133.333333333333,4,2,1,40,0,0
34196,-100,4,2,1,50,0,0
47321,-100,4,2,1,55,0,0
62321,-100,4,2,1,70,0,1
92321,-100,4,2,1,70,0,0
92438,-100,4,2,1,60,0,0
103571,-100,4,2,1,60,0,0
107321,-133.333333333333,4,2,1,60,0,0
107789,-133.333333333333,4,2,1,40,0,0
122321,-100,4,2,1,50,0,0
135446,-100,4,2,1,60,0,0
150446,-100,4,2,1,70,0,1
180446,-100,4,2,1,60,0,0
217477,-100,4,2,1,50,0,0
217946,-100,4,2,1,40,0,0
218063,-100,4,2,1,60,0,0
218414,-100,4,2,1,30,0,0
218883,-100,4,2,1,25,0,0
219352,-100,4,2,1,35,0,0
219821,-100,4,2,1,45,0,0
220289,-100,4,2,1,55,0,0
220758,-100,4,2,1,66,0,0
221696,-100,4,2,1,70,0,1
251696,-100,4,2,1,60,0,0
262946,-100,4,2,1,60,0,0
266696,-100,4,2,1,70,0,0
282633,-100,4,2,1,40,0,0
283571,-100,4,2,1,35,0,0
284508,-100,4,2,1,30,0,0
285446,-100,4,2,1,25,0,0
286383,-100,4,2,1,20,0,0
287321,-100,4,2,1,15,0,0
288258,-100,4,2,1,10,0,0
289196,-100,4,2,1,5,0,0

[Colours]
Combo1 : 67,5,250
Combo2 : 255,114,9
Combo3 : 168,23,255

[HitObjects]
256,166,446,6,0,P|282:105|340:72,1,135,2|0,0:0|0:0,0:0:0:0:
349,165,914,2,0,P|388:218|388:284,1,135,2|0,0:0|0:0,0:0:0:0:
303,246,1383,2,0,P|237:253|180:220,1,135,2|0,0:0|0:0,0:0:0:0:
145,134,1852,2,0,P|99:181|91:247,1,135,2|0,0:0|0:0,0:0:0:0:
100,297,2321,5,2,0:0:0:0:
256,339,2555,1,2,0:0:0:0:
256,339,3024,1,2,0:0:0:0:
256,192,3141,12,4,4196,0:0:0:0:
256,192,11696,5,4,0:0:0:0:
400,256,15446,6,0,P|326:263|286:235,1,90,4|2,0:3|0:3,0:0:0:0:
200,124,15914,2,0,P|156:114|113:126,1,90,4|2,0:3|0:3,0:0:0:0:
113,259,16383,2,0,P|155:271|199:261,1,90,4|2,0:3|0:3,0:0:0:0:
317,127,16851,2,0,P|361:117|404:128,1,90,4|2,0:3|0:3,0:0:0:0:
400,256,17321,5,4,0:3:0:0:
254,301,17555,1,6,0:3:0:0:
232,307,17672,1,4,0:3:0:0:
210,313,17789,2,4,L|156:330,2,45,8|4|6,0:0|0:3|0:3,0:3:0:0:
362,252,18258,1,4,0:3:0:0:
377,226,18375,1,4,0:3:0:0:
384,197,18492,1,6,0:3:0:0:
380,167,18609,1,4,0:3:0:0:
368,140,18727,2,4,L|339:98,2,45,8|4|4,0:0|0:3|0:3,0:3:0:0:
156,80,19196,6,0,P|116:112|184:244,1,202.500007724762,4|0,0:0|0:0,0:0:0:0:
184,160,20133,1,0,0:0:0:0:
256,120,20367,1,0,0:0:0:0:
328,160,20602,2,0,P|364:214|353:267,1,101.250003862381
351,287,21071,5,2,0:0:0:0:
288,337,21305,1,0,0:0:0:0:
214,370,21539,2,0,P|160:370|138:368,1,67.5000025749208
72,340,22008,2,0,B|16:276|64:200|64:200|13:216,1,202.500007724762
141,267,22946,6,0,P|192:252|224:220,1,67.5000025749208,2|0,0:0|0:0,0:0:0:0:
248,176,23414,1,0,0:0:0:0:
280,100,23649,2,0,B|296:64|352:44|352:44|380:88,1,135.000005149842
395,157,24352,2,0,P|398:189|392:223,1,67.5000025749208
360,298,24821,5,2,0:0:0:0:
288,335,25055,1,0,0:0:0:0:
209,355,25289,2,0,L|137:335,1,67.5000025749208
77,289,25758,1,2,0:0:0:0:
58,210,25992,1,0,0:0:0:0:
63,129,26227,2,0,L|123:74,1,67.5000025749208
183,43,26696,6,0,P|259:52|288:110,1,135.000005149842,2|0,0:0|0:0,0:0:0:0:
292,178,27399,1,0,0:0:0:0:
326,251,27633,2,0,B|360:279|360:279|354:339|408:372,1,135.000005149842
440,295,28336,1,0,0:0:0:0:
443,213,28571,6,0,B|419:137|419:137|367:101,1,135.000005149842,2|0,0:0|0:0,0:0:0:0:
293,93,29274,1,0,0:0:0:0:
212,98,29508,2,0,P|156:122|84:98,1,135.000005149842,2|0,0:0|0:0,0:0:0:0:
148,46,30211,1,0,0:0:0:0:
148,46,30446,6,0,L|152:194,1,135.000005149842,2|0,0:0|0:0,0:0:0:0:
180,250,31149,2,0,B|200:286|200:286|192:350|252:378,2,135.000005149842
280,302,32321,1,2,0:0:0:0:
256,192,32438,12,0,33727,0:0:0:0:
168,80,34196,5,2,0:0:0:0:
108,195,34430,1,2,0:3:0:0:
238,189,34664,1,4,0:3:0:0:
108,195,34899,1,2,0:3:0:0:
168,80,35133,2,0,P|232:68|272:72,1,90,4|2,0:3|0:3,0:0:0:0:
376,104,35602,2,0,L|404:216,1,90,4|2,0:3|0:3,0:0:0:0:
288,312,36071,5,2,0:0:0:0:
136,264,36305,1,2,0:3:0:0:
192,376,36539,1,4,0:3:0:0:
236,208,36774,1,2,0:3:0:0:
236,208,36891,1,0,0:0:0:0:
236,208,37008,2,0,B|128:136|128:136|76:144,1,180,4|4,0:3|0:3,0:0:0:0:
32,232,37711,1,2,0:3:0:0:
168,336,37946,6,0,P|224:336|260:316,2,90,2|2|4,0:0|0:3|0:3,0:0:0:0:
192,236,38649,1,2,0:3:0:0:
240,144,38883,2,0,P|288:120|336:120,1,90,4|2,0:3|0:3,0:3:0:0:
472,204,39352,2,0,P|424:228|376:228,1,90,4|2,0:3|0:3,0:3:0:0:
240,144,39821,5,2,0:0:0:0:
148,268,40055,1,2,0:3:0:0:
295,220,40289,1,4,0:3:0:0:
148,173,40524,1,2,0:3:0:0:
240,298,40758,1,2,0:0:0:0:
348,284,40992,1,2,0:3:0:0:
408,192,41227,2,0,P|424:132|416:100,1,90,4|2,0:3|0:3,0:3:0:0:
288,56,41696,6,0,B|232:44|232:44|180:52,1,90,2|2,0:0|0:3,0:0:0:0:
112,112,42164,1,4,0:3:0:0:
92,220,42399,1,2,0:3:0:0:
156,308,42633,2,0,B|252:344|252:344|300:336|324:304,1,180,4|4,0:3|0:3,0:3:0:0:
380,220,43336,1,2,0:3:0:0:
295,151,43571,6,4,P|204:143|134:213,1,180,2|4,0:0|0:3,0:3:0:0:
238,244,44274,1,2,0:3:0:0:
238,244,44508,2,0,B|208:131|208:131|145:94,1,180,2|4,0:0|0:3,0:0:0:0:
45,96,45211,1,2,0:3:0:0:
35,260,45446,5,2,0:0:0:0:
256,192,45563,12,4,46383,0:3:0:0:
181,84,46617,6,0,L|217:55,2,45,8|4|10,0:0|0:3|0:0,0:0:0:0:
153,107,46969,1,8,0:0:0:0:
136,138,47086,1,2,0:0:0:0:
128,293,47321,6,0,P|174:339|240:338,1,135,6|0,0:0|0:0,0:0:0:0:
240,338,47789,1,8,0:0:0:0:
334,184,48024,2,0,P|249:184|205:258,1,180,2|0,0:0|0:0,0:0:0:0:
335,334,48727,2,0,L|292:256,1,90,10|0,0:0|0:0,0:0:0:0:
196,124,49196,6,0,P|136:112|64:168,1,135,2|0,0:0|0:0,0:0:0:0:
75,148,49664,1,8,0:0:0:0:
108,248,49899,1,2,0:0:0:0:
108,248,50016,1,0,0:0:0:0:
108,248,50133,2,0,P|148:296|184:300,1,90
339,300,50602,2,0,P|381:285|404:248,1,90,10|0,0:0|0:0,0:0:0:0:
332,96,51071,6,0,B|276:66|232:96|232:96|192:72,1,135,2|0,0:0|0:0,0:0:0:0:
206,80,51539,1,8,0:0:0:0:
120,193,51774,1,2,0:0:0:0:
279,164,52008,2,0,P|324:169|364:189,1,90
400,360,52477,2,0,P|348:352|304:324,1,90,10|0,0:0|0:0,0:0:0:0:
148,244,52946,6,0,P|83:250|48:306,1,135,2|0,0:0|0:0,0:0:0:0:
48,306,53414,1,8,0:0:0:0:
226,311,53649,2,0,B|252:263|259:231|237:192|216:168|216:168|256:156,1,180,2|0,0:0|0:0,0:0:0:0:
368,136,54352,1,10,0:0:0:0:
341,244,54586,1,4,0:3:0:0:
316,50,54821,6,0,P|384:38|440:70,1,135,6|0,0:0|0:0,0:0:0:0:
439,69,55289,1,8,0:0:0:0:
460,174,55524,1,2,0:0:0:0:
420,274,55758,2,0,B|384:310|384:310|344:382|272:366,1,180,0|10,0:0|0:0,0:0:0:0:
156,286,56461,1,4,0:3:0:0:
266,157,56696,6,0,P|299:214|299:281,1,135,4|0,0:0|0:0,0:0:0:0:
299,282,57164,1,8,0:0:0:0:
156,286,57399,1,2,0:0:0:0:
156,286,57516,1,0,0:0:0:0:
156,286,57633,2,0,P|96:272|72:228,1,90
80,84,58102,2,0,P|112:53|156:49,1,90,10|4,0:0|0:3,0:0:0:0:
346,65,58571,5,6,0:0:0:0:
423,215,58805,1,0,0:0:0:0:
251,205,59039,1,8,0:0:0:0:
428,117,59274,1,4,0:3:0:0:
428,117,59391,1,4,0:3:0:0:
428,117,59508,5,4,0:0:0:0:
256,107,59742,1,0,0:3:0:0:
256,107,59860,1,4,0:3:0:0:
256,107,59977,1,10,0:0:0:0:
335,261,60211,1,4,0:3:0:0:
152,312,60446,5,2,0:0:0:0:
125,301,60563,1,4,0:3:0:0:
102,286,60680,1,4,0:3:0:0:
82,266,60797,1,4,0:3:0:0:
67,242,60914,1,8,0:0:0:0:
57,216,61031,1,4,0:3:0:0:
53,188,61149,1,2,0:0:0:0:
55,160,61266,1,0,0:0:0:0:
63,133,61383,5,0,0:0:0:0:
172,40,61617,1,8,0:0:0:0:
184,184,61852,1,8,0:0:0:0:
204,210,61969,1,0,0:0:0:0:
231,230,62086,1,0,0:0:0:0:
263,241,62203,1,0,0:0:0:0:
296,242,62321,6,0,P|344:224|376:172,1,90,4|2,0:0|0:3,0:0:0:0:
420,40,62789,1,8,0:0:0:0:
316,104,63024,1,2,0:3:0:0:
464,152,63258,2,0,P|491:187|497:231,1,90,4|2,0:3|0:3,0:0:0:0:
444,328,63727,1,8,0:0:0:0:
340,348,63961,1,2,0:3:0:0:
182,245,64196,6,0,P|176:184|196:148,1,90,2|2,0:0|0:3,0:0:0:0:
351,167,64664,2,0,P|318:196|275:206,1,90,8|2,0:0|0:3,0:0:0:0:
199,59,65133,2,0,P|242:74|271:107,1,90,4|2,0:3|0:3,0:0:0:0:
182,245,65602,2,0,P|137:243|99:221,1,90,10|2,0:0|0:3,0:0:0:0:
171,132,66071,5,2,0:0:0:0:
28,192,66305,1,2,0:3:0:0:
144,324,66539,2,0,B|200:336|200:336|248:328,1,90,8|2,0:0|0:3,0:0:0:0:
396,256,67008,1,4,0:3:0:0:
340,376,67242,1,2,0:3:0:0:
296,208,67477,2,0,L|268:120,1,90,8|2,0:0|0:3,0:0:0:0:
268,122,67828,1,0,0:0:0:0:
268,122,67946,5,2,0:0:0:0:
125,72,68180,1,2,0:3:0:0:
125,72,68297,1,0,0:0:0:0:
125,72,68414,1,8,0:0:0:0:
154,217,68649,1,2,0:0:0:0:
268,122,68883,2,0,P|320:100|384:96,1,90,4|2,0:3|0:3,0:0:0:0:
352,95,69235,1,0,0:0:0:0:
352,95,69352,1,8,0:0:0:0:
468,187,69586,1,2,0:3:0:0:
384,295,69821,6,0,P|332:317|268:321,1,90,2|2,0:0|0:3,0:0:0:0:
299,322,70172,1,0,0:0:0:0:
299,322,70289,1,8,0:0:0:0:
236,202,70524,1,2,0:3:0:0:
236,202,70641,1,0,0:0:0:0:
236,202,70758,1,4,0:3:0:0:
132,300,70992,1,2,0:3:0:0:
132,300,71110,1,0,0:0:0:0:
132,300,71227,2,0,P|78:284|26:245,1,90,8|2,0:0|0:3,0:0:0:0:
49,266,71578,1,0,0:0:0:0:
49,266,71696,5,2,0:0:0:0:
34,103,71930,1,2,0:3:0:0:
34,103,72047,1,0,0:0:0:0:
34,103,72164,1,8,0:0:0:0:
184,188,72399,1,2,0:3:0:0:
184,188,72516,1,0,0:0:0:0:
184,188,72633,2,0,P|236:208|280:216,1,90,4|2,0:3|0:3,0:0:0:0:
407,117,73102,2,0,P|355:97|311:89,1,90,8|2,0:0|0:3,0:0:0:0:
184,188,73571,5,4,0:0:0:0:
277,344,73805,1,2,0:3:0:0:
377,185,74039,1,8,0:0:0:0:
184,308,74274,1,2,0:0:0:0:
184,308,74742,5,2,0:3:0:0:
72,232,74977,1,8,0:0:0:0:
224,120,75211,1,2,0:0:0:0:
224,120,75680,5,2,0:3:0:0:
372,159,75915,1,8,0:0:0:0:
266,268,76149,1,2,0:3:0:0:
224,120,76383,2,0,P|172:96|132:100,1,90,4|2,0:3|0:3,0:0:0:0:
72,199,76852,1,8,0:0:0:0:
72,232,76969,1,0,0:0:0:0:
82,264,77086,1,2,0:3:0:0:
99,293,77203,1,0,0:0:0:0:
123,317,77321,6,0,P|161:340|205:344,1,90,6|2,0:0|0:3,0:0:0:0:
294,311,77789,1,8,0:0:0:0:
317,208,78023,1,2,0:3:0:0:
217,166,78258,2,0,P|174:157|131:168,1,90,4|2,0:3|0:3,0:3:0:0:
89,269,78727,2,0,P|132:276|176:265,1,90,8|2,0:0|0:3,0:0:0:0:
218,167,79196,5,2,0:0:0:0:
294,311,79430,1,2,0:3:0:0:
294,311,79547,1,0,0:0:0:0:
294,311,79664,1,8,0:0:0:0:
383,179,79899,1,2,0:3:0:0:
409,325,80133,1,4,0:3:0:0:
306,209,80367,1,2,0:3:0:0:
306,209,80485,1,0,0:0:0:0:
306,209,80602,1,10,0:0:0:0:
461,179,80836,1,2,0:3:0:0:
392,68,81071,6,0,P|336:52|288:56,1,90,2|2,0:0|0:3,0:0:0:0:
304,52,81422,1,0,0:0:0:0:
304,52,81539,1,8,0:0:0:0:
152,96,81774,1,2,0:3:0:0:
103,263,82008,1,4,0:3:0:0:
240,155,82242,1,2,0:3:0:0:
66,161,82477,1,8,0:0:0:0:
211,259,82711,1,2,0:3:0:0:
211,259,82828,1,0,0:0:0:0:
211,259,82946,6,0,P|264:276|304:280,1,90,2|2,0:0|0:3,0:0:0:0:
352,276,83297,1,0,0:0:0:0:
352,276,83414,1,8,0:0:0:0:
436,140,83649,1,2,0:0:0:0:
464,298,83883,1,4,0:3:0:0:
324,194,84117,1,2,0:3:0:0:
249,353,84352,1,8,0:0:0:0:
249,353,84469,1,0,0:0:0:0:
249,353,84586,1,2,0:3:0:0:
112,264,84821,6,0,L|132:168,1,90,2|2,0:0|0:3,0:0:0:0:
140,124,85172,1,0,0:0:0:0:
140,124,85289,1,8,0:0:0:0:
267,23,85524,1,2,0:3:0:0:
267,23,85641,1,0,0:0:0:0:
267,23,85758,1,4,0:3:0:0:
414,90,85992,1,2,0:3:0:0:
414,90,86110,1,0,0:0:0:0:
414,90,86227,1,8,0:0:0:0:
404,252,86461,1,2,0:3:0:0:
404,252,86578,1,0,0:0:0:0:
404,252,86696,6,0,P|384:296|352:328,1,90,2|2,0:0|0:3,0:0:0:0:
304,344,87047,1,0,0:0:0:0:
304,344,87164,1,8,0:0:0:0:
184,256,87399,1,2,0:3:0:0:
184,256,87516,1,0,0:0:0:0:
184,256,87633,1,4,0:3:0:0:
316,252,87867,1,2,0:3:0:0:
128,348,88102,2,0,P|97:315|79:274,1,90,8|2,0:0|0:3,0:0:0:0:
84,88,88571,5,4,0:0:0:0:
232,44,88805,1,2,0:3:0:0:
208,196,89039,1,8,0:0:0:0:
356,152,89274,1,2,0:0:0:0:
356,152,89742,5,2,0:3:0:0:
471,273,89977,1,8,0:0:0:0:
312,320,90211,1,2,0:0:0:0:
208,196,90446,5,4,0:3:0:0:
100,144,90680,1,4,0:3:0:0:
89,175,90797,1,4,0:3:0:0:
88,209,90914,1,4,0:3:0:0:
97,242,91031,1,4,0:3:0:0:
115,270,91148,1,4,0:3:0:0:
252,345,91383,1,4,0:3:0:0:
208,196,91617,1,4,0:3:0:0:
208,196,91735,1,0,0:0:0:0:
208,196,91852,2,0,P|252:168|292:156,1,90,2|2,0:0|0:0,0:0:0:0:
428,276,92321,5,4,0:0:0:0:
256,192,92438,12,8,94664,0:0:0:0:
366,221,103571,6,0,P|360:147|326:112,1,90,4|2,0:3|0:3,0:0:0:0:
226,302,104039,2,0,P|300:296|335:262,1,90,8|2,0:0|0:3,0:0:0:0:
145,162,104508,2,0,P|151:236|185:271,1,90,4|2,0:3|0:3,0:0:0:0:
285,81,104977,2,0,P|211:87|176:121,1,90,8|2,0:0|0:3,0:0:0:0:
366,221,105446,5,4,0:3:0:0:
371,254,105563,1,4,0:3:0:0:
368,288,105680,1,6,0:3:0:0:
357,319,105797,1,4,0:3:0:0:
339,348,105914,2,4,L|292:375,3,45,8|4|6|4,0:0|0:3|0:3|0:3,0:3:0:0:
267,378,106383,1,4,0:3:0:0:
234,376,106500,1,4,0:3:0:0:
202,364,106617,1,6,0:3:0:0:
175,345,106734,1,4,0:3:0:0:
154,318,106852,2,4,L|122:259,2,45,8|4|6,0:0|0:3|0:3,0:3:0:0:
128,116,107321,6,0,B|160:91|195:92|227:98|258:138|258:138|276:78,1,202.500007724762,4|2,0:0|0:3,0:0:0:0:
184,184,108258,5,0,0:0:0:0:
176,264,108492,1,2,0:3:0:0:
227,327,108727,2,0,P|256:345|289:349,1,67.5000025749208,0|2,0:0|0:3,0:0:0:0:
284,268,109196,5,2,0:0:0:0:
304,188,109430,1,2,0:3:0:0:
308,108,109664,2,0,P|284:60|260:36,1,67.5000025749208,0|2,0:0|0:3,0:0:0:0:
237,33,110016,1,0,0:0:0:0:
196,28,110133,2,0,B|132:32|100:56|100:56|108:92,1,135.000005149842
152,156,110836,1,2,0:3:0:0:
196,224,111071,6,0,L|233:280,2,67.5000025749208,2|2|0,0:0|0:3|0:0,0:0:0:0:
184,354,111774,2,0,P|232:368|314:320,1,135.000005149842,2|2,0:3|0:3,0:3:0:0:
352,264,112477,1,0,0:0:0:0:
356,184,112711,1,2,0:3:0:0:
336,104,112946,6,0,P|304:72|264:48,1,67.5000025749208,2|2,0:0|0:3,0:0:0:0:
204,56,113414,1,0,0:0:0:0:
128,80,113649,1,2,0:3:0:0:
68,132,113883,2,0,P|53:174|49:221,2,67.5000025749208,2|2|0,0:0|0:3|0:0,0:0:0:0:
128,80,114586,1,2,0:3:0:0:
204,56,114821,6,0,B|259:48|259:48|272:104|332:116,1,135.000005149842,2|0,0:0|0:0,0:0:0:0:
339,33,115524,1,2,0:3:0:0:
339,33,115758,2,0,P|364:52|376:152,1,135.000005149842
328,212,116461,1,2,0:3:0:0:
252,244,116696,6,0,B|192:248|165:208|165:208|132:240,1,135.000005149842,2|0,0:0|0:0,0:0:0:0:
233,161,117399,1,2,0:3:0:0:
233,161,117633,2,0,P|224:120|136:92,1,135.000005149842,2|0,0:0|0:0,0:0:0:0:
72,128,118336,1,2,0:3:0:0:
28,196,118571,6,0,B|28:276|28:276|80:316,1,135.000005149842,2|0,0:0|0:0,0:0:0:0:
152,320,119274,2,0,B|205:333|243:293|243:293|272:336,2,135.000005149842,2|2|2,0:3|0:3|0:3,0:3:0:0:
179,240,120446,1,2,0:0:0:0:
256,192,120563,12,0,121852,0:0:0:0:
120,212,122321,5,2,0:0:0:0:
109,341,122555,1,2,0:3:0:0:
227,284,122789,1,4,0:3:0:0:
109,341,123024,1,2,0:3:0:0:
120,212,123258,2,0,P|136:168|168:132,1,90,4|2,0:3|0:3,0:0:0:0:
300,124,123727,2,0,P|284:168|252:204,1,90,4|2,0:3|0:3,0:0:0:0:
120,212,124196,5,2,0:0:0:0:
68,120,124430,1,2,0:3:0:0:
132,32,124664,2,0,P|216:36|252:56,1,90,4|2,0:3|0:3,0:0:0:0:
261,65,125016,1,0,0:0:0:0:
284,108,125133,2,0,B|300:160|292:232|292:232|236:212,1,180,4|4,0:3|0:3,0:0:0:0:
156,148,125836,1,2,0:3:0:0:
72,268,126071,6,0,P|100:320|152:336,1,90,2|2,0:0|0:3,0:0:0:0:
232,348,126539,1,4,0:3:0:0:
324,292,126774,1,2,0:3:0:0:
316,184,127008,2,0,B|304:116|304:116|280:84,2,90,4|2|4,0:3|0:3|0:3,0:0:0:0:
324,292,127711,1,2,0:3:0:0:
416,348,127946,6,0,P|468:336|500:304,1,90,2|2,0:0|0:3,0:0:0:0:
393,147,128414,2,0,P|350:155|315:183,1,90,4|2,0:3|0:3,0:0:0:0:
300,320,128883,1,2,0:0:0:0:
426,266,129117,1,2,0:3:0:0:
314,183,129352,2,0,P|269:172|227:184,1,90,4|2,0:3|0:3,0:0:0:0:
179,284,129821,6,0,L|216:92,1,180,2|4,0:0|0:3,0:0:0:0:
284,28,130524,1,2,0:3:0:0:
388,52,130758,2,4,B|451:116|386:184|386:184|415:203,1,180,4|4,0:3|0:3,0:3:0:0:
512,164,131461,1,2,0:3:0:0:
341,117,131696,6,0,P|255:133|208:208,1,180,2|4,0:0|0:3,0:0:0:0:
248,308,132399,1,2,0:3:0:0:
316,224,132633,2,4,L|212:78,1,180,2|4,0:0|0:3,0:3:0:0:
108,40,133336,1,2,0:3:0:0:
64,192,133571,5,2,0:0:0:0:
256,192,133688,12,0,134508,0:0:0:0:
231,345,134742,6,0,L|267:373,2,45,8|4|10,0:0|0:3|0:0,0:0:0:0:
203,322,135094,1,8,0:0:0:0:
186,291,135211,1,2,0:0:0:0:
172,136,135446,6,0,P|200:96|292:84,1,135,4|0,0:0|0:0,0:0:0:0:
280,79,135914,1,8,0:0:0:0:
405,233,136149,2,0,P|318:240|260:176,1,180,2|0,0:0|0:0,0:0:0:0:
384,68,136852,2,0,L|354:153,1,90,10|0,0:0|0:0,0:0:0:0:
292,308,137321,6,0,B|228:360|228:360|152:360,1,135,2|0,0:0|0:0,0:0:0:0:
175,360,137789,1,8,0:0:0:0:
104,280,138024,1,2,0:0:0:0:
104,280,138141,1,0,0:0:0:0:
104,280,138258,2,0,P|92:228|116:180,1,90
244,104,138727,2,0,P|256:156|232:204,1,90,10|0,0:0|0:0,0:0:0:0:
168,104,139196,6,0,P|192:48|292:48,1,135,2|0,0:0|0:0,0:0:0:0:
259,30,139664,1,8,0:0:0:0:
424,108,139899,2,0,B|456:148|448:220|448:220|384:204,1,180,2|0,0:0|0:0,0:0:0:0:
244,189,140602,2,0,B|196:208|196:208|156:251,1,90,10|0,0:0|0:0,0:0:0:0:
60,328,141071,6,0,B|16:348|16:348|0:272|24:232,1,135,2|0,0:0|0:0,0:0:0:0:
12,262,141539,1,8,0:0:0:0:
56,144,141774,2,0,B|88:96|88:96|128:164|208:148,1,180,2|0,0:0|0:0,0:0:0:0:
280,92,142477,1,10,0:0:0:0:
184,44,142711,1,4,0:3:0:0:
148,224,142946,6,0,P|152:276|252:324,1,135,4|0,0:0|0:0,0:0:0:0:
213,325,143414,1,8,0:0:0:0:
320,304,143649,1,2,0:0:0:0:
391,216,143883,2,0,B|416:140|400:88|400:88|340:128,1,180,0|10,0:0|0:0,0:0:0:0:
280,188,144586,1,4,0:3:0:0:
184,236,144821,6,0,P|124:256|56:224,1,135,4|0,0:0|0:0,0:0:0:0:
60,228,145289,1,8,0:0:0:0:
122,84,145524,1,2,0:0:0:0:
122,84,145641,1,0,0:0:0:0:
122,84,145758,2,0,L|125:174,1,90
132,328,146227,2,0,P|172:360|228:356,1,90,10|4,0:0|0:3,0:0:0:0:
371,262,146696,5,6,0:0:0:0:
340,93,146930,1,0,0:0:0:0:
209,204,147164,1,8,0:0:0:0:
404,169,147399,1,4,0:3:0:0:
404,169,147516,1,4,0:3:0:0:
404,169,147633,5,4,0:0:0:0:
272,279,147867,1,0,0:3:0:0:
272,279,147985,1,4,0:3:0:0:
272,279,148102,1,10,0:0:0:0:
241,110,148336,1,4,0:3:0:0:
60,52,148571,5,2,0:0:0:0:
47,78,148688,1,4,0:3:0:0:
41,105,148805,1,4,0:3:0:0:
40,133,148922,1,4,0:3:0:0:
45,161,149039,1,8,0:0:0:0:
55,186,149156,1,4,0:3:0:0:
72,210,149274,1,2,0:0:0:0:
92,229,149391,1,0,0:0:0:0:
116,243,149508,5,0,0:0:0:0:
248,300,149742,1,8,0:0:0:0:
364,212,149977,1,8,0:0:0:0:
355,180,150094,1,0,0:0:0:0:
337,151,150211,1,0,0:0:0:0:
312,128,150328,1,0,0:0:0:0:
283,115,150446,6,0,P|231:112|182:148,1,90,4|2,0:0|0:3,0:0:0:0:
116,243,150914,2,0,P|167:245|216:209,1,90,8|2,0:0|0:3,0:0:0:0:
283,115,151383,1,4,0:3:0:0:
292,252,151617,1,2,0:3:0:0:
408,136,151852,1,8,0:0:0:0:
407,273,152086,1,2,0:3:0:0:
283,115,152321,6,0,B|244:76|244:76|188:56,1,90,2|2,0:0|0:3,0:0:0:0:
92,92,152789,2,0,B|78:124|78:124|81:179,1,90,8|2,0:0|0:3,0:0:0:0:
116,334,153258,1,4,0:3:0:0:
199,199,153492,1,2,0:3:0:0:
259,347,153727,1,10,0:0:0:0:
343,212,153961,1,2,0:3:0:0:
403,360,154196,6,0,P|460:316|472:264,1,90,2|2,0:0|0:3,0:0:0:0:
468,172,154664,2,0,P|443:134|404:113,1,90,8|2,0:0|0:3,0:0:0:0:
229,166,155133,1,4,0:3:0:0:
378,215,155367,1,2,0:3:0:0:
298,76,155602,1,8,0:0:0:0:
164,164,155836,1,2,0:3:0:0:
164,164,155953,1,0,0:0:0:0:
164,164,156071,6,0,P|128:208|116:248,1,90,2|2,0:0|0:3,0:0:0:0:
278,286,156539,2,0,P|245:256|204:240,1,90,8|2,0:0|0:0,0:0:0:0:
44,255,157008,1,4,0:3:0:0:
137,383,157243,1,2,0:3:0:0:
203,239,157477,1,8,0:0:0:0:
203,239,157594,1,0,0:0:0:0:
203,239,157711,1,2,0:3:0:0:
297,368,157946,6,0,P|360:360|400:320,1,90,2|2,0:0|0:3,0:0:0:0:
408,300,158297,1,0,0:0:0:0:
408,300,158414,1,8,0:0:0:0:
384,152,158649,1,2,0:3:0:0:
384,152,158766,1,0,0:0:0:0:
384,152,158883,1,4,0:3:0:0:
268,248,159117,1,2,0:3:0:0:
268,248,159234,1,0,0:0:0:0:
268,248,159352,1,8,0:0:0:0:
244,100,159586,1,2,0:3:0:0:
244,100,159703,1,0,0:0:0:0:
244,100,159821,6,0,P|184:76|136:92,1,90,2|2,0:0|0:3,0:0:0:0:
52,192,160289,1,8,0:0:0:0:
184,176,160524,1,2,0:3:0:0:
184,176,160641,1,0,0:0:0:0:
184,176,160758,1,4,0:3:0:0:
111,311,160992,2,0,P|59:343|27:351,2,90,2|8|2,0:3|0:0|0:3,0:0:0:0:
184,176,161696,5,4,0:0:0:0:
72,228,161930,1,2,0:3:0:0:
216,324,162164,1,8,0:0:0:0:
264,164,162399,1,2,0:0:0:0:
264,164,162867,5,2,0:3:0:0:
396,128,163102,1,8,0:0:0:0:
344,304,163336,1,2,0:0:0:0:
344,304,163805,5,2,0:3:0:0:
264,164,164039,1,8,0:0:0:0:
228,280,164274,1,2,0:3:0:0:
382,212,164508,2,0,P|402:166|394:124,1,90,4|2,0:3|0:3,0:0:0:0:
296,56,164977,1,8,0:0:0:0:
267,39,165094,1,0,0:0:0:0:
234,32,165211,1,2,0:3:0:0:
201,32,165328,1,0,0:0:0:0:
168,41,165446,6,0,P|118:73|102:101,1,90,4|2,0:0|0:3,0:0:0:0:
120,252,165914,1,8,0:0:0:0:
200,156,166149,1,2,0:3:0:0:
32,172,166383,2,0,P|2:223|0:255,1,90,4|2,0:3|0:3,0:0:0:0:
61,359,166852,1,8,0:0:0:0:
120,252,167086,1,2,0:3:0:0:
244,316,167321,6,0,P|296:328|348:316,1,90,2|2,0:0|0:3,0:0:0:0:
479,198,167789,2,0,P|436:187|392:192,1,90,8|2,0:0|0:3,0:0:0:0:
424,373,168258,2,0,P|435:330|430:286,1,90,4|2,0:3|0:3,0:0:0:0:
302,141,168727,2,0,P|290:193|302:245,1,90,10|2,0:0|0:3,0:0:0:0:
479,198,169196,6,0,P|491:146|479:94,1,90,2|2,0:0|0:3,0:0:0:0:
460,64,169547,1,0,0:0:0:0:
460,64,169664,1,8,0:0:0:0:
302,141,169899,1,2,0:3:0:0:
408,244,170133,2,0,P|413:288|401:331,2,90,4|2|8,0:3|0:3|0:0,0:0:0:0:
302,141,170836,1,2,0:3:0:0:
302,141,170953,1,0,0:0:0:0:
302,141,171071,5,2,0:0:0:0:
184,276,171305,1,2,0:3:0:0:
184,276,171422,1,0,0:0:0:0:
184,276,171539,1,8,0:0:0:0:
316,263,171774,1,2,0:0:0:0:
182,177,172008,1,4,0:3:0:0:
120,337,172242,1,2,0:3:0:0:
51,172,172477,1,8,0:0:0:0:
184,276,172711,1,2,0:3:0:0:
302,141,172946,6,0,P|342:122|387:120,1,90,2|2,0:0|0:3,0:0:0:0:
440,124,173297,1,0,0:0:0:0:
440,124,173414,1,8,0:0:0:0:
480,266,173649,1,2,0:3:0:0:
480,266,173766,1,0,0:0:0:0:
480,266,173883,1,4,0:3:0:0:
335,226,174117,1,2,0:3:0:0:
335,226,174235,1,0,0:0:0:0:
335,226,174352,1,8,0:0:0:0:
375,368,174586,1,2,0:3:0:0:
375,368,174703,1,0,0:0:0:0:
375,368,174821,6,0,P|308:368|264:360,1,90,2|2,0:0|0:3,0:0:0:0:
236,348,175172,1,0,0:0:0:0:
236,348,175289,1,8,0:0:0:0:
159,190,175524,1,2,0:3:0:0:
159,190,175641,1,0,0:0:0:0:
159,190,175758,1,4,0:3:0:0:
128,362,175993,1,2,0:3:0:0:
254,241,176227,1,8,0:0:0:0:
81,265,176462,1,2,0:3:0:0:
254,241,176696,6,0,P|308:200|328:144,1,90,4|2,0:0|0:3,0:0:0:0:
324,40,177164,1,8,0:0:0:0:
204,120,177399,1,2,0:0:0:0:
204,120,177867,5,2,0:3:0:0:
69,121,178102,1,8,0:0:0:0:
105,288,178336,1,2,0:0:0:0:
254,241,178571,5,4,0:3:0:0:
362,293,178805,1,4,0:3:0:0:
373,262,178922,1,4,0:3:0:0:
374,228,179039,1,4,0:3:0:0:
365,195,179156,1,4,0:3:0:0:
347,167,179273,1,4,0:3:0:0:
232,76,179508,1,4,0:3:0:0:
156,224,179742,1,4,0:3:0:0:
156,224,179860,1,0,0:0:0:0:
156,224,179977,2,0,P|168:288|200:328,1,90,2|2,0:0|0:0,0:0:0:0:
347,167,180446,5,4,0:0:0:0:
432,299,180914,1,8,0:0:0:0:
432,299,181852,1,8,0:0:0:0:
432,299,182789,1,8,0:0:0:0:
432,299,183727,1,8,0:0:0:0:
297,247,184196,5,2,0:0:0:0:
227,374,184664,1,8,0:0:0:0:
227,374,185602,1,8,0:0:0:0:
225,374,186539,1,8,0:0:0:0:
227,374,187477,1,8,0:0:0:0:
105,297,187946,5,4,0:0:0:0:
171,169,188414,1,8,0:0:0:0:
171,169,189352,1,8,0:0:0:0:
171,169,190289,1,8,0:0:0:0:
171,169,191227,1,8,0:0:0:0:
324,76,191696,6,0,P|397:63|439:88,1,90,2|4,0:0|0:3,0:0:0:0:
366,191,192164,2,0,P|293:204|251:179,1,90,2|4,0:0|0:3,0:0:0:0:
326,62,192633,2,0,P|399:49|441:74,1,90,2|4,0:0|0:3,0:0:0:0:
364,205,193101,2,0,P|291:218|249:193,1,90,2|4,0:0|0:3,0:0:0:0:
140,166,193571,5,2,0:0:0:0:
96,161,193688,1,4,0:3:0:0:
60,187,193805,1,2,0:0:0:0:
49,229,193922,1,4,0:3:0:0:
69,269,194039,2,0,L|116:317,3,45,4|4|2|4,0:3|0:3|0:0|0:3,0:0:0:0:
138,326,194508,1,4,0:3:0:0:
181,340,194625,1,4,0:3:0:0:
225,347,194742,1,4,0:3:0:0:
270,346,194859,1,4,0:3:0:0:
314,337,194976,1,2,0:0:0:0:
404,248,195211,1,2,0:0:0:0:
432,124,195446,6,0,P|405:73|336:40,1,135,4|0,0:0|0:0,0:0:0:0:
338,40,195914,1,8,0:0:0:0:
228,36,196149,1,2,0:0:0:0:
156,116,196383,2,0,B|122:155|122:155|156:214|114:278,1,180,0|10,0:0|0:0,0:0:0:0:
27,210,197086,1,0,0:0:0:0:
32,320,197321,6,0,P|103:364|164:360,1,135,2|0,0:0|0:0,0:0:0:0:
151,363,197789,1,8,0:0:0:0:
240,300,198024,1,2,0:0:0:0:
240,300,198141,1,0,0:0:0:0:
240,300,198258,6,0,P|252:244|244:192,1,90
147,87,198727,2,0,P|135:143|143:195,1,90,10|0,0:0|0:0,0:0:0:0:
347,151,199196,6,0,P|285:127|220:140,1,135,2|0,0:0|0:0,0:0:0:0:
220,140,199664,1,8,0:0:0:0:
376,238,199899,2,0,B|436:210|437:146|437:146|475:202,1,180,2|0,0:0|0:0,0:0:0:0:
436,350,200602,2,0,P|381:367|329:365,1,90,10|0,0:0|0:0,0:0:0:0:
201,266,201071,6,0,P|191:200|220:139,1,135,2|0,0:0|0:0,0:0:0:0:
219,139,201539,1,8,0:0:0:0:
294,287,201774,2,0,P|230:350|128:336,1,180,2|0,0:0|0:0,0:0:0:0:
153,123,202477,1,10,0:0:0:0:
201,266,202711,1,4,0:3:0:0:
18,194,202946,6,0,P|6:130|54:76,1,135,6|0,0:0|0:0,0:0:0:0:
47,78,203414,1,8,0:0:0:0:
194,39,203649,1,2,0:0:0:0:
336,80,203883,2,0,B|417:131|365:217|365:217|401:235,1,180,0|8,0:0|0:0,0:0:0:0:
482,162,204586,1,4,0:3:0:0:
303,157,204821,6,0,P|238:187|207:269,1,135,6|0,0:0|0:0,0:0:0:0:
208,240,205289,1,8,0:0:0:0:
384,356,205524,1,2,0:0:0:0:
384,356,205641,1,0,0:0:0:0:
384,356,205758,1,0,0:0:0:0:
288,236,205992,1,0,0:0:0:0:
227,368,206227,1,8,0:0:0:0:
96,307,206461,1,4,0:3:0:0:
140,156,206696,6,0,P|188:108|232:84,1,90,4|4,0:0|0:3,0:0:0:0:
312,72,207164,1,8,0:0:0:0:
412,116,207399,1,4,0:3:0:0:
412,116,207516,1,4,0:3:0:0:
412,116,207633,1,4,0:0:0:0:
436,220,207867,1,4,0:3:0:0:
436,220,207985,1,4,0:3:0:0:
436,220,208102,1,8,0:0:0:0:
384,316,208336,1,4,0:3:0:0:
384,316,208571,6,0,P|320:352|288:356,2,90,4|4|8,0:0|0:3|0:0,0:0:0:0:
304,256,209274,1,4,0:3:0:0:
304,256,209391,1,4,0:3:0:0:
304,256,209508,1,4,0:0:0:0:
180,183,209742,1,4,0:3:0:0:
180,183,209860,1,4,0:3:0:0:
180,183,209977,1,8,0:0:0:0:
180,325,210211,1,4,0:3:0:0:
180,325,210446,6,0,P|120:282|103:254,1,90,4|4,0:0|0:3,0:0:0:0:
80,144,210914,1,8,0:0:0:0:
200,92,211150,1,4,0:3:0:0:
200,92,211267,1,4,0:3:0:0:
200,92,211383,1,4,0:0:0:0:
276,208,211618,1,4,0:3:0:0:
276,208,211735,1,4,0:3:0:0:
276,208,211851,1,8,0:0:0:0:
396,156,212086,1,4,0:3:0:0:
396,156,212321,6,0,P|456:176|480:200,1,90,4|4,0:0|0:3,0:0:0:0:
396,264,212789,1,8,0:0:0:0:
276,208,213024,1,4,0:3:0:0:
276,208,213141,1,4,0:3:0:0:
276,208,213258,1,4,0:0:0:0:
224,340,213492,1,4,0:3:0:0:
224,340,213610,1,4,0:3:0:0:
224,340,213727,1,8,0:0:0:0:
104,284,213961,1,4,0:3:0:0:
106,122,214196,5,4,0:0:0:0:
126,112,214313,1,4,0:3:0:0:
146,102,214430,1,4,0:3:0:0:
166,92,214547,1,4,0:3:0:0:
186,82,214664,2,4,L|248:53,3,45,8|4|4|4,0:0|0:3|0:3|0:3,0:3:0:0:
254,48,215133,5,4,0:0:0:0:
283,38,215250,1,4,0:3:0:0:
315,38,215367,1,4,0:3:0:0:
345,48,215484,1,4,0:3:0:0:
370,66,215602,2,4,L|406:117,3,45,8|4|4|4,0:0|0:3|0:3|0:3,0:3:0:0:
407,141,216071,5,4,0:0:0:0:
418,179,216188,1,4,0:3:0:0:
415,219,216305,1,4,0:3:0:0:
398,256,216422,1,4,0:3:0:0:
370,285,216539,2,4,L|315:321,3,45,8|4|4|4,0:0|0:3|0:3|0:3,0:3:0:0:
283,320,217008,5,4,0:0:0:0:
233,321,217125,1,4,0:3:0:0:
187,303,217242,1,4,0:3:0:0:
151,270,217359,1,4,0:3:0:0:
130,225,217477,2,4,L|131:158,3,45,8|4|4|4,0:0|0:3|0:3|0:3,0:3:0:0:
137,131,217946,5,4,0:0:0:0:
256,192,218063,12,0,220758,0:0:0:0:
189,56,221696,5,4,0:0:0:0:
91,200,221930,1,2,0:3:0:0:
255,141,222164,1,8,0:0:0:0:
87,92,222399,1,2,0:3:0:0:
195,230,222633,2,0,P|240:264|284:276,1,90,4|2,0:3|0:3,0:0:0:0:
404,224,223102,2,0,P|359:190|315:178,1,90,8|2,0:0|0:3,0:0:0:0:
195,230,223571,5,2,0:0:0:0:
87,92,223805,1,2,0:3:0:0:
87,92,223922,1,0,0:0:0:0:
87,92,224039,1,8,0:0:0:0:
80,216,224274,1,2,0:3:0:0:
200,96,224508,1,4,0:3:0:0:
327,179,224742,1,2,0:3:0:0:
327,179,224860,1,0,0:0:0:0:
327,179,224977,1,10,0:0:0:0:
195,230,225211,1,2,0:3:0:0:
303,72,225446,6,0,P|344:53|389:50,1,90,2|2,0:0|0:3,0:0:0:0:
444,228,225914,2,0,P|396:248|352:248,1,90,8|2,0:0|0:3,0:0:0:0:
215,221,226383,1,4,0:3:0:0:
264,353,226617,1,2,0:3:0:0:
358,248,226852,1,8,0:0:0:0:
215,221,227086,1,2,0:3:0:0:
215,221,227203,1,0,0:0:0:0:
215,221,227321,6,0,B|156:212|156:212|108:224,1,90,2|2,0:0|0:3,0:0:0:0:
40,284,227789,2,0,P|20:236|28:180,1,90,8|2,0:0|0:0,0:0:0:0:
60,68,228258,2,0,B|108:44|108:44|160:56,1,90,4|2,0:3|0:3,0:0:0:0:
244,140,228727,2,0,P|288:147|331:135,1,90,8|2,0:0|0:3,0:0:0:0:
432,40,229196,5,2,0:0:0:0:
466,179,229430,1,2,0:3:0:0:
466,179,229547,1,0,0:0:0:0:
466,179,229664,1,8,0:0:0:0:
331,134,229899,1,2,0:3:0:0:
331,134,230016,1,0,0:0:0:0:
331,134,230133,1,4,0:3:0:0:
365,274,230368,1,2,0:3:0:0:
365,274,230485,1,0,0:0:0:0:
365,274,230602,1,8,0:0:0:0:
230,230,230837,1,2,0:3:0:0:
230,230,230954,1,0,0:0:0:0:
230,230,231071,6,0,P|153:241|126:255,1,90,2|2,0:0|0:3,0:0:0:0:
204,333,231539,1,8,0:0:0:0:
168,148,231774,1,2,0:3:0:0:
168,148,231891,1,0,0:0:0:0:
168,148,232008,1,4,0:3:0:0:
288,116,232242,1,2,0:3:0:0:
365,274,232477,1,8,0:0:0:0:
230,230,232711,1,2,0:3:0:0:
396,148,232946,6,0,P|436:128|484:120,2,90,6|2|8,0:0|0:3|0:0,0:0:0:0:
230,230,233649,1,2,0:0:0:0:
230,230,234117,5,2,0:3:0:0:
128,140,234352,1,8,0:0:0:0:
72,312,234586,1,2,0:0:0:0:
72,312,235055,5,2,0:3:0:0:
230,230,235289,1,8,0:0:0:0:
208,368,235524,1,2,0:3:0:0:
400,236,235758,1,4,0:3:0:0:
328,368,235992,1,2,0:3:0:0:
300,164,236227,1,8,0:0:0:0:
286,132,236344,1,0,0:0:0:0:
265,106,236461,1,2,0:3:0:0:
239,86,236578,1,0,0:0:0:0:
207,73,236696,6,0,P|147:67|118:79,1,90,6|2,0:0|0:3,0:0:0:0:
76,216,237164,2,0,P|136:222|165:210,1,90,8|2,0:0|0:3,0:0:0:0:
286,132,237633,1,4,0:3:0:0:
305,296,237867,1,2,0:3:0:0:
162,211,238102,1,8,0:0:0:0:
305,296,238336,1,2,0:3:0:0:
384,112,238571,6,0,P|360:68|316:28,1,90,2|2,0:0|0:3,0:0:0:0:
213,183,239039,2,0,P|257:159|297:115,1,90,8|2,0:0|0:3,0:0:0:0:
178,55,239508,1,4,0:3:0:0:
80,196,239742,1,2,0:3:0:0:
56,72,239977,1,10,0:0:0:0:
213,183,240211,1,2,0:3:0:0:
148,351,240446,6,0,P|123:315|128:272,1,90,2|2,0:0|0:3,0:0:0:0:
363,351,240914,2,0,P|388:315|384:272,1,90,8|2,0:0|0:3,0:0:0:0:
332,104,241383,1,4,0:3:0:0:
275,269,241617,1,2,0:3:0:0:
418,168,241852,1,8,0:0:0:0:
243,165,242086,1,2,0:3:0:0:
243,165,242203,1,0,0:0:0:0:
243,165,242321,6,0,P|188:168|144:184,1,90,2|2,0:0|0:3,0:0:0:0:
104,196,242672,1,0,0:0:0:0:
104,196,242789,1,8,0:0:0:0:
212,280,243024,1,2,0:0:0:0:
184,88,243258,2,0,P|217:57|257:37,1,90,4|2,0:3|0:3,0:0:0:0:
416,44,243727,1,8,0:0:0:0:
416,44,243844,1,0,0:0:0:0:
416,44,243961,1,2,0:3:0:0:
324,172,244196,6,0,P|306:213|300:257,1,90,2|2,0:0|0:3,0:0:0:0:
304,312,244547,1,0,0:0:0:0:
304,312,244664,1,8,0:0:0:0:
408,244,244899,1,2,0:3:0:0:
408,244,245016,1,0,0:0:0:0:
408,244,245133,1,4,0:3:0:0:
216,204,245367,1,2,0:3:0:0:
180,356,245602,1,8,0:0:0:0:
68,264,245836,1,2,0:3:0:0:
68,264,245953,1,0,0:0:0:0:
68,264,246071,6,0,B|48:212|48:212|40:148,1,90,2|2,0:0|0:3,0:0:0:0:
40,124,246422,1,0,0:0:0:0:
40,124,246539,1,8,0:0:0:0:
140,32,246774,1,2,0:3:0:0:
140,32,246891,1,0,0:0:0:0:
140,32,247008,1,4,0:3:0:0:
200,152,247242,1,2,0:3:0:0:
300,60,247477,2,0,P|360:52|396:64,1,90,8|2,0:0|0:3,0:0:0:0:
480,168,247946,5,4,0:0:0:0:
336,260,248180,1,2,0:3:0:0:
345,134,248414,1,8,0:0:0:0:
464,296,248649,1,2,0:0:0:0:
464,296,249117,5,2,0:3:0:0:
344,356,249351,1,8,0:0:0:0:
208,232,249586,1,2,0:0:0:0:
345,134,249821,5,4,0:3:0:0:
438,60,250055,1,4,0:3:0:0:
456,88,250172,1,4,0:3:0:0:
465,121,250289,1,4,0:3:0:0:
464,155,250406,1,4,0:3:0:0:
453,186,250523,1,4,0:3:0:0:
345,134,250758,1,0,0:0:0:0:
252,60,250992,1,4,0:3:0:0:
252,60,251110,1,0,0:0:0:0:
252,60,251227,2,0,P|168:84|144:104,1,90,2|2,0:0|0:0,0:0:0:0:
88,224,251696,5,4,0:0:0:0:
108,40,252164,1,8,0:0:0:0:
108,40,253102,1,8,0:0:0:0:
108,40,254039,1,8,0:0:0:0:
108,40,254977,1,8,0:0:0:0:
212,140,255446,5,2,0:0:0:0:
326,51,255914,1,8,0:0:0:0:
326,51,256852,1,8,0:0:0:0:
326,51,257789,1,8,0:0:0:0:
326,51,258727,1,8,0:0:0:0:
408,169,259196,5,4,0:0:0:0:
297,261,259664,1,8,0:0:0:0:
297,261,260602,1,8,0:0:0:0:
297,261,261539,1,8,0:0:0:0:
297,261,262477,1,8,0:0:0:0:
128,124,262946,6,0,P|202:117|242:145,1,90,2|4,0:0|0:3,0:0:0:0:
384,260,263414,2,0,P|310:267|270:239,1,90,2|4,0:0|0:3,0:0:0:0:
324,64,263883,2,0,P|331:138|303:178,1,90,2|4,0:0|0:3,0:0:0:0:
188,320,264352,2,0,P|181:246|209:206,1,90,2|4,0:0|0:3,0:0:0:0:
384,260,264821,5,2,0:0:0:0:
412,246,264938,1,4,0:3:0:0:
433,223,265055,1,2,0:0:0:0:
447,195,265172,1,4,0:3:0:0:
449,164,265289,2,4,L|440:112,3,45,4|4|2|4,0:3|0:3|0:0|0:3,0:3:0:0:
424,68,265758,5,4,0:3:0:0:
390,39,265875,1,4,0:3:0:0:
346,27,265992,1,4,0:3:0:0:
303,35,266109,1,4,0:3:0:0:
267,61,266227,5,8,0:0:0:0:
239,106,266344,1,4,0:3:0:0:
192,132,266461,1,4,0:3:0:0:
139,129,266578,1,4,0:3:0:0:
94,100,266695,5,4,0:0:0:0:
171,32,266930,1,2,0:3:0:0:
196,220,267164,2,0,P|196:268|180:312,1,90,8|2,0:0|0:3,0:0:0:0:
100,248,267633,1,4,0:3:0:0:
240,365,267867,1,2,0:3:0:0:
383,252,268102,2,0,P|396:209|396:164,1,90,8|2,0:0|0:3,0:0:0:0:
312,96,268571,5,4,0:3:0:0:
132,110,268805,1,2,0:3:0:0:
237,258,269039,1,8,0:0:0:0:
217,50,269274,1,2,0:3:0:0:
217,50,269391,1,0,0:0:0:0:
217,50,269508,5,4,0:3:0:0:
321,198,269742,1,2,0:3:0:0:
139,214,269977,1,8,0:0:0:0:
312,96,270211,1,2,0:3:0:0:
132,110,270446,6,0,P|76:132|48:164,1,90,4|2,0:3|0:3,0:0:0:0:
68,292,270914,2,0,B|116:360|204:328|204:328|224:352,2,180,8|4|8,0:0|0:3|0:0,0:0:0:0:
156,236,272086,1,2,0:3:0:0:
156,236,272203,1,0,0:0:0:0:
156,236,272321,6,0,P|220:192|264:188,1,90,4|2,0:3|0:3,0:0:0:0:
418,189,272789,1,8,0:0:0:0:
325,283,273024,1,2,0:3:0:0:
325,283,273141,1,0,0:0:0:0:
325,283,273258,1,4,0:3:0:0:
325,96,273492,1,2,0:3:0:0:
230,189,273727,1,8,0:0:0:0:
418,189,273961,1,2,0:3:0:0:
325,283,274196,6,0,P|280:320|232:336,1,90,4|2,0:0|0:3,0:0:0:0:
144,336,274664,2,0,B|78:327|54:246|54:246|-15:252,2,180,8|4|8,0:0|0:3|0:0,0:0:0:0:
157,238,275836,1,2,0:3:0:0:
157,238,275953,1,0,0:0:0:0:
157,238,276071,6,0,P|172:184|196:144,1,90,4|2,0:3|0:3,0:0:0:0:
355,146,276539,2,0,P|340:200|316:240,1,90,8|2,0:0|0:3,0:0:0:0:
323,229,276891,1,0,0:0:0:0:
323,229,277008,1,4,0:3:0:0:
188,154,277242,1,2,0:3:0:0:
292,96,277477,1,8,0:0:0:0:
219,287,277711,1,2,0:3:0:0:
100,208,277946,6,0,P|40:204|4:216,1,90,4|2,0:3|0:3,0:0:0:0:
60,298,278414,2,0,B|52:156|52:156|72:100,2,180,8|4|8,0:0|0:3|0:0,0:0:0:0:
176,364,279586,1,2,0:3:0:0:
300,312,279821,5,4,0:3:0:0:
327,296,279938,1,4,0:3:0:0:
348,273,280055,1,2,0:3:0:0:
361,244,280172,1,4,0:3:0:0:
366,213,280289,2,4,L|368:156,3,45,8|4|2|4,0:0|0:3|0:3|0:3,0:3:0:0:
364,120,280758,5,4,0:3:0:0:
334,80,280875,1,4,0:3:0:0:
290,59,280992,1,2,0:3:0:0:
241,61,281109,1,4,0:3:0:0:
198,85,281227,5,8,0:0:0:0:
154,123,281344,1,4,0:3:0:0:
98,132,281461,1,2,0:3:0:0:
44,110,281578,1,4,0:3:0:0:
270,161,282164,5,4,0:0:0:0:
256,192,282281,12,0,289196,0:0:0:0:
