osu file format v14

[General]
AudioFilename: Yunchi - Wonderful Wonder World.mp3
AudioLeadIn: 2000
PreviewTime: 54662
Countdown: 0
SampleSet: Soft
StackLeniency: 0.7
Mode: 0
LetterboxInBreaks: 0
WidescreenStoryboard: 0

[Editor]
Bookmarks: 287,4037,11537,26537,39662,54662,69662,84662,99427,99662,100130
DistanceSpacing: 0.9
BeatDivisor: 1
GridSize: 16
TimelineZoom: 0.8

[Metadata]
Title:Wonderful Wonder World*
TitleUnicode:Wonderful Wonder World*
Artist:Yun*chi
ArtistUnicode:Yun*chi
Creator:Taeyang
Version:Easy
Source:ログ・ホライズン
Tags:Log Horizon 2 Second Season CRCP-10328 TV Size Ending
BeatmapID:687658
BeatmapSetID:307332

[Difficulty]
HPDrainRate:2
CircleSize:3
OverallDifficulty:2
ApproachRate:3
SliderMultiplier:1
SliderTickRate:1

[Events]
//Background and Video events
Video,2016,"log.avi"
0,0,"Log Horizon.jpg",0,0
//Break Periods
2,4236,10097
//Storyboard Layer 0 (Background)
//Storyboard Layer 1 (Fail)
//Storyboard Layer 2 (Pass)
//Storyboard Layer 3 (Foreground)
//Storyboard Sound Samples

[TimingPoints]
287,468.75,4,2,1,30,1,0
4037,-100,4,2,1,50,0,0
11537,-100,4,2,1,30,0,0
25599,-100,4,2,1,35,0,0
26068,-100,4,2,1,40,0,0
26537,-100,4,2,2,40,0,0
39662,-100,4,2,3,45,0,0
53490,-100,4,2,3,50,0,0
54193,-100,4,2,3,55,0,0
54662,-100,4,2,4,60,0,1
69193,-100,4,2,3,55,0,0
69662,-100,4,2,4,60,0,1
84662,-100,4,2,3,55,0,0
100130,-100,4,2,3,60,0,0
100599,-100,4,2,3,50,0,0
101537,-100,4,2,3,40,0,0
102474,-100,4,2,3,30,0,0
103412,-100,4,2,3,15,0,0
104349,-100,4,2,3,10,0,0
105287,-100,4,2,3,5,0,0

[Colours]
Combo1 : 69,203,122
Combo2 : 227,186,60
Combo3 : 57,140,215
Combo4 : 201,95,140

[HitObjects]
336,208,287,6,0,B|354:229|354:229|391:221|425:238,2,100,2|0|2,0:0|0:0|0:0,0:0:0:0:
259,157,1693,1,0,0:0:0:0:
175,190,2162,6,0,P|187:211|205:228,1,50,2|2,0:0|0:0,0:0:0:0:
259,157,2865,2,0,P|159:99|84:186,1,250,2|4,0:0|0:1,0:0:0:0:
471,133,11537,6,0,B|429:160|429:160|462:230|434:306,1,200,4|0,0:1|0:0,0:0:0:0:
347,326,12943,1,0,0:0:0:0:
260,306,13412,2,0,B|232:230|265:160|265:160|223:133,1,200,8|0,0:0|0:0,0:0:0:0:
72,232,15287,6,0,P|62:280|65:334,2,100,8|0|0,0:0|0:0|0:0,0:0:0:0:
100,146,16693,1,0,0:0:0:0:
160,212,17162,2,0,P|209:213|259:205,1,100,8|0,0:0|0:0,0:0:0:0:
297,124,18099,2,0,P|347:115|397:116,1,100,8|0,0:0|0:0,0:0:0:0:
477,155,19037,6,0,P|479:82|426:31,2,150,8|0|0,0:0|0:0|0:0,0:0:0:0:
408,212,20912,2,0,P|339:191|276:229,2,150,8|0|0,0:0|0:0|0:0,0:0:0:0:
350,282,22787,6,0,B|315:325|261:332|216:298|216:298|187:339,1,200,8|0,0:0|0:0,0:0:0:0:
98,343,24193,1,0,0:0:0:0:
74,256,24662,2,0,B|105:217|105:217|61:182|54:128|87:82,1,200,8|8,0:0|0:3,0:0:0:0:
156,142,26068,1,4,0:3:0:0:
230,90,26537,6,0,B|261:61|296:58|296:58|304:35,1,100,2|10,0:0|0:0,0:0:0:0:
395,30,27474,2,0,B|407:52|407:52|442:48|477:71,1,100,2|10,0:0|0:0,0:0:0:0:
507,155,28412,2,0,B|492:194|463:214|463:214|468:239,1,100,2|10,0:0|0:0,0:0:0:0:
396,294,29349,2,0,B|373:281|373:281|344:301|302:300,1,100,2|10,0:0|0:0,0:0:0:0:
224,344,30287,6,0,B|169:331|153:279|153:279|101:263|89:210,1,200,2|2,0:0|0:0,0:0:0:0:
117,124,31693,1,10,0:0:0:0:
143,37,32162,2,0,P|184:64|205:108,1,100,2|10,0:0|0:0,0:0:0:0:
176,194,33099,2,0,P|197:238|238:265,1,100,2|10,0:0|0:0,0:0:0:0:
324,236,34037,6,0,P|316:311|259:354,2,150,2|8|10,0:0|0:0|0:0,0:0:0:0:
257,174,35912,2,0,P|325:144|391:172,2,150,2|8|10,0:0|0:0|0:0,0:0:0:0:
213,253,37787,6,0,P|171:279|121:284,1,100,2|10,0:0|0:0,0:0:0:0:
40,246,38724,2,0,P|13:204|8:154,1,100,2|8,0:0|0:0,0:0:0:0:
54,77,39662,6,0,P|95:50|145:45,2,100,4|8|2,0:1|0:0|0:0,0:0:0:0:
97,156,41068,1,8,0:0:0:0:
136,237,41537,2,0,B|167:281|167:281|210:296,1,100,2|8,0:0|0:0,0:0:0:0:
301,296,42474,2,0,B|343:281|343:281|375:237,1,100,2|8,0:0|0:0,0:0:0:0:
415,156,43412,5,2,0:0:0:0:
458,76,43880,2,0,P|416:50|366:45,2,100,8|2|8,0:0|0:0|0:0,0:0:0:0:
502,155,45287,2,0,B|511:205|511:205|471:235|465:289,2,150,2|8|8,0:0|0:0|0:0,0:0:0:0:
458,76,47162,6,0,B|396:83|396:83|363:63,1,100,4|8,0:1|0:0,0:0:0:0:
276,40,48099,2,0,B|243:20|243:20|181:27,1,100,2|8,0:0|0:0,0:0:0:0:
102,69,49037,2,0,B|40:76|40:76|7:56,2,100,2|8|2,0:0|0:0|0:0,0:0:0:0:
178,112,50443,1,8,0:0:0:0:
265,142,50912,6,0,P|313:157|361:145,1,100,2|10,0:0|0:0,0:0:0:0:
439,102,51849,2,0,P|450:150|435:197,1,100,2|10,0:0|0:0,0:0:0:0:
370,260,52787,2,0,B|384:279|410:292|440:293|461:285|461:285|481:307|504:308,2,150,2|8|8,0:0|0:0|0:0,0:0:0:0:
298,202,54662,6,0,P|252:181|204:189,1,100,4|8,0:1|0:0,0:0:0:0:
116,173,55599,2,0,P|120:222|152:261,1,100,2|8,0:0|0:0,0:0:0:0:
183,345,56537,2,0,P|224:317|242:271,1,100,2|8,0:0|0:0,0:0:0:0:
285,191,57474,1,2,0:0:0:0:
329,112,57943,2,0,B|348:95|348:95|376:110|427:110,1,100,8|2,0:0|0:0,0:0:0:0:
456,192,58880,5,8,0:0:0:0:
420,273,59349,2,0,B|376:273|348:288|348:288|329:272,1,100,2|8,0:0|0:0,0:0:0:0:
272,201,60287,2,0,P|216:181|189:139,1,100,2|8,0:0|0:0,0:0:0:0:
104,137,61224,2,0,P|64:165|46:217,2,100,2|8|2,0:0|0:0|0:0,0:0:0:0:
183,94,62630,6,0,B|205:133|198:175|171:208|139:221|139:221|174:255,1,200,8|8,0:0|0:0,0:0:0:0:
256,296,64037,1,2,0:0:0:0:
338,255,64505,2,0,B|373:221|373:221|340:208|314:175|307:133|329:94,1,200,8|8,0:0|0:0,0:0:0:0:
408,137,65912,6,0,P|448:165|466:217,2,100,2|8|2,0:0|0:0|0:0,0:0:0:0:
328,94,67318,2,0,B|280:104|256:157|256:157|232:104|182:94,1,200,8|8,0:0|0:0,0:0:0:0:
99,128,68724,1,8,0:3:0:0:
166,187,69193,1,4,0:3:0:0:
225,252,69662,6,0,P|294:255|324:229,2,100,4|8|2,0:1|0:0|0:0,0:0:0:0:
166,187,71068,1,8,0:0:0:0:
140,272,71537,2,0,P|165:319|210:338,1,100,2|8,0:0|0:0,0:0:0:0:
296,349,72474,1,2,0:0:0:0:
385,355,72943,2,0,B|407:330|407:330|391:296|400:264,1,100,8|2,0:0|0:0,0:0:0:0:
456,192,73880,5,8,0:0:0:0:
400,119,74349,2,0,B|391:88|407:54|407:54|385:29,1,100,2|8,0:0|0:0,0:0:0:0:
302,70,75287,2,0,P|256:87|210:70,1,100,2|8,0:0|0:0,0:0:0:0:
129,30,76224,2,0,B|91:62|91:62|80:112,1,100,2|8,0:0|0:0,0:0:0:0:
123,189,77162,6,0,P|74:201|28:185,2,100,2|8|2,0:0|0:0|0:0,0:0:0:0:
205,157,78568,1,8,0:0:0:0:
286,119,79037,2,0,P|336:117|378:142,1,100,2|8,0:0|0:0,0:0:0:0:
402,228,79974,2,0,P|445:202|465:157,2,100,2|8|2,0:0|0:0|0:0,0:0:0:0:
315,248,81380,5,8,0:0:0:0:
236,203,81849,2,0,B|204:176|204:176|146:192|99:171,2,150,2|8|4,0:0|0:3|0:3,0:0:0:0:
171,267,83724,2,0,P|122:269|68:251,2,100,2|8|4,0:0|0:0|0:1,0:0:0:0:
256,232,85130,5,8,0:0:0:0:
340,267,85599,2,0,P|389:269|437:254,1,100,2|8,0:0|0:0,0:0:0:0:
424,165,86537,2,0,B|425:110|381:80|381:80|426:58|439:3,2,200,2|2|2,0:0|0:0|0:0,0:0:0:0:
335,158,88880,5,8,0:0:0:0:
246,140,89349,2,0,P|249:189|278:228,1,100,2|8,0:0|0:0,0:0:0:0:
311,314,90287,2,0,B|257:331|217:294|217:294|170:308|151:363,2,200,2|2|2,0:0|0:0|0:0,0:0:0:0:
393,277,92630,5,8,0:0:0:0:
340,203,93099,2,0,B|310:163|310:163|302:111,1,100,2|8,0:0|0:0,0:0:0:0:
209,113,94037,2,0,B|202:163|202:163|172:203,2,100,2|8|2,0:0|0:0|0:0,0:0:0:0:
256,36,95443,1,8,0:0:0:0:
344,40,95912,6,0,B|374:80|381:131,1,100,2|8,0:0|0:0,0:0:0:0:
338,210,96849,2,0,B|388:234|433:204,2,100,2|8|2,0:0|0:0|0:0,0:0:0:0:
257,169,98255,1,8,0:0:0:0:
176,128,98724,2,0,B|126:104|81:134,1,100,2|8,0:0|0:0,0:0:0:0:
134,305,100130,5,4,0:1:0:0:
256,192,100365,12,0,105287,0:0:0:0:
