osu file format v14

[General]
AudioFilename: Yunchi - Wonderful Wonder World.mp3
AudioLeadIn: 2000
PreviewTime: 54662
Countdown: 0
SampleSet: Soft
StackLeniency: 0.7
Mode: 0
LetterboxInBreaks: 0
WidescreenStoryboard: 0

[Editor]
DistanceSpacing: 1.2
BeatDivisor: 1
GridSize: 4
TimelineZoom: 1.299999

[Metadata]
Title:Wonderful Wonder World*
TitleUnicode:Wonderful Wonder World*
Artist:Yun*chi
ArtistUnicode:Yun*chi
Creator:Meyrink
Version:kakifly's Hard
Source:ログ・ホライズン
Tags:Log Horizon 2 Second Season CRCP-10328 TV Size Ending kakifly P_A_N PAN IamKwaN
BeatmapID:647969
BeatmapSetID:286851

[Difficulty]
HPDrainRate:6
CircleSize:4
OverallDifficulty:6
ApproachRate:7.2
SliderMultiplier:1.4
SliderTickRate:2

[Events]
//Background and Video events
0,0,"smeuth.jpg",0,0
Video,2000,"log.avi"
//Break Periods
//Storyboard Layer 0 (Background)
//Storyboard Layer 1 (Fail)
//Storyboard Layer 2 (Pass)
//Storyboard Layer 3 (Foreground)
//Storyboard Sound Samples

[TimingPoints]
287,468.75,4,2,1,30,1,0
2865,-125,4,2,1,50,0,0
3568,-142.857142857143,4,2,1,70,0,0
4037,-100,4,2,1,95,0,0
4154,-100,4,2,1,60,0,0
7787,-100,4,2,1,75,0,0
11537,-117.647058823529,4,2,1,75,0,0
11654,-117.647058823529,4,2,1,50,0,0
24662,-117.647058823529,4,2,1,70,0,0
24779,-117.647058823529,4,2,1,40,0,0
26537,-100,4,2,1,60,0,0
37787,-100,4,2,1,75,0,0
39662,-100,4,2,1,70,0,0
47162,-100,4,2,1,95,0,0
47279,-100,4,2,1,70,0,0
50912,-100,4,2,1,90,0,0
51029,-100,4,2,1,70,0,0
51849,-100,4,2,1,75,0,0
52318,-100,4,2,1,80,0,0
52787,-100,4,2,1,70,0,0
54662,-86.9565217391304,4,2,1,95,0,1
54779,-86.9565217391304,4,2,1,80,0,1
68255,-86.9565217391304,4,2,1,85,0,1
68724,-86.9565217391304,4,2,1,90,0,1
69193,-86.9565217391304,4,2,1,80,0,0
69662,-86.9565217391304,4,2,1,95,0,1
69779,-86.9565217391304,4,2,1,80,0,1
84662,-95.2380952380952,4,2,1,90,0,0
84779,-95.2380952380952,4,2,1,65,0,0
99193,-95.2380952380952,4,2,1,75,0,0
99662,-95.2380952380952,4,2,1,50,0,0
100130,-95.2380952380952,4,2,1,95,0,0
100247,-95.2380952380952,4,2,1,40,0,0
102005,-95.2380952380952,4,2,1,30,0,0
102943,-95.2380952380952,4,2,1,15,0,0
104115,-95.2380952380952,4,2,1,10,0,0
105287,-95.2380952380952,4,2,1,5,0,0

[Colours]
Combo1 : 255,143,32
Combo2 : 255,166,255
Combo3 : 111,255,111
Combo4 : 108,255,255

[HitObjects]
416,192,287,5,2,0:0:0:0:
416,192,755,2,0,L|408:308,1,105,2|2,0:0|0:0,0:0:0:0:
384,328,1224,1,2,0:0:0:0:
252,224,1693,2,0,P|208:240|148:228,1,105,2|2,0:0|0:0,0:0:0:0:
116,212,2162,6,0,L|128:292,1,70,2|2,0:0|0:0,0:0:0:0:
265,335,2865,2,6,L|252:224,1,112,2|2,0:0|0:0,0:0:0:0:
344,176,3568,6,6,P|348:136|336:96,1,73.4999977569581,2|0,0:0|0:0,0:0:0:0:
296,104,4037,6,0,L|293:74|289:34,1,70,4|0,0:1|0:0,0:0:0:0:
204,24,4505,2,0,L|216:136,1,105,2|0,0:0|0:0,0:0:0:0:
204,168,4974,2,0,P|160:148|64:192,1,140,2|2,0:0|0:0,0:0:0:0:
44,252,5677,1,2,0:0:0:0:
44,252,5794,1,2,0:0:0:0:
44,252,5912,6,0,P|49:293|52:328,2,70,2|2|0,0:0|0:0|0:0,0:0:0:0:
77,176,6615,2,0,P|49:132|90:49,1,140,2|2,0:0|0:0,0:0:0:0:
202,108,7318,2,0,B|177:117|177:117|133:117,1,70,2|0,0:0|0:0,0:0:0:0:
210,188,7787,6,0,B|254:164|254:164|294:191|342:169,1,140,4|4,0:1|0:3,0:3:0:0:
302,96,8490,1,2,0:3:0:0:
340,170,8724,2,0,P|330:204|340:246,2,70,4|2|4,0:3|0:3|0:3,0:3:0:0:
414,208,9427,1,2,0:3:0:0:
256,192,9662,12,8,11068,0:0:0:0:
328,244,11537,6,6,P|324:196|320:120,1,119.000002269745,4|0,0:0|0:0,0:0:0:0:
264,72,12240,1,0,0:0:0:0:
216,132,12474,2,0,P|180:136|152:136,2,59.5000011348725
328,244,13412,6,0,P|368:244|408:248,1,59.5000011348725,2|0,0:0|0:0,0:0:0:0:
304,320,13880,2,0,P|274:315|240:308,1,59.5000011348725
136,252,14349,2,0,P|192:236|260:220,1,119.000002269745
176,160,15052,1,0,0:0:0:0:
136,252,15287,5,2,0:0:0:0:
40,216,15521,1,0,0:0:0:0:
80,124,15755,1,0,0:0:0:0:
176,160,15990,2,0,P|232:152|304:148,1,119.000002269745
344,216,16693,1,0,0:0:0:0:
400,144,16927,1,0,0:0:0:0:
288,89,17162,6,0,L|295:149,1,59.5000011348725,2|0,0:0|0:0,0:0:0:0:
400,144,17630,2,0,P|436:152|468:156,1,59.5000011348725
412,248,18099,2,0,P|356:244|272:240,1,119.000002269745,2|0,0:0|0:0,0:0:0:0:
160,324,19037,6,0,P|208:344|284:300,1,119.000002269745,2|0,0:0|0:0,0:0:0:0:
216,264,19740,1,0,0:0:0:0:
297,226,19974,2,0,B|313:228|324:233|324:233|351:231|351:231|370:248|412:248,1,119.000002269745
400,172,20677,1,0,0:0:0:0:
328,140,20912,6,0,P|284:148|204:156,1,119.000002269745,2|0,0:0|0:0,0:0:0:0:
148,200,21615,1,0,0:0:0:0:
196,260,21849,2,0,P|236:268|304:204,1,119.000002269745,2|0,0:0|0:0,0:0:0:0:
232,184,22552,1,0,0:0:0:0:
300,152,22787,6,0,P|329:149|359:151,1,59.5000011348725,2|0,0:0|0:0,0:0:0:0:
420,200,23255,1,0,0:0:0:0:
428,276,23490,2,0,B|388:276|368:256|368:256|308:292,1,119.000002269745
260,332,24193,2,0,B|232:340|232:340|201:334,1,59.5000011348725
232,264,24662,5,2,0:0:0:0:
256,192,24779,12,0,26068,0:0:0:0:
348,232,26537,6,0,P|348:204|356:144,1,70,4|2,0:1|0:3,0:3:0:0:
428,124,27005,1,8,0:0:0:0:
353,162,27240,1,2,0:3:0:0:
284,112,27474,2,0,B|248:120|248:120|212:116,1,70,4|2,0:3|0:3,0:3:0:0:
88,71,27943,2,0,P|120:68|160:60,1,70,8|2,0:0|0:3,0:3:0:0:
12,36,28412,5,4,0:3:0:0:
88,71,28646,1,2,0:3:0:0:
40,140,28880,2,0,L|44:184|48:228,2,70,8|2|4,0:0|0:3|0:3,0:3:0:0:
88,72,29583,1,2,0:3:0:0:
156,124,29818,2,0,P|190:128|225:124,1,70,8|2,0:0|0:3,0:3:0:0:
284,188,30287,6,0,P|328:176|372:176,2,70,4|2|8,0:3|0:3|0:0,0:0:0:0:
340,264,30990,1,2,0:3:0:0:
248,268,31224,2,0,B|200:256|200:256|168:256,1,70,4|2,0:3|0:3,0:0:0:0:
200,348,31693,1,8,0:0:0:0:
292,352,31927,1,2,0:3:0:0:
248,268,32162,6,0,P|244:224|240:184,1,70,4|2,0:3|0:3,0:0:0:0:
336,160,32630,2,0,P|380:168|416:172,1,70,8|2,0:0|0:3,0:0:0:0:
478,240,33099,2,0,P|409:253|340:264,1,140,4|8,0:3|0:0,0:3:0:0:
256,184,33802,1,2,0:3:0:0:
208,280,34037,6,0,P|164:272|128:272,1,70,4|2,0:3|0:3,0:3:0:0:
96,203,34505,2,0,P|61:211|26:212,1,70,8|2,0:0|0:3,0:3:0:0:
80,112,34974,2,0,B|116:120|116:120|144:112|144:112|172:128|232:108,1,140,4|8,0:3|0:0,0:3:0:0:
184,36,35677,1,2,0:3:0:0:
216,113,35912,6,0,P|212:157|212:185,2,70,4|2|8,0:3|0:3|0:0,0:3:0:0:
296,160,36615,1,2,0:3:0:0:
268,252,36849,2,0,P|236:232|140:260,1,140,4|8,0:3|0:0,0:3:0:0:
208,316,37552,1,2,0:3:0:0:
312,320,37787,6,6,P|352:300|416:292,1,105,2|0,0:3|0:0,0:0:0:0:
436,256,38255,2,4,P|472:260|512:256,1,70,4|0,0:3|0:0,0:0:0:0:
472,180,38724,1,2,0:0:0:0:
388,180,38958,2,0,L|344:172,3,35,8|8|8|8,0:0|0:0|0:0|0:0,0:0:0:0:
248,272,39662,6,0,P|292:256|352:272,1,105,6|0,0:2|0:0,0:0:0:0:
384,288,40130,2,0,L|460:280,1,70,8|0,0:0|0:0,0:0:0:0:
500,352,40599,2,0,L|356:368,1,140,4|8,0:3|0:0,0:0:0:0:
288,328,41302,1,0,0:0:0:0:
288,328,41537,6,0,P|248:344|180:316,2,105,2|2|2,0:0|0:0|0:0,0:0:0:0:
224,204,42474,2,0,B|228:244|228:244|240:272,2,70,0|0|8,0:0|0:0|0:0,0:0:0:0:
312,228,43177,1,0,0:0:0:0:
224,204,43412,6,0,B|188:196|188:196|160:212|116:200,2,105,2|2|2,0:0|0:0|0:0,0:0:0:0:
296,144,44349,2,0,P|340:144|368:136,1,70
324,64,44818,1,8,0:0:0:0:
236,52,45052,1,0,0:0:0:0:
204,132,45287,6,0,L|100:120,1,105,2|0,0:0|0:0,0:0:0:0:
76,156,45755,2,0,P|36:148|-4:156,1,70,8|0,0:0|0:0,0:0:0:0:
36,232,46224,2,0,B|80:252|116:232|116:232|144:248|176:276,1,140,2|8,0:0|0:0,0:0:0:0:
264,268,46927,1,4,0:3:0:0:
220,340,47162,6,0,L|208:172,1,140,4|8,0:1|0:0,0:0:0:0:
276,152,47865,2,0,P|268:112|280:64,2,70
332,216,48568,1,8,0:0:0:0:
264,268,48802,1,4,0:3:0:0:
208,204,49037,6,0,L|100:212,2,105,2|2|2,0:0|0:0|0:0,0:0:0:0:
264,268,49974,2,0,P|268:312|272:348,2,70,0|0|8,0:0|0:0|0:0,0:0:0:0:
332,216,50677,1,4,0:3:0:0:
208,204,50912,6,0,P|136:200|68:196,1,140,4|0,0:1|0:0,0:0:0:0:
68,112,51615,2,0,L|52:76,2,35,4|4|4,0:3|0:3|0:1,0:0:0:0:
152,108,52083,2,0,P|196:112|232:100,1,70,4|4,0:3|0:3,0:0:0:0:
184,28,52552,1,4,0:3:0:0:
256,192,52787,12,14,54193,0:0:0:0:
328,40,54662,6,0,P|336:116|344:204,1,161.000003070831,4|8,0:0|0:0,0:0:0:0:
404,276,55365,1,0,0:3:0:0:
456,196,55599,2,0,L|450:156|444:116,2,80.5000015354157,4|0|8,0:3|0:3|0:0,0:0:0:0:
404,276,56302,1,0,0:3:0:0:
320,224,56537,6,0,L|199:235,1,120.750002303124,4|0,0:3|0:0,0:0:0:0:
152,228,57005,2,0,P|144:180|140:148,1,80.5000015354157,8|0,0:0|0:3,0:0:0:0:
208,80,57474,1,4,0:3:0:0:
284,140,57708,1,0,0:3:0:0:
352,72,57943,2,0,P|392:68|432:65,1,80.5000015354157,8|0,0:0|0:3,0:0:0:0:
492,140,58412,6,0,L|476:264,1,120.750002303124,4|0,0:3|0:0,0:0:0:0:
440,292,58880,2,0,P|400:292|360:294,1,80.5000015354157,8|0,0:0|0:3,0:0:0:0:
296,224,59349,1,4,0:3:0:0:
232,296,59583,1,0,0:3:0:0:
160,232,59818,1,8,0:0:0:0:
220,156,60052,1,0,0:3:0:0:
296,224,60287,6,0,P|340:228|388:232,1,80.5000015354157,4|0,0:3|0:3,0:0:0:0:
456,176,60755,1,8,0:0:0:0:
388,108,60990,2,0,P|324:112|292:116,1,80.5000015354157,0|4,0:3|0:3,0:3:0:0:
236,52,61458,1,0,0:0:0:0:
168,124,61693,2,0,P|173:163|181:203,1,80.5000015354157,8|0,0:0|0:3,0:0:0:0:
136,288,62162,6,0,P|88:276|8:260,1,120.750002303124,4|0,0:3|0:0,0:0:0:0:
4,216,62630,2,0,P|1:175|1:135,1,80.5000015354157,8|0,0:0|0:3,0:0:0:0:
80,76,63099,1,4,0:3:0:0:
168,124,63333,2,0,P|208:132|252:140,2,80.5000015354157,0|8|0,0:3|0:0|0:3,0:0:0:0:
83,205,64037,6,0,L|4:216,1,80.5000015354157,4|0,0:3|0:3,0:0:0:0:
20,316,64505,2,0,L|184:292,1,161.000003070831,8|4,0:0|0:3,0:0:0:0:
252,228,65208,1,0,0:3:0:0:
324,292,65443,2,0,P|372:300|408:304,1,80.5000015354157,4|0,0:1|0:3,0:0:0:0:
328,172,65912,6,4,P|248:183|168:195,1,161.000003070831,4|8,0:0|0:0,0:0:0:0:
100,128,66615,1,4,0:3:0:0:
180,76,66849,2,0,L|220:76|264:76,2,80.5000015354157,0|4|8,0:3|0:3|0:0,0:0:0:0:
100,128,67552,6,0,B|112:256|112:256|128:296,1,161.000003070831,2|2,0:0|0:0,0:0:0:0:
216,272,68255,2,0,L|208:224,2,40.2500007677078,8|4|4,0:0|0:3|0:3,0:0:0:0:
300,320,68724,2,0,P|344:320|400:324,1,80.5000015354157,4|8,0:3|0:3,0:0:0:0:
436,244,69193,1,12,0:3:0:0:
348,204,69427,1,2,0:0:0:0:
235,152,69662,6,0,P|224:211|215:271,1,120.750002303124,4|0,0:0|0:0,0:0:0:0:
176,296,70130,2,0,P|164:293|92:276,1,80.5000015354157,8|0,0:0|0:0,0:0:0:0:
16,224,70599,1,4,0:3:0:0:
60,140,70833,1,0,0:0:0:0:
156,154,71068,2,0,L|195:160|235:152,1,80.5000015354157,8|0,0:0|0:0,0:0:0:0:
304,224,71537,6,0,P|360:206|413:232,1,120.750002303124,4|0,0:3|0:0,0:0:0:0:
452,260,72005,2,0,P|455:219|460:180,1,80.5000015354157,8|0,0:0|0:0,0:0:0:0:
408,96,72474,1,4,0:3:0:0:
312,100,72708,1,0,0:0:0:0:
237,157,72943,2,0,P|196:154|156:154,1,80.5000015354157,8|0,0:0|0:0,0:0:0:0:
204,292,73412,6,0,B|324:288|324:288|372:268,1,161.000003070831,4|8,0:3|0:0,0:0:0:0:
440,216,74115,1,0,0:0:0:0:
380,140,74349,1,4,0:3:0:0:
308,204,74583,1,0,0:0:0:0:
362,272,74818,2,0,P|366:320|370:364,1,80.5000015354157,8|0,0:0|0:0,0:0:0:0:
204,292,75287,6,0,B|208:248|200:224|200:224|196:204|196:204|200:188|200:188|192:160|200:124,1,161.000003070831,4|8,0:3|0:0,0:0:0:0:
112,92,75990,1,0,0:0:0:0:
96,188,76224,2,0,L|12:196,2,80.5000015354157,4|0|8,0:3|0:0|0:0,0:0:0:0:
199,133,76927,1,0,0:0:0:0:
276,188,77162,6,0,L|396:175,1,120.750002303124,4|0,0:3|0:0,0:0:0:0:
436,204,77630,2,0,P|440:243|444:300,1,80.5000015354157,8|0,0:0|0:0,0:0:0:0:
380,356,78099,1,4,0:3:0:0:
304,300,78333,1,0,0:0:0:0:
232,364,78568,2,0,B|192:372|192:372|144:368,1,80.5000015354157,8|0,0:0|0:0,0:0:0:0:
76,264,79037,6,0,B|119:261|119:261|144:249|144:249|187:275|237:250,1,161.000003070831,4|8,0:3|0:0,0:0:0:0:
192,176,79740,1,0,0:0:0:0:
96,176,79974,2,0,P|55:178|18:193,2,80.5000015354157,4|0|8,0:3|0:0|0:0,0:0:0:0:
192,176,80677,1,0,0:0:0:0:
216,272,80912,6,4,P|284:284|353:224,1,161.000003070831,4|8,0:0|0:0,0:0:0:0:
268,198,81615,2,0,B|231:179|231:179|187:175,1,80.5000015354157,8|0,0:3|0:0,0:0:0:0:
128,236,82083,1,4,0:3:0:0:
216,272,82318,1,8,0:0:0:0:
268,198,82552,2,0,P|264:166|256:118,2,80.5000015354157,4|4|8,0:3|0:3|0:3,0:0:0:0:
128,236,83255,6,2,P|84:240|36:252,1,80.5000015354157,2|0,0:0|0:0,0:0:0:0:
52,344,83724,1,8,0:3:0:0:
148,360,83958,1,4,0:3:0:0:
216,272,84193,2,0,L|264:280,2,40.2500007677078,4|4|4,0:0|0:3|0:3,0:0:0:0:
128,236,84662,6,0,B|112:184|112:184|148:148|128:72,1,146.999995513916,4|8,0:0|0:0,0:0:0:0:
48,124,85365,1,0,0:0:0:0:
40,212,85599,2,0,B|52:260|52:260|52:292,2,73.4999977569581,4|0|8,0:3|0:0|0:0,0:0:0:0:
48,124,86302,1,0,0:0:0:0:
128,164,86537,6,0,L|212:152,1,73.4999977569581,4|0,0:3|0:0,0:0:0:0:
284,124,87005,2,0,P|328:140|372:152,1,73.4999977569581,8|0,0:0|0:0,0:0:0:0:
384,232,87474,1,4,0:3:0:0:
308,280,87708,1,0,0:0:0:0:
220,268,87943,2,0,L|212:194,1,73.4999977569581,8|0,0:0|0:0,0:0:0:0:
284,124,88412,6,0,L|372:108,1,73.4999977569581,4|0,0:3|0:0,0:0:0:0:
304,40,88880,2,0,B|200:56|200:56|152:44,1,146.999995513916,8|4,0:0|0:3,0:3:0:0:
96,108,89583,1,0,0:0:0:0:
176,148,89818,2,0,B|184:188|184:188|176:240,1,73.4999977569581,8|0,0:0|0:0,0:0:0:0:
248,272,90287,6,0,P|296:260|364:244,1,110.249996635437,4|0,0:3|0:0,0:0:0:0:
380,212,90755,2,0,P|376:172|368:132,1,73.4999977569581,8|0,0:0|0:0,0:0:0:0:
312,72,91224,1,4,0:3:0:0:
248,133,91458,2,0,P|213:141|176:148,2,73.4999977569581,0|8|0,0:0|0:0|0:0,0:0:0:0:
176,60,92162,6,0,B|134:71|134:71|112:92|112:92|64:84|26:114,1,146.999995513916,4|8,0:0|0:0,0:0:0:0:
84,184,92865,1,0,0:0:0:0:
160,228,93099,2,0,L|200:216|240:204,1,73.4999977569581,4|0,0:3|0:0,0:0:0:0:
316,180,93568,2,0,P|356:204|400:212,1,73.4999977569581,8|0,0:0|0:0,0:0:0:0:
428,288,94037,6,0,B|388:312|336:288|336:288|324:320|320:356,2,146.999995513916,4|8|4,0:3|0:0|0:3,0:0:0:0:
380,212,95208,1,0,0:0:0:0:
256,236,95443,2,0,L|236:316,1,73.4999977569581,8|0,0:0|0:0,0:0:0:0:
172,364,95912,6,0,B|149:337|150:301|150:301|114:325|58:309,1,146.999995513916,4|8,0:3|0:0,0:0:0:0:
100,228,96615,1,0,0:0:0:0:
188,212,96849,2,4,P|228:232|268:236,1,73.4999977569581,4|0,0:3|0:3,0:3:0:0:
328,288,97318,2,0,P|284:308|256:332,1,73.4999977569581,8|0,0:0|0:0,0:0:0:0:
412,316,97787,6,0,B|424:276|404:244|404:244|424:204|400:156,2,146.999995513916,2|8|4,0:0|0:0|0:3,0:0:0:0:
328,288,98958,1,0,0:0:0:0:
344,372,99193,1,6,0:0:0:0:
412,316,99427,1,6,0:0:0:0:
256,192,100130,5,4,0:1:0:0:
256,192,100247,12,0,105286,0:0:0:0:
