osu file format v14

[General]
AudioFilename: Yunchi - Wonderful Wonder World.mp3
AudioLeadIn: 2000
PreviewTime: 54662
Countdown: 0
SampleSet: Soft
StackLeniency: 0.7
Mode: 0
LetterboxInBreaks: 0
WidescreenStoryboard: 0

[Editor]
DistanceSpacing: 1.5
BeatDivisor: 8
GridSize: 4
TimelineZoom: 2.399999

[Metadata]
Title:Wonderful Wonder World*
TitleUnicode:Wonderful Wonder World*
Artist:Yun*chi
ArtistUnicode:Yun*chi
Creator:Meyrink
Version:P A N's Insane
Source:ログ・ホライズン
Tags:Log Horizon 2 Second Season CRCP-10328 TV Size Ending kakifly P_A_N PAN IamKwaN
BeatmapID:652226
BeatmapSetID:286851

[Difficulty]
HPDrainRate:7
CircleSize:4
OverallDifficulty:7.5
ApproachRate:8.3
SliderMultiplier:1.7
SliderTickRate:1

[Events]
//Background and Video events
0,0,"smeuth.jpg",0,0
Video,2000,"log.avi"
//Break Periods
//Storyboard Layer 0 (Background)
//Storyboard Layer 1 (Fail)
//Storyboard Layer 2 (Pass)
//Storyboard Layer 3 (Foreground)
//Storyboard Sound Samples

[TimingPoints]
287,468.75,4,2,1,30,1,0
4037,-100,4,2,1,50,0,0
11537,-125,4,2,1,40,0,0
26537,-100,4,2,1,50,0,0
39662,-100,4,2,1,60,0,0
48802,-100,4,2,1,60,0,0
54193,-133.333333333333,4,2,1,60,0,0
54662,-83.3333333333333,4,2,1,70,0,1
69193,-83.3333333333333,4,2,1,70,0,0
69662,-83.3333333333333,4,2,1,70,0,1
84662,-100,4,2,1,65,0,0
100599,-100,4,2,1,50,0,0
101537,-100,4,2,1,40,0,0
102474,-100,4,2,1,30,0,0
103412,-100,4,2,1,15,0,0
104349,-100,4,2,1,10,0,0
105287,-100,4,2,1,5,0,0

[Colours]
Combo1 : 255,143,32
Combo2 : 255,166,255
Combo3 : 111,255,111
Combo4 : 108,255,255

[HitObjects]
388,95,287,5,2,0:0:0:0:
388,95,755,2,0,L|382:226,1,127.5,2|0,0:0|0:0,0:0:0:0:
381,266,1224,1,2,0:0:0:0:
215,328,1693,6,0,P|154:347|91:321,1,127.5,2|0,0:0|0:0,0:0:0:0:
67,294,2162,1,2,0:0:0:0:
128,211,2396,2,0,P|144:151|126:88,1,127.5,2|0,0:0|0:0,0:0:0:0:
93,62,2865,6,0,L|270:69,1,170,2|2,0:0|0:0,0:0:0:0:
338,141,3568,2,0,P|356:198|338:266,1,127.5,2|0,0:0|0:0,0:0:0:0:
312,295,4037,5,4,0:0:0:0:
451,81,4505,1,2,0:0:0:0:
338,141,4740,1,2,0:0:0:0:
338,141,4857,1,0,0:0:0:0:
338,141,4974,2,0,P|288:160|214:145,1,127.5,2|0,0:0|0:0,0:0:0:0:
190,115,5443,2,0,L|196:247,1,127.5,2|0,0:0|0:0,0:0:0:0:
197,286,5912,5,2,0:0:0:0:
95,149,6146,1,2,0:0:0:0:
95,149,6615,2,0,L|110:334,1,170,2|2,0:0|0:0,0:0:0:0:
231,362,7318,2,0,P|274:370|316:360,1,85,2|0,0:0|0:0,0:0:0:0:
381,216,7787,5,4,0:3:0:0:
465,360,8021,1,2,0:3:0:0:
320,277,8255,1,4,0:3:0:0:
465,198,8490,1,2,0:3:0:0:
385,337,8724,5,4,0:3:0:0:
300,194,8958,1,2,0:3:0:0:
444,277,9193,1,4,0:3:0:0:
492,123,9427,1,2,0:3:0:0:
381,216,9662,5,4,0:3:0:0:
318,93,9896,1,4,0:3:0:0:
301,53,10013,2,0,L|308:19,2,21.25,8|8|0,0:3|0:3|0:0,0:0:0:0:
258,56,10247,2,0,L|210:59,1,42.5,8|8,0:3|0:3,0:0:0:0:
156,171,10599,5,8,0:3:0:0:
161,213,10716,1,8,0:3:0:0:
166,255,10833,1,8,0:3:0:0:
171,297,10951,2,0,L|177:336,2,21.25,8|8|0,0:3|0:3|0:0,0:0:0:0:
128,300,11185,2,0,L|80:303,1,42.5,8|4,0:0|0:3,0:0:0:0:
156,171,11537,6,0,L|362:162,1,204,4|0,0:0|0:0,0:0:0:0:
432,90,12474,1,2,0:0:0:0:
432,90,12708,1,0,0:0:0:0:
493,172,12943,2,0,P|506:220|491:278,1,102,2|0,0:0|0:0,0:0:0:0:
476,300,13412,5,2,0:0:0:0:
392,241,13646,1,0,0:0:0:0:
323,316,13880,2,0,L|208:312,1,102,2|0,0:0|0:0,0:0:0:0:
192,332,14349,2,0,P|134:352|54:331,1,136,2|2,0:0|0:0,0:0:0:0:
3,252,15052,1,0,0:0:0:0:
53,162,15287,5,2,0:0:0:0:
154,159,15521,1,0,0:0:0:0:
228,228,15755,1,2,0:0:0:0:
244,127,15990,2,0,P|311:106|379:133,1,136
452,188,16693,1,2,0:0:0:0:
505,101,16927,6,0,L|500:30,1,68,0|2,0:0|0:0,0:0:0:0:
452,188,17396,1,0,0:0:0:0:
452,188,17630,1,2,0:0:0:0:
406,279,17865,2,0,L|411:350,1,68,0|2,0:0|0:0,0:0:0:0:
354,191,18333,1,0,0:0:0:0:
277,297,18568,2,0,L|166:291,1,102,2|0,0:0|0:0,0:0:0:0:
145,309,19037,6,0,P|163:244|137:170,1,136,2|2,0:0|0:0,0:0:0:0:
48,144,19740,1,0,0:0:0:0:
127,80,19974,2,0,B|175:84|175:84|215:76|215:76|264:80,1,136,2|2,0:0|0:0,0:0:0:0:
357,42,20677,1,0,0:0:0:0:
328,139,20912,6,0,P|312:202|339:279,1,136,2|2,0:0|0:0,0:0:0:0:
417,324,21615,1,0,0:0:0:0:
498,263,21849,2,0,P|514:200|487:123,1,136,2|2,0:0|0:0,0:0:0:0:
408,78,22552,1,0,0:0:0:0:
328,139,22787,6,0,P|269:158|197:140,1,136,2|2,0:0|0:0,0:0:0:0:
102,107,23490,2,0,L|112:250,2,136,0|2|0,0:0|0:0|0:0,0:0:0:0:
176,37,24662,1,2,0:0:0:0:
256,192,24779,12,0,26068,0:0:0:0:
414,269,26537,6,0,L|407:357,2,85,4|2|4,0:3|0:3|0:3,0:0:0:0:
347,136,27240,1,2,0:3:0:0:
478,202,27474,1,4,0:3:0:0:
331,226,27708,1,2,0:3:0:0:
436,121,27943,2,0,P|443:80|432:38,1,85,4|2,0:3|0:3,0:0:0:0:
279,84,28412,5,4,0:3:0:0:
403,190,28646,1,2,0:3:0:0:
279,84,28880,2,0,L|189:87,1,85,4|2,0:3|0:3,0:0:0:0:
159,87,29232,1,0,0:0:0:0:
125,88,29349,2,0,P|116:131|127:174,1,85,4|2,0:3|0:3,0:0:0:0:
205,271,29818,1,4,0:3:0:0:
79,285,30052,1,2,0:3:0:0:
205,271,30287,5,4,0:3:0:0:
69,373,30521,1,2,0:3:0:0:
33,211,30755,1,4,0:3:0:0:
169,341,30990,2,0,P|209:350|253:336,1,85,2|4,0:3|0:3,0:0:0:0:
355,215,31458,1,2,0:3:0:0:
205,271,31693,1,4,0:3:0:0:
362,300,31927,1,2,0:3:0:0:
306,142,32162,5,4,0:3:0:0:
279,300,32396,1,2,0:3:0:0:
148,188,32630,1,4,0:3:0:0:
169,341,32865,1,2,0:3:0:0:
235,192,33099,5,4,0:3:0:0:
112,269,33333,1,2,0:3:0:0:
106,102,33568,2,0,P|145:94|190:103,1,85,4|2,0:3|0:3,0:0:0:0:
309,222,34037,6,0,P|349:229|396:218,2,85,4|2|4,0:3|0:3|0:3,0:0:0:0:
401,94,34740,1,2,0:3:0:0:
491,223,34974,2,4,L|483:314,1,85,4|2,0:3|0:3,0:0:0:0:
387,221,35443,1,4,0:3:0:0:
499,138,35677,1,2,0:3:0:0:
387,221,35912,6,0,L|396:317,1,85,4|2,0:3|0:3,0:0:0:0:
334,128,36380,1,4,0:3:0:0:
313,280,36615,1,2,0:3:0:0:
249,166,36849,2,0,P|240:125|254:78,1,85,4|2,0:3|0:3,0:0:0:0:
401,73,37318,1,4,0:3:0:0:
387,221,37552,1,2,0:3:0:0:
242,247,37787,5,4,0:3:0:0:
334,128,38021,1,0,0:0:0:0:
472,185,38255,1,4,0:3:0:0:
474,333,38490,1,0,0:0:0:0:
328,364,38724,1,4,0:3:0:0:
242,247,38958,1,8,0:3:0:0:
226,207,39076,2,0,L|230:178,2,21.25,8|8|8,0:3|0:3|0:3,0:0:0:0:
194,235,39310,2,0,P|155:245|102:232,1,85,8|0,0:3|0:0,0:0:0:0:
76,212,39662,5,4,0:0:0:0:
21,62,39896,1,4,0:3:0:0:
21,62,40013,1,4,0:3:0:0:
21,62,40130,1,8,0:0:0:0:
149,163,40365,1,4,0:3:0:0:
172,16,40599,1,4,0:3:0:0:
172,16,40716,1,8,0:0:0:0:
172,16,41068,5,8,0:0:0:0:
257,143,41302,1,4,0:3:0:0:
257,143,41419,1,4,0:3:0:0:
257,143,41537,2,0,P|305:160|379:140,1,127.5,2|8,0:0|0:0,0:0:0:0:
407,111,42005,1,8,0:0:0:0:
456,264,42240,1,4,0:3:0:0:
456,264,42357,1,4,0:3:0:0:
456,264,42474,1,0,0:0:0:0:
489,120,42708,5,2,0:0:0:0:
379,241,42943,1,8,0:0:0:0:
512,202,43177,1,2,0:0:0:0:
396,320,43412,6,0,P|350:318|300:258,1,127.5,2|8,0:0|0:0,0:0:0:0:
297,216,43880,1,8,0:0:0:0:
178,269,44115,2,0,L|48:262,1,127.5,2|0,0:0|0:0,0:0:0:0:
15,285,44583,1,4,0:3:0:0:
164,352,44818,1,8,0:0:0:0:
129,192,45052,1,4,0:3:0:0:
129,192,45169,1,4,0:3:0:0:
129,192,45287,6,4,P|111:142|136:57,1,127.5,2|4,0:0|0:3,0:0:0:0:
158,42,45755,1,8,0:0:0:0:
200,37,45872,1,4,0:3:0:0:
238,55,45990,2,0,P|300:69|372:42,1,127.5,4|0,0:3|0:0,0:0:0:0:
395,27,46458,1,4,0:3:0:0:
467,170,46693,1,8,0:0:0:0:
512,18,46927,1,8,0:3:0:0:
331,154,47162,6,0,P|324:202|339:247,1,85,4|0,0:0|0:0,0:0:0:0:
467,170,47630,2,0,P|474:122|459:77,1,85,0|4,0:0|0:3,0:0:0:0:
314,30,48099,2,0,L|171:35,1,127.5,0|8,0:0|0:0,0:0:0:0:
143,36,48568,1,8,0:0:0:0:
25,134,48802,1,4,0:3:0:0:
89,274,49037,5,4,0:0:0:0:
241,275,49271,1,4,0:3:0:0:
282,264,49388,1,4,0:3:0:0:
324,258,49505,1,4,0:3:0:0:
365,264,49622,1,4,0:3:0:0:
405,276,49740,1,4,0:3:0:0:
492,369,49974,1,0,0:0:0:0:
492,369,50091,1,2,0:0:0:0:
492,369,50208,1,4,0:3:0:0:
512,239,50443,1,8,0:0:0:0:
401,359,50677,1,4,0:3:0:0:
383,175,50912,5,4,0:0:0:0:
305,341,51146,1,8,0:0:0:0:
454,296,51380,1,8,0:0:0:0:
305,190,51615,1,4,0:3:0:0:
270,165,51732,1,4,0:3:0:0:
234,141,51849,1,4,0:0:0:0:
423,182,52083,1,4,0:3:0:0:
465,188,52201,1,4,0:3:0:0:
506,195,52318,1,8,0:0:0:0:
305,265,52552,1,4,0:3:0:0:
255,55,52787,5,4,0:3:0:0:
220,30,52904,1,4,0:3:0:0:
178,19,53021,1,4,0:3:0:0:
135,18,53138,1,4,0:3:0:0:
94,31,53255,1,4,0:3:0:0:
58,54,53372,1,4,0:3:0:0:
42,93,53490,1,4,0:3:0:0:
34,222,53724,1,0,0:0:0:0:
148,121,53958,1,2,0:3:0:0:
95,274,54193,6,2,P|57:300|1:295,1,95.6250036478044,6|2,0:0|0:0,0:0:0:0:
8,298,54662,5,4,0:0:0:0:
164,378,54896,1,2,0:3:0:0:
153,205,55130,1,8,0:0:0:0:
77,371,55365,1,2,0:3:0:0:
213,266,55599,1,4,0:3:0:0:
97,143,55833,1,2,0:3:0:0:
95,274,56068,1,8,0:0:0:0:
180,126,56302,1,2,0:3:0:0:
295,258,56537,6,0,P|345:269|395:255,1,101.999996887207,4|2,0:3|0:3,0:0:0:0:
492,133,57005,1,8,0:0:0:0:
492,133,57122,1,2,0:3:0:0:
492,133,57240,1,2,0:3:0:0:
341,175,57474,1,4,0:3:0:0:
493,231,57708,1,2,0:3:0:0:
493,231,57826,1,2,0:3:0:0:
493,231,57943,1,8,0:0:0:0:
401,96,58177,1,2,0:3:0:0:
261,181,58412,5,4,0:3:0:0:
425,175,58646,1,2,0:3:0:0:
425,175,58763,1,2,0:3:0:0:
425,175,58880,1,8,0:0:0:0:
327,57,59115,1,2,0:3:0:0:
189,126,59349,1,4,0:3:0:0:
226,277,59583,1,2,0:3:0:0:
226,277,59701,1,2,0:3:0:0:
226,277,59818,1,8,0:0:0:0:
331,138,60052,1,2,0:3:0:0:
331,138,60169,1,2,0:3:0:0:
331,138,60287,5,4,0:3:0:0:
191,38,60521,1,2,0:3:0:0:
83,176,60755,1,8,0:0:0:0:
160,335,60990,1,2,0:3:0:0:
314,257,61224,2,0,L|417:263,1,101.999996887207,4|2,0:3|0:3,0:0:0:0:
259,188,61693,1,8,0:0:0:0:
319,353,61927,1,2,0:3:0:0:
319,353,62044,1,2,0:3:0:0:
319,353,62162,6,0,L|423:360,1,101.999996887207,4|2,0:3|0:3,0:0:0:0:
461,362,62513,1,2,0:3:0:0:
501,364,62630,1,8,0:0:0:0:
469,202,62865,2,0,P|456:158|471:93,1,101.999996887207,2|4,0:3|0:3,0:0:0:0:
339,180,63333,1,2,0:3:0:0:
339,180,63451,1,2,0:3:0:0:
339,180,63568,1,8,0:0:0:0:
282,44,63802,1,2,0:3:0:0:
282,44,63919,1,2,0:3:0:0:
282,44,64037,6,0,L|177:47,1,101.999996887207,4|0,0:3|0:0,0:0:0:0:
139,47,64388,1,2,0:3:0:0:
98,48,64505,1,8,0:0:0:0:
17,177,64740,2,0,P|6:229|24:282,1,101.999996887207,2|4,0:3|0:3,0:0:0:0:
77,126,65208,1,2,0:3:0:0:
169,255,65443,1,8,0:0:0:0:
48,354,65677,1,2,0:3:0:0:
109,198,65912,5,4,0:0:0:0:
138,364,66146,1,2,0:3:0:0:
250,238,66380,1,8,0:0:0:0:
89,279,66615,1,4,0:3:0:0:
78,126,66849,1,4,0:3:0:0:
170,255,67083,1,4,0:3:0:0:
211,83,67318,1,8,0:0:0:0:
250,238,67552,6,0,L|239:349,1,101.999996887207,0|2,0:0|0:3,0:0:0:0:
330,214,68021,1,4,0:3:0:0:
357,183,68138,2,0,L|355:151,2,25.4999992218018,8|8|8,0:3|0:3|0:3,0:0:0:0:
397,183,68372,2,0,L|454:182,1,50.9999984436036,8|4,0:3|0:1,0:0:0:0:
512,321,68724,1,8,0:3:0:0:
512,321,68841,1,8,0:3:0:0:
362,369,69076,2,0,L|321:372,2,25.4999992218018,8|8|8,0:3|0:3|0:3,0:0:0:0:
362,328,69310,2,0,L|358:211,1,101.999996887207,8|0,0:3|0:0,0:0:0:0:
357,183,69662,5,4,0:0:0:0:
268,309,69896,2,0,P|224:322|167:309,1,101.999996887207,2|8,0:3|0:0,0:0:0:0:
72,192,70365,1,2,0:3:0:0:
72,192,70482,1,2,0:3:0:0:
72,192,70599,1,4,0:3:0:0:
176,78,70833,1,2,0:3:0:0:
158,239,71068,1,8,0:0:0:0:
0,227,71302,1,2,0:3:0:0:
11,70,71537,5,4,0:3:0:0:
143,155,71771,1,2,0:3:0:0:
143,155,71888,1,2,0:3:0:0:
143,155,72005,1,8,0:0:0:0:
90,300,72240,1,2,0:3:0:0:
90,300,72357,1,2,0:3:0:0:
90,300,72474,1,4,0:3:0:0:
220,188,72708,1,2,0:3:0:0:
220,188,72826,1,2,0:3:0:0:
220,188,72943,1,8,0:0:0:0:
347,292,73177,6,0,L|452:288,1,101.999996887207,2|4,0:3|0:3,0:0:0:0:
312,214,73646,1,2,0:3:0:0:
312,214,73763,1,2,0:3:0:0:
312,214,73880,1,8,0:0:0:0:
252,358,74115,1,2,0:3:0:0:
220,188,74349,1,4,0:3:0:0:
347,292,74583,1,2,0:3:0:0:
285,133,74818,1,8,0:0:0:0:
152,229,75052,6,0,L|46:226,1,101.999996887207,2|4,0:3|0:3,0:0:0:0:
220,188,75521,1,2,0:3:0:0:
140,341,75755,1,8,0:0:0:0:
149,151,75990,2,0,L|153:48,2,101.999996887207,2|4|2,0:3|0:3|0:3,0:0:0:0:
240,30,76693,1,8,0:0:0:0:
220,188,76927,1,2,0:3:0:0:
220,188,77044,1,2,0:3:0:0:
220,188,77162,6,0,L|327:180,1,101.999996887207
362,178,77513,1,2,0:3:0:0:
402,175,77630,1,8,0:0:0:0:
487,277,77865,1,2,0:3:0:0:
483,149,78099,1,4,0:3:0:0:
405,256,78333,1,2,0:3:0:0:
497,355,78568,1,8,0:0:0:0:
359,323,78802,1,2,0:3:0:0:
359,323,78919,1,2,0:3:0:0:
359,323,79037,6,0,L|255:331,1,101.999996887207,4|2,0:3|0:3,0:0:0:0:
216,334,79388,1,2,0:3:0:0:
175,337,79505,1,8,0:0:0:0:
138,191,79740,1,2,0:3:0:0:
80,331,79974,1,4,0:3:0:0:
211,248,80208,1,2,0:3:0:0:
211,248,80326,1,2,0:3:0:0:
211,248,80443,1,8,0:0:0:0:
61,242,80677,1,2,0:3:0:0:
61,242,80794,1,2,0:3:0:0:
61,242,80912,6,0,P|46:197|61:140,1,101.999996887207,4|2,0:3|0:3,0:0:0:0:
181,51,81380,1,8,0:0:0:0:
286,165,81615,1,2,0:3:0:0:
286,165,81732,1,2,0:3:0:0:
286,165,81849,2,0,L|392:160,1,101.999996887207,4|2,0:3|0:3,0:0:0:0:
428,156,82201,1,2,0:3:0:0:
468,152,82318,1,8,0:0:0:0:
309,78,82552,1,2,0:3:0:0:
309,78,82669,1,2,0:3:0:0:
309,78,82787,5,4,0:3:0:0:
326,251,83021,1,8,0:3:0:0:
308,287,83138,2,0,L|311:320,2,25.4999992218018,8|8|8,0:3|0:3|0:3,0:0:0:0:
267,290,83372,2,0,L|199:290,1,50.9999984436036,8|4,0:3|0:3,0:0:0:0:
80,289,83724,1,8,0:3:0:0:
87,248,83841,1,8,0:3:0:0:
94,207,83958,1,8,0:3:0:0:
100,166,84076,2,0,L|109:132,2,25.4999992218018,8|8|8,0:3|0:3|0:3,0:0:0:0:
59,164,84310,2,0,L|-9:164,1,50.9999984436036,0|0,0:3|0:0,0:0:0:0:
147,56,84662,5,4,0:0:0:0:
172,225,84896,1,2,0:3:0:0:
268,88,85130,2,0,P|309:80|354:87,1,85,8|2,0:0|0:3,0:0:0:0:
351,288,85599,2,0,P|310:296|265:289,1,85,4|2,0:3|0:3,0:0:0:0:
421,245,86068,2,0,P|432:293|418:337,1,85,8|2,0:0|0:3,0:0:0:0:
270,170,86537,6,0,P|259:122|273:78,1,85,4|2,0:3|0:3,0:0:0:0:
172,225,87005,2,0,P|180:266|169:306,1,85,8|2,0:0|0:3,0:0:0:0:
153,337,87357,1,0,0:0:0:0:
122,351,87474,1,4,0:3:0:0:
47,218,87708,1,2,0:3:0:0:
173,132,87943,1,8,0:0:0:0:
104,266,88177,1,2,0:3:0:0:
14,142,88412,5,4,0:3:0:0:
32,293,88646,1,2,0:3:0:0:
172,224,88880,2,0,P|214:215|263:226,1,85,8|2,0:0|0:3,0:0:0:0:
320,78,89349,2,0,P|329:120|318:169,1,85,4|2,0:3|0:3,0:0:0:0:
469,224,89818,2,0,P|427:233|378:222,1,85,8|2,0:0|0:3,0:0:0:0:
320,368,90287,6,0,P|311:326|322:277,1,85,4|2,0:3|0:3,0:0:0:0:
198,342,90755,2,0,L|112:335,1,85,8|2,0:0|0:3,0:0:0:0:
79,331,91107,1,0,0:0:0:0:
45,327,91224,1,4,0:3:0:0:
37,163,91458,1,2,0:3:0:0:
143,255,91693,1,8,0:0:0:0:
187,113,91927,1,2,0:3:0:0:
42,243,92162,6,0,P|37:285|44:326,1,85,4|2,0:0|0:3,0:0:0:0:
198,342,92630,2,0,L|294:351,1,85,8|2,0:0|0:3,0:0:0:0:
198,193,93099,2,0,L|294:182,1,85,4|2,0:3|0:3,0:0:0:0:
361,356,93568,2,0,L|457:365,1,85,8|2,0:0|0:3,0:0:0:0:
360,169,94037,6,0,L|456:158,1,85,4|2,0:3|0:3,0:0:0:0:
258,90,94505,2,0,L|161:78,1,85,8|2,0:0|0:3,0:0:0:0:
139,74,94857,1,0,0:0:0:0:
105,68,94974,1,4,0:3:0:0:
0,190,95208,1,2,0:3:0:0:
122,298,95443,1,8,0:0:0:0:
234,187,95677,1,2,0:3:0:0:
360,286,95912,6,0,P|370:328|362:369,1,85,4|2,0:0|0:3,0:0:0:0:
234,187,96380,2,0,P|224:145|232:104,1,85,8|2,0:0|0:3,0:0:0:0:
379,29,96849,2,0,L|477:33,1,85,4|2,0:3|0:3,0:0:0:0:
381,196,97318,2,0,L|477:190,1,85,8|2,0:0|0:3,0:0:0:0:
279,295,97787,5,12,0:3:0:0:
247,306,97904,1,12,0:3:0:0:
213,311,98021,1,4,0:3:0:0:
179,306,98138,6,0,L|166:332,2,21.25,4|4|4,0:3|0:3|0:3,0:0:0:0:
149,289,98372,1,12,0:3:0:0:
125,263,98490,1,4,0:3:0:0:
110,232,98607,1,12,0:3:0:0:
103,198,98724,1,12,0:3:0:0:
109,164,98841,1,12,0:3:0:0:
121,132,98958,1,4,0:3:0:0:
143,106,99076,6,0,L|129:83,2,21.25,4|4|4,0:3|0:3|0:3,0:0:0:0:
174,93,99310,1,12,0:3:0:0:
207,86,99427,1,12,0:3:0:0:
240,86,99544,1,6,0:3:0:0:
240,86,100130,5,4,0:0:0:0:
256,192,100247,12,0,105287,0:0:0:0:
