osu file format v14

[General]
AudioFilename: Yunchi - Wonderful Wonder World.mp3
AudioLeadIn: 2000
PreviewTime: 54662
Countdown: 0
SampleSet: Soft
StackLeniency: 0.7
Mode: 0
LetterboxInBreaks: 0
WidescreenStoryboard: 0

[Editor]
DistanceSpacing: 1
BeatDivisor: 4
GridSize: 4
TimelineZoom: 0.7999989

[Metadata]
Title:Wonderful Wonder World*
TitleUnicode:Wonderful Wonder World*
Artist:Yun*chi
ArtistUnicode:Yun*chi
Creator:Meyrink
Version:KwaN's Normal
Source:ログ・ホライズン
Tags:Log Horizon 2 Second Season CRCP-10328 TV Size Ending kakifly P_A_N PAN IamKwaN
BeatmapID:657881
BeatmapSetID:286851

[Difficulty]
HPDrainRate:3
CircleSize:3.5
OverallDifficulty:3
ApproachRate:4
SliderMultiplier:1.1
SliderTickRate:1

[Events]
//Background and Video events
0,0,"smeuth.jpg",0,0
Video,2000,"log.avi"
//Break Periods
//Storyboard Layer 0 (Background)
//Storyboard Layer 1 (Fail)
//Storyboard Layer 2 (Pass)
//Storyboard Layer 3 (Foreground)
//Storyboard Sound Samples

[TimingPoints]
287,468.75,4,2,88,30,1,0
4037,-100,4,2,88,50,0,0
7787,-100,4,2,89,50,0,0
7904,-100,4,2,89,70,0,0
11068,-100,4,2,1,60,0,0
11537,-117.647058823529,4,2,88,50,0,0
26537,-100,4,2,89,60,0,0
31224,-100,4,2,88,60,0,0
31341,-100,4,2,89,60,0,0
39662,-100,4,2,1,50,0,0
47162,-100,4,2,89,60,0,0
47630,-100,4,2,1,70,0,0
49037,-100,4,2,89,70,0,0
49271,-100,4,2,1,70,0,0
50912,-100,4,2,89,70,0,0
51380,-100,4,2,1,70,0,0
51615,-100,4,2,89,70,0,0
51849,-100,4,2,1,70,0,0
52318,-100,4,2,89,70,0,0
53021,-100,4,2,1,70,0,0
53255,-100,4,2,89,70,0,0
53958,-100,4,2,1,80,0,0
54662,-100,4,2,89,70,0,1
55130,-100,4,2,89,50,0,1
55599,-100,4,2,89,80,0,1
67083,-100,4,2,1,70,0,1
67318,-100,4,2,89,70,0,1
69193,-100,4,2,89,70,0,0
69662,-100,4,2,89,70,0,1
70130,-100,4,2,89,50,0,1
70599,-100,4,2,89,70,0,1
80912,-100,4,2,89,50,0,1
81380,-100,4,2,89,70,0,1
84662,-100,4,2,1,60,0,0
85130,-100,4,2,89,70,0,0
100130,-100,4,2,89,80,0,0
100365,-100,4,2,89,50,0,0
101537,-100,4,2,89,40,0,0
102474,-100,4,2,89,30,0,0
103412,-100,4,2,89,20,0,0
104349,-100,4,2,89,10,0,0
105287,-100,4,2,89,5,0,0

[Colours]
Combo1 : 255,143,32
Combo2 : 255,166,255
Combo3 : 111,255,111
Combo4 : 108,255,255

[HitObjects]
106,133,287,6,0,P|159:146|212:127,1,110,2|0,0:0|0:0,0:0:0:0:
302,68,1224,2,0,L|412:77,1,110,2|0,0:0|0:0,0:0:0:0:
449,180,2162,1,0,0:0:0:0:
449,180,2396,2,0,L|339:171,2,110,2|2|0,0:0|0:0|0:0,0:0:0:0:
486,220,3568,1,2,0:0:0:0:
468,328,4037,6,0,P|417:310|384:265,1,110,2|2,0:0|0:3,0:0:0:0:
339,171,4974,1,0,0:0:0:0:
382,69,5443,1,2,0:3:0:0:
448,156,5912,1,2,0:0:0:0:
448,156,6146,2,0,P|485:116|491:61,2,110,2|2|0,0:3|0:0|0:0,0:0:0:0:
402,187,7318,1,2,0:3:0:0:
307,243,7787,6,0,B|321:306|321:306|310:350,1,110,12|8,0:0|0:0,0:0:0:0:
202,350,8724,2,0,B|191:306|191:306|205:243,1,110,8|8,0:0|0:0,0:0:0:0:
231,194,9427,1,2,0:1:0:0:
231,194,9662,2,0,P|230:165|225:135,1,55,8|2,0:0|0:1,0:0:0:0:
154,55,10365,1,2,0:1:0:0:
154,55,10599,2,0,L|99:60,2,55,8|8|8,0:0|0:0|0:1,0:0:0:0:
263,44,11537,6,0,B|322:40|322:40|345:48|345:48|401:45,1,140.250002675057,4|0,0:0|0:0,0:0:0:0:
441,69,12474,2,0,L|489:65,2,46.7500008916855
382,142,13412,2,0,P|385:165|380:193,1,46.7500008916855,2|0,0:0|0:0,0:0:0:0:
360,229,13880,2,0,P|411:225|453:243,1,93.500001783371
393,315,14818,1,0,0:0:0:0:
300,298,15287,6,0,P|270:257|268:213,1,93.500001783371,2|0,0:0|0:0,0:0:0:0:
254,170,15990,2,0,L|161:169,1,93.500001783371
116,153,16693,1,0,0:0:0:0:
96,61,17162,2,0,B|160:43|160:95|232:71,1,140.250002675057,2|0,0:0|0:0,0:0:0:0:
272,47,18099,2,0,P|317:42|364:58,1,93.500001783371,2|0,0:0|0:0,0:0:0:0:
437,112,19037,6,0,L|442:207,1,93.500001783371,2|0,0:0|0:0,0:0:0:0:
443,252,19740,1,0,0:0:0:0:
443,252,19974,2,0,P|399:265|354:256,1,93.500001783371
280,314,20912,2,0,P|234:304|190:317,1,93.500001783371,2|0,0:0|0:0,0:0:0:0:
147,337,21615,1,0,0:0:0:0:
147,337,21849,2,0,L|136:243,1,93.500001783371,2|0,0:0|0:0,0:0:0:0:
86,164,22787,6,0,P|80:119|98:74,1,93.500001783371,2|0,0:0|0:0,0:0:0:0:
110,30,23490,2,0,L|18:42,2,93.500001783371
156,22,24662,1,2,0:0:0:0:
232,75,25130,1,0,0:0:0:0:
232,75,25365,2,0,B|280:69|280:69|316:98|368:80,1,140.250002675057
465,31,26537,6,0,P|476:82|459:137,1,110,14|8,0:0|0:0,0:0:0:0:
424,179,27240,1,2,0:1:0:0:
424,179,27474,2,0,L|427:233,2,55,8|2|8,0:0|0:1|0:0,0:0:0:0:
319,215,28412,2,0,P|316:238|324:270,1,55,10|2,0:0|0:1,0:0:0:0:
343,320,28880,2,0,B|275:309|275:309|232:320,1,110,8|8,0:0|0:0,0:0:0:0:
125,308,29818,1,8,0:0:0:0:
61,218,30287,6,0,P|45:168|65:115,1,110,10|8,0:0|0:0,0:0:0:0:
88,66,30990,2,0,B|123:55|153:73|153:73|179:61|179:61|218:84|261:66,1,165,2|8,0:1|0:0,0:0:0:0:
348,32,32162,2,0,L|457:38,1,110,10|8,0:0|0:0,0:0:0:0:
471,148,33099,2,0,P|445:153|419:164,1,55,10|2,0:0|0:1,0:0:0:0:
381,204,33568,2,0,L|388:315,1,110,8|10,0:0|0:0,0:0:0:0:
288,360,34505,6,0,P|262:355|236:344,1,55,8|2,0:0|0:1,0:0:0:0:
198,304,34974,2,0,L|205:193,1,110,8|8,0:0|0:0,0:0:0:0:
153,96,35912,2,0,P|126:97|98:103,1,55,10|2,0:0|0:1,0:0:0:0:
48,125,36380,2,0,P|60:69|40:21,2,110,8|10|8,0:0|0:0|0:0,0:0:0:0:
15,230,37787,5,10,0:0:0:0:
94,305,38255,1,8,0:0:0:0:
15,230,38724,5,10,0:0:0:0:
94,305,39193,2,0,P|119:311|150:308,1,55,8|8,0:0|0:0,0:0:0:0:
198,286,39662,6,0,P|250:273|296:301,1,110,6|8,0:0|0:0,0:0:0:0:
398,261,40599,2,0,P|401:233|399:202,1,55
388,152,41068,2,0,P|436:140|474:96,1,110,8|2,0:0|0:0,0:0:0:0:
378,40,42005,2,0,L|304:43,1,55,8|2,0:0|0:0,0:0:0:0:
275,70,42474,2,0,B|208:66|208:66|172:44,2,110,0|10|2,0:0|0:0|0:0,0:0:0:0:
275,180,43880,5,8,0:0:0:0:
330,274,44349,2,0,P|328:299|320:328,2,55,0|0|8,0:0|0:0|0:0,0:0:0:0:
432,232,45287,2,0,P|422:180|446:131,1,110,2|8,0:0|0:0,0:0:0:0:
470,80,45990,2,0,B|443:72|417:85|417:85|387:76|359:90,1,110,2|0,0:0|0:0,0:0:0:0:
309,101,46693,2,0,B|281:124|243:118|243:118|215:89,1,110,8|12,0:0|0:0,0:0:0:0:
118,140,47630,6,0,P|103:90|119:35,2,110,2|0|8,0:0|0:0|0:0,0:0:0:0:
152,244,49037,2,0,B|83:233|83:233|44:248,2,110,12|8|0,0:0|0:0|0:0,0:0:0:0:
206,253,50208,1,0,0:0:0:0:
206,253,50443,2,0,P|210:306|242:351,1,110,8|14,0:0|0:0,0:0:0:0:
311,266,51380,5,8,0:0:0:0:
311,266,51615,2,0,B|352:255|383:277|383:277|430:274|447:224,1,165,10|8,0:0|0:0,0:0:0:0:
426,115,52787,2,0,B|408:79|378:64|378:64|339:63,1,110,8|8,0:0|0:0,0:0:0:0:
284,70,53490,1,8,0:0:0:0:
284,70,53724,2,0,P|284:44|280:13,2,55,2|0|8,0:0|0:0|0:0,0:0:0:0:
178,103,54662,6,0,P|141:142|137:196,1,110,12|8,0:0|0:3,0:0:0:0:
109,302,55599,2,0,P|161:308|211:280,1,110,8|8,0:0|0:3,0:0:0:0:
250,243,56302,1,2,0:1:0:0:
250,243,56537,2,0,L|258:353,2,110,8|8|8,0:0|0:3|0:0,0:0:0:0:
324,162,57943,1,8,0:3:0:0:
427,198,58412,6,0,P|379:225|357:274,1,110,8|8,0:0|0:3,0:0:0:0:
414,368,59349,2,0,B|480:355|480:355|515:323,1,110,8|8,0:0|0:3,0:0:0:0:
431,252,60287,2,0,L|427:198,1,55,8|2,0:0|0:1,0:0:0:0:
452,148,60756,2,0,P|473:100|461:45,1,110,8|8,0:3|0:0,0:0:0:0:
353,23,61693,6,0,P|326:15|299:16,2,55,8|2|8,0:3|0:1|0:0,0:0:0:0:
312,125,62630,1,8,0:3:0:0:
312,125,62865,2,0,L|256:133,1,55,2|8,0:1|0:0,0:0:0:0:
190,220,63568,2,0,P|163:227|136:227,2,55,8|2|8,0:3|0:1|0:0,0:0:0:0:
149,118,64505,1,8,0:3:0:0:
149,118,64740,2,0,L|93:110,1,55,2|8,0:1|0:0,0:0:0:0:
13,35,65443,6,0,L|19:144,1,110,8|8,0:3|0:0,0:0:0:0:
34,197,66146,1,2,0:1:0:0:
34,197,66380,2,0,B|42:235|42:235|71:237|102:273,2,110,8|0|8,0:3|0:0|0:3,0:0:0:0:
19,144,67552,1,2,0:1:0:0:
128,132,68021,1,2,0:1:0:0:
128,132,68255,2,0,P|109:77|69:47,2,110,8|8|8,0:3|0:0|0:3,0:0:0:0:
130,187,69427,1,2,0:1:0:0:
130,187,69662,6,0,L|121:300,1,110,12|8,0:0|0:3,0:0:0:0:
223,338,70599,2,0,P|293:339|330:297,1,110,8|8,0:0|0:3,0:0:0:0:
351,269,71302,1,2,0:1:0:0:
351,269,71537,2,0,L|362:379,2,110,8|8|8,0:0|0:3|0:0,0:0:0:0:
414,179,72943,1,8,0:3:0:0:
373,76,73412,6,0,B|308:87|308:87|266:73,1,110,8|8,0:0|0:3,0:0:0:0:
162,36,74349,2,0,P|106:35|57:56,1,110,8|8,0:0|0:3,0:0:0:0:
127,141,75287,2,0,L|128:195,1,55,8|2,0:0|0:1,0:0:0:0:
156,242,75755,2,0,P|156:268|146:297,2,55,8|2|8,0:3|0:1|0:0,0:0:0:0:
238,169,76693,6,0,P|241:143|250:116,2,55,8|2|8,0:3|0:1|0:0,0:0:0:0:
347,162,77630,1,8,0:3:0:0:
347,162,77865,2,0,L|340:217,1,55,2|8,0:1|0:0,0:0:0:0:
358,325,78568,2,0,P|361:350|370:378,2,55,8|2|8,0:3|0:1|0:0,0:0:0:0:
467,332,79505,1,8,0:3:0:0:
467,332,79740,2,0,L|460:277,1,55,2|8,0:1|0:0,0:0:0:0:
448,223,80208,1,2,0:1:0:0:
448,223,80443,6,0,P|398:245|345:232,1,110,8|4,0:3|0:0,0:0:0:0:
334,123,81380,2,0,L|225:117,2,110,8|0|8,0:0|0:0|0:0,0:0:0:0:
388,128,82552,1,2,0:1:0:0:
448,223,83021,1,2,0:1:0:0:
448,223,83255,2,0,L|443:277,2,55,8|2|8,0:3|0:1|0:0,0:0:0:0:
341,251,84193,2,0,B|333:319|333:319|315:356,1,110,8|4,0:3|0:0,0:0:0:0:
206,352,85130,5,8,0:3:0:0:
127,274,85599,2,0,P|68:276|23:251,1,110,8|8,0:0|0:3,0:0:0:0:
95,167,86537,2,0,B|72:139|78:101|78:101|107:73,1,110,8|8,0:0|0:3,0:0:0:0:
149,38,87240,1,2,0:1:0:0:
149,38,87474,2,0,L|262:27,2,110,8|8|8,0:0|0:3|0:0,0:0:0:0:
205,132,88880,5,8,0:3:0:0:
215,241,89349,1,8,0:0:0:0:
323,221,89818,1,8,0:3:0:0:
308,330,90287,2,0,P|361:328|406:295,1,110,8|8,0:0|0:3,0:0:0:0:
447,258,90990,1,2,0:1:0:0:
447,258,91224,2,0,L|437:368,2,110,8|8|12,0:0|0:3|0:0,0:0:0:0:
490,157,92630,5,8,0:3:0:0:
408,82,93099,2,0,P|355:89|300:59,1,110,8|8,0:0|0:3,0:0:0:0:
203,22,94037,2,0,L|212:132,1,110,8|8,0:0|0:3,0:0:0:0:
237,180,94740,1,2,0:1:0:0:
237,180,94974,2,0,L|233:237,1,55,8|2,0:0|0:1,0:0:0:0:
194,273,95443,2,0,P|167:273|136:263,2,55,8|2|8,0:3|0:1|0:0,0:0:0:0:
303,262,96380,5,8,0:3:0:0:
397,319,96849,1,8,0:0:0:0:
458,228,97318,1,8,0:3:0:0:
410,128,97787,2,0,P|383:82|331:72,1,110,8|8,0:0|0:3,0:0:0:0:
275,77,98490,1,2,0:1:0:0:
275,77,98724,2,0,L|215:88,1,55,8|2,0:0|0:1,0:0:0:0:
182,126,99193,2,0,P|193:150|192:178,1,55,8|2,0:3|0:0,0:0:0:0:
85,52,100130,5,12,0:0:0:0:
256,192,100365,12,0,105287,0:0:0:0:
