osu file format v14

[General]
AudioFilename: Yunchi - Wonderful Wonder World.mp3
AudioLeadIn: 2000
PreviewTime: 54662
Countdown: 0
SampleSet: Soft
StackLeniency: 0.7
Mode: 0
LetterboxInBreaks: 0
WidescreenStoryboard: 0

[Editor]
DistanceSpacing: 1
BeatDivisor: 4
GridSize: 4
TimelineZoom: 3.199999

[Metadata]
Title:Wonderful Wonder World*
TitleUnicode:Wonderful Wonder World*
Artist:Yun*chi
ArtistUnicode:Yun*chi
Creator:Meyrink
Version:Insane
Source:ログ・ホライズン
Tags:Log Horizon 2 Second Season CRCP-10328 TV Size Ending kakifly P_A_N PAN IamKwaN
BeatmapID:647498
BeatmapSetID:286851

[Difficulty]
HPDrainRate:7
CircleSize:4
OverallDifficulty:7
ApproachRate:8
SliderMultiplier:1.7
SliderTickRate:2

[Events]
//Background and Video events
0,0,"smeuth.jpg",0,0
Video,2000,"log.avi"
//Break Periods
//Storyboard Layer 0 (Background)
//Storyboard Layer 1 (Fail)
//Storyboard Layer 2 (Pass)
//Storyboard Layer 3 (Foreground)
//Storyboard Sound Samples

[TimingPoints]
287,468.75,4,2,1,30,1,0
4037,-100,4,2,1,50,0,0
11537,-125,4,2,1,40,0,0
26537,-100,4,2,1,40,0,0
39662,-100,4,2,1,60,0,0
54662,-83.3333333333333,4,2,1,70,0,1
69193,-83.3333333333333,4,2,1,70,0,0
69662,-83.3333333333333,4,2,1,70,0,1
84662,-100,4,2,1,65,0,0
100599,-100,4,2,1,50,0,0
101537,-100,4,2,1,40,0,0
102474,-100,4,2,1,30,0,0
103412,-100,4,2,1,15,0,0
104349,-100,4,2,1,10,0,0
105287,-100,4,2,1,5,0,0

[Colours]
Combo1 : 255,143,32
Combo2 : 255,166,255
Combo3 : 111,255,111
Combo4 : 108,255,255

[HitObjects]
200,183,287,6,0,P|194:246|229:298,1,127.5,2|0,0:0|0:0,0:0:0:0:
289,221,755,2,0,P|347:198|379:144,1,127.5,2|2,0:0|0:0,0:0:0:0:
282,125,1224,2,0,P|232:83|170:81,1,127.5,2|0,0:0|0:0,0:0:0:0:
93,133,1693,2,0,L|85:268,1,127.5,2|2,0:0|0:0,0:0:0:0:
145,329,2162,5,2,0:0:0:0:
172,81,2396,1,2,0:0:0:0:
172,81,2865,2,0,L|260:89,1,85,2|2,0:0|0:0,0:0:0:0:
413,102,3334,1,2,0:0:0:0:
334,217,3568,2,0,P|292:223|246:209,1,85,2|2,0:0|0:0,0:0:0:0:
124,262,4037,6,0,P|116:304|127:347,1,85,4|0,0:0|0:0,0:0:0:0:
251,212,4505,2,0,P|259:170|248:127,1,85,0|2,0:0|0:0,0:0:0:0:
185,75,4857,1,2,0:0:0:0:
185,75,4974,2,0,L|90:84,1,85,2|0,0:0|0:0,0:0:0:0:
249,130,5443,2,0,L|333:121,1,85,0|2,0:0|0:0,0:0:0:0:
391,68,5794,1,2,0:0:0:0:
391,68,5912,5,2,0:0:0:0:
358,279,6146,2,0,L|274:288,1,85,0|2,0:0|0:0,0:0:0:0:
154,199,6615,1,0,0:0:0:0:
319,151,6849,1,0,0:0:0:0:
273,288,7083,1,0,0:0:0:0:
73,240,7318,2,0,P|65:220|75:154,1,85,2|0,0:0|0:0,0:0:0:0:
145,81,7787,6,0,L|229:72,1,85,2|2,0:0|0:3,0:0:0:0:
358,279,8255,2,4,L|274:288,1,85,4|2,0:3|0:3,0:0:0:0:
361,67,8724,2,0,L|370:151,1,85,4|2,0:3|0:3,0:0:0:0:
154,290,9192,2,4,L|145:206,1,85,4|2,0:3|0:3,0:0:0:0:
256,192,9662,12,8,11068,0:0:0:0:
331,116,11537,6,0,P|340:179|305:239,1,136,4|0,0:0|0:0,0:0:0:0:
231,304,12240,1,0,0:0:0:0:
314,340,12474,2,0,P|350:346|384:344,1,68,0|0,0:0|0:0,0:0:0:0:
459,265,12943,2,0,P|425:259|391:260,1,68,0|0,0:0|0:0,0:0:0:0:
326,128,13412,6,0,L|332:195,1,68,2|0,0:0|0:0,0:0:0:0:
200,144,13880,2,0,L|206:76,1,68,0|0,0:0|0:0,0:0:0:0:
263,224,14349,2,0,L|128:236,1,136
63,181,15052,1,0,0:0:0:0:
158,64,15287,6,0,P|148:102|128:131,1,68,2|0,0:0|0:0,0:0:0:0:
63,181,15755,1,0,0:0:0:0:
127,249,15990,2,0,P|138:301|96:373,1,136,0|0,0:0|0:0,0:0:0:0:
40,293,16693,1,0,0:0:0:0:
127,249,16927,1,0,0:0:0:0:
250,317,17162,6,0,B|289:322|318:304|318:304|346:316|388:307,1,136,2|0,0:0|0:0,0:0:0:0:
434,234,17865,1,0,0:0:0:0:
270,98,18099,2,0,P|290:160|344:203,1,136,2|0,0:0|0:0,0:0:0:0:
159,32,19037,6,0,L|167:180,1,136,2|0,0:0|0:0,0:0:0:0:
74,184,19740,1,0,0:0:0:0:
134,251,19974,2,0,B|198:273|196:228|266:257,1,136,0|0,0:0|0:0,0:0:0:0:
345,301,20677,1,0,0:0:0:0:
273,351,20912,6,0,B|205:319|205:367|140:344,1,136,2|0,0:0|0:0,0:0:0:0:
40,227,21615,1,0,0:0:0:0:
111,136,21849,2,0,B|119:155|119:155|106:188|106:188|123:229|106:266,1,136,2|0,0:0|0:0,0:0:0:0:
40,227,22552,1,0,0:0:0:0:
201,173,22787,6,0,P|267:157|332:173,1,136,2|0,0:0|0:0,0:0:0:0:
416,205,23490,2,0,L|435:119,1,68
349,250,23958,2,0,L|363:316,1,68
300,370,24427,1,0,0:0:0:0:
225,224,24662,5,2,0:0:0:0:
256,192,24779,12,8,26068,0:0:0:0:
360,309,26537,6,0,P|369:262|360:222,1,85,2|2,0:0|0:3,0:0:0:0:
156,62,27005,2,0,P|147:109|156:149,1,85,4|2,0:3|0:3,0:0:0:0:
404,114,27474,2,0,P|357:105|317:114,1,85,4|2,0:3|0:3,0:0:0:0:
126,276,27943,2,0,P|173:285|213:276,1,85,4|2,0:3|0:3,0:0:0:0:
381,209,28412,5,2,0:0:0:0:
404,114,28646,1,2,0:3:0:0:
292,102,28880,2,0,P|225:121|156:112,1,127.5,4|0,0:3|0:0,0:0:0:0:
112,54,29349,2,0,P|146:79|168:116,1,85,4|2,0:3|0:3,0:0:0:0:
18,178,29818,1,4,0:3:0:0:
14,81,30052,1,2,0:3:0:0:
118,178,30287,6,0,P|159:197|201:193,1,85,2|2,0:0|0:3,0:0:0:0:
292,102,30755,1,4,0:3:0:0:
400,198,30990,1,2,0:3:0:0:
286,323,31224,2,0,L|294:223,1,85,4|2,0:3|0:3,0:0:0:0:
407,87,31693,1,4,0:3:0:0:
400,198,31927,1,2,0:3:0:0:
292,102,32162,6,0,P|243:88|195:91,1,85,2|2,0:0|0:3,0:0:0:0:
140,203,32630,1,4,0:3:0:0:
143,33,32865,1,2,0:3:0:0:
55,171,33099,2,0,P|44:216|48:262,1,85,2|2,0:0|0:3,0:0:0:0:
222,271,33568,2,0,P|226:224|215:179,1,85,4|2,0:3|0:3,0:0:0:0:
131,339,34037,6,0,L|302:356,1,170,2|4,0:0|0:3,0:0:0:0:
405,291,34740,1,2,0:3:0:0:
225,208,34974,2,0,P|267:206|308:220,1,85,4|2,0:3|0:3,0:0:0:0:
136,247,35443,2,0,P|131:204|138:162,1,85,4|2,0:3|0:3,0:0:0:0:
75,68,35912,6,0,P|143:115|226:104,1,170,2|4,0:0|0:3,0:0:0:0:
322,31,36615,1,2,0:3:0:0:
388,214,36849,2,0,P|408:177|411:135,1,85,2|2,0:0|0:3,0:0:0:0:
275,186,37318,2,0,P|272:228|290:267,1,85,4|2,0:3|0:3,0:0:0:0:
238,342,37787,6,0,L|138:329,1,85,4|0,0:3|0:0,0:0:0:0:
84,271,38255,1,2,0:0:0:0:
231,111,38724,2,0,P|270:102|316:112,1,85,0|8,0:0|0:0,0:0:0:0:
412,180,39193,2,0,L|405:232,2,42.5,8|8|2,0:0|0:0|0:0,0:0:0:0:
460,360,39662,6,0,P|413:323|341:318,1,127.5,4|2,0:0|0:0,0:0:0:0:
257,361,40130,1,8,0:0:0:0:
257,361,40365,2,0,L|245:232,1,127.5,2|0,0:0|0:0,0:0:0:0:
189,161,40833,1,2,0:0:0:0:
48,224,41068,2,0,L|145:228,1,85,8|0,0:0|0:0,0:0:0:0:
371,98,41537,6,0,L|238:92,1,127.5,2|2,0:0|0:0,0:0:0:0:
189,161,42005,1,8,0:0:0:0:
431,158,42240,2,0,P|453:109|433:41,1,127.5,2|0,0:0|0:0,0:0:0:0:
432,40,42708,1,2,0:0:0:0:
322,179,42943,2,0,P|341:225|372:252,1,85,8|0,0:0|0:0,0:0:0:0:
226,294,43412,6,0,B|196:284|196:284|156:291|156:291|132:278|94:282,1,127.5,2|2,0:0|0:0,0:0:0:0:
28,288,43880,1,8,0:0:0:0:
36,156,44115,2,0,B|75:131|75:131|112:140|158:123,1,127.5,2|0,0:0|0:0,0:0:0:0:
154,124,44583,1,2,0:0:0:0:
275,234,44818,2,0,P|266:193|241:160,1,85,8|0,0:0|0:0,0:0:0:0:
333,33,45287,6,0,B|350:67|342:105|342:105|355:132|355:132|354:162,1,127.5,2|2,0:0|0:0,0:0:0:0:
354,155,45755,1,8,0:0:0:0:
477,156,45990,2,0,L|468:241,1,85,2|0,0:0|0:0,0:0:0:0:
468,240,46341,1,0,0:0:0:0:
468,240,46458,1,2,0:0:0:0:
367,263,46693,2,0,L|386:354,1,85,8|4,0:0|0:3,0:0:0:0:
263,278,47162,6,0,P|205:253|142:253,1,127.5,4|2,0:0|0:0,0:0:0:0:
95,321,47630,2,0,P|126:292|141:253,1,85,8|2,0:0|0:0,0:0:0:0:
37,58,48099,6,0,L|45:185,1,127.5,2|0,0:0|0:0,0:0:0:0:
45,185,48568,2,0,P|82:162|129:159,1,85,8|4,0:0|0:3,0:0:0:0:
345,205,49037,6,0,P|274:236|217:215,1,127.5,4|2,0:0|0:0,0:0:0:0:
228,223,49505,2,0,L|239:309,1,85,8|2,0:0|0:0,0:0:0:0:
345,205,49974,2,0,L|355:120,1,85,2|0,0:0|0:0,0:0:0:0:
479,179,50443,1,8,0:0:0:0:
248,95,50677,1,8,0:3:0:0:
276,318,50912,5,4,0:0:0:0:
232,201,51146,1,8,0:0:0:0:
379,290,51380,1,8,0:0:0:0:
174,353,51615,1,4,0:3:0:0:
174,353,51732,1,4,0:3:0:0:
174,353,51849,1,4,0:0:0:0:
117,234,52083,5,4,0:3:0:0:
117,234,52201,1,4,0:3:0:0:
117,234,52318,1,4,0:3:0:0:
334,167,52552,1,4,0:3:0:0:
220,64,52787,5,2,0:0:0:0:
178,54,52904,1,0,0:0:0:0:
136,57,53021,1,2,0:0:0:0:
96,71,53138,1,0,0:0:0:0:
63,97,53255,1,2,0:0:0:0:
38,132,53372,1,0,0:0:0:0:
25,172,53490,1,2,0:0:0:0:
166,306,53724,6,2,L|169:213,1,85,2|2,0:0|0:3,0:0:0:0:
314,99,54193,2,2,L|311:183,1,85,6|2,0:0|0:0,0:0:0:0:
310,183,54662,5,4,0:0:0:0:
167,306,54896,1,2,0:3:0:0:
167,306,55013,1,0,0:0:0:0:
167,306,55130,1,8,0:0:0:0:
354,332,55365,1,2,0:3:0:0:
221,204,55599,2,0,P|208:152|221:101,1,101.999996887207,4|2,0:3|0:3,0:0:0:0:
265,47,55951,1,0,0:0:0:0:
265,47,56068,2,0,L|140:60,1,101.999996887207,8|2,0:0|0:0,0:0:0:0:
38,192,56537,6,0,L|162:178,1,101.999996887207,4|2,0:3|0:3,0:0:0:0:
221,204,56888,1,0,0:0:0:0:
221,204,57005,1,8,0:0:0:0:
56,71,57240,1,2,0:3:0:0:
125,255,57474,1,4,0:3:0:0:
186,58,57708,1,2,0:3:0:0:
248,161,57943,2,0,P|300:172|351:155,1,101.999996887207,8|2,0:0|0:0,0:0:0:0:
455,61,58412,5,4,0:3:0:0:
438,252,58646,1,2,0:3:0:0:
438,252,58763,1,0,0:0:0:0:
438,252,58880,2,0,L|336:262,1,101.999996887207,8|2,0:0|0:3,0:0:0:0:
275,343,59349,2,0,L|173:335,1,101.999996887207,4|2,0:3|0:3,0:0:0:0:
100,328,59701,1,0,0:0:0:0:
100,328,59818,1,8,0:0:0:0:
224,169,60052,1,2,0:0:0:0:
32,198,60287,5,4,0:3:0:0:
230,265,60521,1,2,0:3:0:0:
230,265,60638,1,0,0:0:0:0:
230,265,60755,1,8,0:0:0:0:
104,125,60990,1,2,0:3:0:0:
306,91,61224,1,4,0:3:0:0:
137,224,61458,1,2,0:3:0:0:
220,67,61693,2,0,L|224:169,1,101.999996887207,8|2,0:0|0:3,0:0:0:0:
314,351,62162,6,0,B|301:314|301:314|311:277|311:277|288:236|298:195,1,152.999995330811,4|0,0:3|0:0,0:0:0:0:
296,204,62630,2,0,P|355:217|401:204,1,101.999996887207,8|2,0:0|0:0,0:0:0:0:
361,32,63099,2,0,B|338:77|338:77|342:129,1,101.999996887207,4|2,0:3|0:3,0:0:0:0:
394,207,63451,1,0,0:0:0:0:
394,207,63568,1,8,0:0:0:0:
220,67,63802,1,2,0:3:0:0:
438,127,64037,6,0,B|474:171|474:171|480:272,1,152.999995330811,4|0,0:3|0:0,0:0:0:0:
415,331,64505,2,0,P|365:344|314:342,1,101.999996887207,8|2,0:0|0:0,0:0:0:0:
89,238,64974,2,0,P|139:225|190:227,1,101.999996887207,4|2,0:3|0:3,0:0:0:0:
276,251,65326,1,0,0:0:0:0:
276,251,65443,1,8,0:0:0:0:
112,121,65677,1,2,0:0:0:0:
258,22,65912,6,0,L|269:180,1,152.999995330811,4|0,0:0|0:0,0:0:0:0:
268,174,66380,1,8,0:0:0:0:
471,92,66615,1,4,0:3:0:0:
471,92,67083,5,4,0:3:0:0:
334,42,67317,1,8,0:0:0:0:
354,283,67552,1,2,0:0:0:0:
354,283,68021,5,4,0:3:0:0:
354,283,68138,1,4,0:3:0:0:
354,283,68255,1,4,0:3:0:0:
254,226,68490,2,0,P|205:220|156:237,1,101.999996887207,4|4,0:3|0:3,0:0:0:0:
52,203,68958,1,8,0:0:0:0:
52,203,69076,1,0,0:0:0:0:
52,203,69193,2,0,L|46:101,1,101.999996887207,2|2,0:0|0:0,0:0:0:0:
156,236,69662,5,4,0:0:0:0:
34,347,69896,2,0,L|145:327,1,101.999996887207,2|8,0:3|0:0,0:0:0:0:
336,196,70365,2,0,P|289:180|233:194,2,101.999996887207,2|4|2,0:3|0:3|0:3,0:0:0:0:
283,297,71068,1,8,0:0:0:0:
301,90,71302,1,2,0:0:0:0:
336,196,71537,5,4,0:3:0:0:
202,104,71771,1,2,0:3:0:0:
406,64,72005,1,8,0:0:0:0:
221,195,72240,2,0,P|160:187|117:147,1,101.999996887207,2|4,0:3|0:3,0:0:0:0:
107,42,72708,1,2,0:3:0:0:
27,190,72943,2,0,L|39:291,1,101.999996887207,8|2,0:0|0:0,0:0:0:0:
293,261,73412,6,0,P|313:214|309:164,1,101.999996887207,4|2,0:3|0:3,0:0:0:0:
270,102,73762,1,0,0:0:0:0:
270,102,73880,2,0,L|379:113,1,101.999996887207,8|2,0:0|0:3,0:0:0:0:
480,283,74349,2,0,L|378:272,1,101.999996887207,4|2,0:3|0:3,0:0:0:0:
293,261,74701,1,0,0:0:0:0:
293,261,74818,1,8,0:0:0:0:
480,283,75052,5,2,0:0:0:0:
380,350,75287,1,4,0:3:0:0:
188,212,75521,5,2,0:3:0:0:
293,261,75755,1,8,0:0:0:0:
175,355,75990,5,2,0:0:0:0:
52,332,76224,1,4,0:3:0:0:
45,144,76458,5,2,0:3:0:0:
45,144,76576,1,0,0:0:0:0:
45,144,76693,2,0,L|52:249,1,101.999996887207,8|2,0:0|0:3,0:0:0:0:
191,131,77162,6,0,P|252:98|339:99,1,152.999995330811,4|0,0:3|0:0,0:0:0:0:
352,191,77630,2,0,P|328:147|334:97,1,101.999996887207,8|2,0:0|0:0,0:0:0:0:
459,22,78099,1,4,0:3:0:0:
443,133,78333,1,2,0:3:0:0:
443,133,78451,1,0,0:0:0:0:
443,133,78568,1,8,0:0:0:0:
301,41,78802,1,2,0:3:0:0:
195,104,79037,6,0,P|173:177|199:246,1,152.999995330811,4|0,0:3|0:0,0:0:0:0:
287,286,79505,2,0,P|248:254|198:246,1,101.999996887207,8|2,0:0|0:3,0:0:0:0:
210,343,79975,1,4,0:3:0:0:
300,188,80208,1,2,0:3:0:0:
449,218,80443,1,8,0:0:0:0:
449,218,80912,6,0,L|417:332,1,101.999996887207,4|2,0:0|0:3,0:0:0:0:
310,351,81380,2,0,P|260:341|210:356,1,101.999996887207,8|4,0:0|0:3,0:0:0:0:
92,323,81849,1,2,0:3:0:0:
92,323,82083,6,0,P|98:266|74:212,1,101.999996887207,4|8,0:3|0:0,0:0:0:0:
64,105,82552,1,2,0:0:0:0:
64,105,82787,2,0,P|112:117|162:100,1,101.999996887207,2|4,0:3|0:3,0:0:0:0:
186,63,83138,5,4,0:3:0:0:
220,41,83255,1,4,0:3:0:0:
260,38,83372,1,0,0:0:0:0:
292,63,83490,2,0,L|296:171,1,101.999996887207,4|4,0:3|0:3,0:0:0:0:
434,282,83958,1,8,0:0:0:0:
434,282,84076,1,0,0:0:0:0:
434,282,84193,2,0,L|430:180,1,101.999996887207,2|2,0:0|0:0,0:0:0:0:
258,269,84662,6,0,P|296:288|338:286,1,85,4|2,0:0|0:3,0:0:0:0:
229,187,85130,2,0,L|145:199,1,85,8|2,0:0|0:3,0:0:0:0:
39,138,85599,1,4,0:3:0:0:
144,199,85833,1,2,0:3:0:0:
51,356,86068,1,8,0:0:0:0:
14,253,86302,1,2,0:3:0:0:
142,313,86537,6,0,P|223:328|303:287,1,170,4|8,0:3|0:0,0:0:0:0:
442,307,87240,1,2,0:3:0:0:
442,307,87357,1,0,0:0:0:0:
442,307,87474,1,4,0:3:0:0:
302,222,87708,1,2,0:3:0:0:
438,190,87942,1,8,0:0:0:0:
364,338,88177,1,2,0:3:0:0:
340,119,88412,6,0,L|250:104,1,85,2|2,0:0|0:3,0:0:0:0:
139,128,88880,2,0,B|157:142|165:189|165:189|122:231|139:283,2,170,8|4|8,0:0|0:3|0:0,0:0:0:0:
58,192,90052,1,2,0:3:0:0:
232,267,90287,6,0,L|329:261,1,85,4|2,0:3|0:3,0:0:0:0:
457,135,90755,2,0,L|372:140,1,85,8|2,0:0|0:3,0:0:0:0:
309,188,91107,1,2,0:3:0:0:
309,188,91224,1,4,0:3:0:0:
406,59,91458,1,2,0:3:0:0:
394,236,91693,1,8,0:0:0:0:
291,94,91927,1,2,0:3:0:0:
141,146,92162,6,0,L|55:159,1,85,4|2,0:0|0:3,0:0:0:0:
21,260,92630,2,0,B|124:245|124:245|192:277,2,170,8|4|8,0:0|0:3|0:0,0:0:0:0:
132,349,93802,1,2,0:3:0:0:
259,336,94037,6,0,P|303:332|337:308,1,85,4|2,0:3|0:3,0:0:0:0:
324,132,94505,2,0,P|309:174|317:215,1,85,8|2,0:0|0:3,0:0:0:0:
474,316,94974,2,0,P|446:281|407:266,1,85,4|2,0:3|0:3,0:0:0:0:
239,280,95443,1,8,0:0:0:0:
332,355,95677,1,2,0:3:0:0:
324,132,95912,5,4,0:0:0:0:
306,119,96380,2,0,B|196:137|196:137|141:119,2,170,8|4|8,0:0|0:3|0:0,0:0:0:0:
211,41,97552,1,2,0:3:0:0:
141,119,97787,6,0,P|135:162|145:202,1,85,2|2,0:0|0:3,0:0:0:0:
129,325,98255,2,0,P|170:315|215:325,1,85,8|2,0:0|0:3,0:0:0:0:
284,355,98607,1,0,0:0:0:0:
284,355,98724,1,2,0:0:0:0:
418,134,98958,1,2,0:3:0:0:
401,237,99193,1,6,0:0:0:0:
388,340,99427,1,6,0:0:0:0:
275,139,100130,5,4,0:0:0:0:
256,192,100247,12,0,105286,0:0:0:0:
