osu file format v14

[General]
AudioFilename: Yunchi - Wonderful Wonder World.mp3
AudioLeadIn: 2000
PreviewTime: 54662
Countdown: 0
SampleSet: Soft
StackLeniency: 0.7
Mode: 0
LetterboxInBreaks: 0
WidescreenStoryboard: 0

[Editor]
DistanceSpacing: 1
BeatDivisor: 2
GridSize: 4
TimelineZoom: 1

[Metadata]
Title:Wonderful Wonder World*
TitleUnicode:Wonderful Wonder World*
Artist:Yun*chi
ArtistUnicode:Yun*chi
Creator:Meyrink
Version:Easy
Source:ログ・ホライズン
Tags:Log Horizon 2 Second Season CRCP-10328 TV Size Ending kakifly P_A_N PAN IamKwaN
BeatmapID:648006
BeatmapSetID:286851

[Difficulty]
HPDrainRate:2
CircleSize:3
OverallDifficulty:2
ApproachRate:3
SliderMultiplier:0.899999999999999
SliderTickRate:1

[Events]
//Background and Video events
0,0,"smeuth.jpg",0,0
Video,2000,"log.avi"
//Break Periods
//Storyboard Layer 0 (Background)
//Storyboard Layer 1 (Fail)
//Storyboard Layer 2 (Pass)
//Storyboard Layer 3 (Foreground)
//Storyboard Sound Samples

[TimingPoints]
287,468.75,4,2,1,30,1,0
4037,-100,4,2,1,50,0,0
11537,-100,4,2,1,40,0,0
26537,-100,4,2,1,40,0,0
39662,-100,4,2,1,60,0,0
54662,-100,4,2,1,70,0,1
69193,-100,4,2,1,70,0,0
69662,-100,4,2,1,70,0,1
84662,-100,4,2,1,65,0,0
100599,-100,4,2,1,50,0,0
101537,-100,4,2,1,40,0,0
102474,-100,4,2,1,30,0,0
103412,-100,4,2,1,15,0,0
104349,-100,4,2,1,10,0,0
105287,-100,4,2,1,5,0,0

[Colours]
Combo1 : 255,143,32
Combo2 : 255,166,255
Combo3 : 111,255,111
Combo4 : 108,255,255

[HitObjects]
65,206,287,6,0,L|154:198,1,89.9999999999999,2|2,0:0|0:0,0:0:0:0:
229,249,1224,2,0,P|224:302|242:339,1,89.9999999999999,2|2,0:0|0:0,0:0:0:0:
327,352,2162,2,0,L|389:334,1,45,2|2,0:0|0:0,0:0:0:0:
415,261,2865,2,0,L|426:124,1,135,2|2,0:0|0:0,0:0:0:0:
349,79,4037,6,0,P|304:112|174:112,1,180,4|2,0:0|0:0,0:0:0:0:
118,54,5443,1,0,0:0:0:0:
55,118,5912,2,0,B|69:215|69:215|43:264,2,135,2|0|2,0:0|0:0|0:0,0:0:0:0:
118,54,7787,6,0,L|220:42,1,89.9999999999999,4|0,0:3|0:0,0:0:0:0:
287,85,8724,2,0,L|394:99,1,89.9999999999999,4|0,0:3|0:0,0:0:0:0:
256,192,9662,12,4,11537,0:0:0:0:
423,181,13412,6,0,L|412:277,2,89.9999999999999,2|0|0,0:0|0:0|0:0,0:0:0:0:
255,246,15287,6,0,P|198:264|117:247,2,135,2|0|0,0:0|0:0|0:0,0:0:0:0:
319,183,17162,2,0,P|332:126|324:91,1,89.9999999999999,2|0,0:0|0:0,0:0:0:0:
258,37,18099,2,0,P|208:29|159:41,1,89.9999999999999,2|0,0:0|0:0,0:0:0:0:
96,89,19037,5,2,0:0:0:0:
43,261,19974,1,0,0:0:0:0:
203,343,20912,2,0,L|392:326,1,180,2|2,0:0|0:0,0:0:0:0:
432,153,22787,6,0,B|480:170|480:170|471:217|492:262,2,135,2|0|0,0:0|0:0|0:0,0:0:0:0:
352,194,24662,2,0,B|350:233|315:257|315:257|270:224|216:234,1,180,2|2,0:0|0:0,0:0:0:0:
98,98,26537,6,0,L|76:185,1,89.9999999999999,4|4,0:3|0:3,0:0:0:0:
143,245,27474,2,0,P|190:247|237:228,1,89.9999999999999,4|4,0:3|0:3,0:0:0:0:
293,168,28412,6,0,L|283:78,2,89.9999999999999,2|4|4,0:0|0:3|0:3,0:0:0:0:
266,254,29818,1,4,0:3:0:0:
337,309,30287,2,0,P|400:332|466:307,2,135,2|2|4,0:0|0:3|0:3,0:0:0:0:
250,332,32162,6,0,L|152:347,1,89.9999999999999,2|4,0:0|0:3,0:0:0:0:
71,338,33099,2,0,P|54:288|64:250,1,89.9999999999999,2|4,0:0|0:3,0:0:0:0:
96,169,34037,2,0,P|179:165|219:78,1,180,2|4,0:0|0:3,0:0:0:0:
294,35,35443,1,4,0:3:0:0:
306,124,35912,6,0,B|377:111|377:111|418:152|484:141,1,180,2|2,0:0|0:0,0:0:0:0:
477,323,37787,2,0,B|419:311|377:352|377:352|306:339,1,180,4|2,0:3|0:0,0:0:0:0:
218,182,39662,6,0,L|209:38,2,135,6|2|8,0:0|0:0|0:0,0:0:0:0:
178,263,41537,2,0,P|111:240|44:245,2,135,2|2|8,0:0|0:0|0:0,0:0:0:0:
268,258,43412,6,0,P|335:235|402:240,2,135,2|2|8,0:0|0:0|0:0,0:0:0:0:
285,346,45287,2,0,P|351:349|415:326,1,135,2|2,0:0|0:0,0:0:0:0:
455,245,46458,2,0,L|461:195,1,45,2|8,0:0|0:0,0:0:0:0:
391,142,47162,6,0,P|340:124|303:124,1,89.9999999999999,4|8,0:0|0:0,0:0:0:0:
225,166,48099,2,0,P|183:182|138:184,1,89.9999999999999,2|8,0:0|0:0,0:0:0:0:
55,149,49037,2,0,L|37:49,2,89.9999999999999,4|8|2,0:0|0:0|0:0,0:0:0:0:
44,238,50443,1,8,0:0:0:0:
105,304,50912,6,0,P|191:324|277:288,1,180,4|4,0:0|0:0,0:0:0:0:
338,228,52318,1,4,0:3:0:0:
276,163,52787,2,0,B|226:165|226:165|193:153|193:153|132:157,2,135,2|2|6,0:0|0:0|0:0,0:0:0:0:
359,129,54662,6,0,L|372:34,2,89.9999999999999,4|8|4,0:0|0:0|0:3,0:0:0:0:
416,199,56068,1,8,0:0:0:0:
474,268,56537,2,0,L|486:357,2,89.9999999999999,4|8|4,0:3|0:0|0:3,0:0:0:0:
391,304,57943,1,8,0:0:0:0:
301,305,58412,6,0,P|212:301|134:349,1,180,4|4,0:3|0:3,0:0:0:0:
66,290,59818,1,8,0:0:0:0:
54,201,60287,2,0,L|44:100,2,89.9999999999999,4|8|4,0:3|0:0|0:3,0:0:0:0:
144,195,61693,1,8,0:0:0:0:
225,155,62162,6,0,P|305:121|400:134,1,180,4|4,0:3|0:3,0:0:0:0:
480,163,63568,1,8,0:0:0:0:
416,226,64037,2,0,P|401:273|409:317,1,89.9999999999999,4|8,0:3|0:0,0:0:0:0:
321,339,64974,2,0,L|215:347,1,89.9999999999999,4|8,0:3|0:0,0:0:0:0:
155,297,65912,6,0,B|117:262|117:262|80:289|39:275,1,135,4|4,0:0|0:3,0:0:0:0:
60,188,67083,2,0,P|48:138|59:103,1,89.9999999999999,4|4,0:3|0:3,0:0:0:0:
125,41,68021,1,4,0:3:0:0:
188,105,68490,2,0,L|332:94,1,135,4|2,0:3|0:0,0:0:0:0:
391,153,69662,6,0,P|396:197|384:240,1,89.9999999999999,4|8,0:0|0:0,0:0:0:0:
355,326,70599,2,0,L|448:334,2,89.9999999999999,4|8|4,0:3|0:0|0:3,0:0:0:0:
291,263,72005,1,8,0:0:0:0:
214,310,72474,1,4,0:3:0:0:
129,340,72943,2,0,P|83:343|43:320,1,89.9999999999999,8|4,0:0|0:3,0:0:0:0:
27,234,73880,5,8,0:0:0:0:
110,198,74349,2,0,P|149:185|198:189,1,89.9999999999999,4|8,0:3|0:0,0:0:0:0:
286,203,75287,2,0,P|280:157|302:109,2,89.9999999999999,4|8|4,0:3|0:0|0:3,0:0:0:0:
372,176,76693,1,8,0:0:0:0:
453,137,77162,6,0,P|460:180|444:228,2,89.9999999999999,4|8|4,0:3|0:0|0:3,0:0:0:0:
408,59,78568,1,8,0:0:0:0:
323,90,79037,2,0,P|234:105|144:85,1,180,4|4,0:3|0:3,0:0:0:0:
79,145,80443,1,8,0:0:0:0:
48,230,80912,6,0,L|140:221,1,89.9999999999999,4|8,0:0|0:0,0:0:0:0:
198,288,81849,2,0,P|242:296|286:288,1,89.9999999999999,2|8,0:3|0:0,0:0:0:0:
356,231,82787,1,2,0:3:0:0:
442,258,83255,2,0,L|455:356,2,89.9999999999999,4|4|4,0:3|0:3|0:0,0:0:0:0:
422,170,84662,5,4,0:0:0:0:
354,111,85130,1,8,0:0:0:0:
272,74,85599,2,0,L|175:87,1,89.9999999999999,4|8,0:3|0:0,0:0:0:0:
98,117,86537,2,0,P|77:209|98:291,1,180,4|4,0:3|0:3,0:0:0:0:
176,334,87943,1,8,0:0:0:0:
238,269,88412,5,4,0:3:0:0:
317,312,88880,2,0,P|365:321|412:318,2,89.9999999999999,8|4|8,0:0|0:3|0:0,0:0:0:0:
238,269,90287,2,0,L|248:90,1,180,4|4,0:3|0:3,0:0:0:0:
331,55,91693,1,8,0:0:0:0:
421,46,92162,5,4,0:0:0:0:
484,110,92630,2,0,P|494:154|488:203,1,89.9999999999999,8|4,0:0|0:3,0:0:0:0:
433,269,93568,2,0,P|388:277|344:269,1,89.9999999999999,8|4,0:0|0:3,0:0:0:0:
256,253,94505,2,0,L|266:353,2,89.9999999999999,8|4|8,0:0|0:3|0:0,0:0:0:0:
168,234,95912,6,0,L|72:222,1,89.9999999999999,4|8,0:0|0:0,0:0:0:0:
63,134,96849,2,0,L|152:145,1,89.9999999999999,4|8,0:3|0:0,0:0:0:0:
233,105,97787,2,0,P|278:82|317:82,1,89.9999999999999,4|8,0:3|0:0,0:0:0:0:
397,123,98724,2,0,L|386:266,1,135,2|6,0:0|0:0,0:0:0:0:
256,192,100130,12,0,105287,0:0:0:0:
