osu file format v14

[General]
AudioFilename: Wonderful Wonder World.mp3
AudioLeadIn: 1500
PreviewTime: 54960
Countdown: 0
SampleSet: Soft
StackLeniency: 0.7
Mode: 3
LetterboxInBreaks: 0
SpecialStyle: 0
WidescreenStoryboard: 0

[Editor]
DistanceSpacing: 0.8
BeatDivisor: 4
GridSize: 4
TimelineZoom: 1.3

[Metadata]
Title:Wonderful Wonder World*
TitleUnicode:Wonderful Wonder World*
Artist:Yun*chi
ArtistUnicode:Yun*chi
Creator:-LASU-
Version:NM
Source:ログ・ホライズン
Tags:Log Horizon ゆんち ending ALEFY PuttyoU Ichigaki
BeatmapID:517204
BeatmapSetID:221039

[Difficulty]
HPDrainRate:7
CircleSize:7
OverallDifficulty:7
ApproachRate:5
SliderMultiplier:1.67
SliderTickRate:2

[Events]
//Background and Video events
Video,12079,"Wonderful Wonder World.avi"
0,0,"back.jpg",0,0
//Break Periods
//Storyboard Layer 0 (Background)
//Storyboard Layer 1 (Fail)
//Storyboard Layer 2 (Pass)
//Storyboard Layer 3 (Foreground)
//Storyboard Sound Samples

[TimingPoints]
644,468.75,4,2,0,15,1,0
4394,-100,4,2,0,25,0,0
55019,-100,4,2,0,30,0,1
85019,-100,4,2,0,25,0,0

[HitObjects]
109,192,644,5,0,0:0:0:0:
329,192,1112,1,0,0:0:0:0:
256,192,1464,1,0,0:0:0:0:
182,192,1581,1,0,0:0:0:0:
402,192,2050,1,0,0:0:0:0:
109,192,2401,1,0,0:0:0:0:
36,192,2519,1,2,0:0:0:0:
182,192,2753,1,2,0:0:0:0:
256,192,2987,128,0,4394:0:0:0:0:
402,192,3222,1,2,0:0:0:0:
109,192,3925,1,2,0:0:0:0:
402,192,4394,1,0,0:0:0:0:
36,192,4394,1,4,0:0:0:0:
329,192,4862,1,2,0:0:0:0:
182,192,5097,1,0,0:0:0:0:
109,192,5214,1,0,0:0:0:0:
329,192,5331,1,0,0:0:0:0:
256,192,5800,1,2,0:0:0:0:
402,192,6034,1,0,0:0:0:0:
475,192,6151,1,0,0:0:0:0:
182,192,6269,1,2,0:0:0:0:
36,192,6503,1,2,0:0:0:0:
109,192,6737,1,0,0:0:0:0:
256,192,6972,1,2,0:0:0:0:
182,192,7206,1,0,0:0:0:0:
256,192,7440,1,0,0:0:0:0:
329,192,7675,1,0,0:0:0:0:
182,192,7675,128,2,8144:0:0:0:0:
402,192,7909,1,0,0:0:0:0:
36,192,8144,1,4,0:0:0:0:
109,192,8378,1,0,0:0:0:0:
256,192,8612,1,2,0:0:0:0:
402,192,8847,1,0,0:0:0:0:
475,192,9081,1,0,0:0:0:0:
329,192,9315,1,0,0:0:0:0:
402,192,9550,1,2,0:0:0:0:
256,192,9784,1,0,0:0:0:0:
475,192,10019,1,0,0:0:0:0:
329,192,10253,1,0,0:0:0:0:
109,192,10370,1,0,0:0:0:0:
36,192,10487,1,2,0:0:0:0:
402,192,10604,1,0,0:0:0:0:
475,192,10722,1,0,0:0:0:0:
329,192,10956,1,2,0:0:0:0:
475,192,11190,1,0,0:0:0:0:
256,192,11308,1,0,0:0:0:0:
36,192,11425,1,2,0:0:0:0:
402,192,11542,1,0,0:0:0:0:
182,192,11659,1,0,0:0:0:0:
475,192,11894,1,4,0:0:0:0:
329,192,11894,128,2,12362:0:0:0:0:
36,192,12597,1,0,0:0:0:0:
182,192,12831,128,2,13300:0:0:0:0:
256,192,13300,128,2,13769:0:0:0:0:
329,192,13769,128,2,14237:0:0:0:0:
109,192,13769,1,2,0:0:0:0:
475,192,14237,128,2,14706:0:0:0:0:
402,192,14706,128,2,15175:0:0:0:0:
256,192,15409,1,0,0:0:0:0:
109,192,15644,1,0,0:0:0:0:
36,192,15644,128,2,16112:0:0:0:0:
256,192,16112,1,0,0:0:0:0:
402,192,16347,1,2,0:0:0:0:
475,192,16581,1,0,0:0:0:0:
256,192,16815,1,2,0:0:0:0:
182,192,17050,1,0,0:0:0:0:
329,192,17284,1,2,0:0:0:0:
256,192,17519,1,0,0:0:0:0:
109,192,17519,128,2,17987:0:0:0:0:
329,192,17987,128,2,18456:0:0:0:0:
475,192,18456,1,0,0:0:0:0:
182,192,18690,1,0,0:0:0:0:
402,192,18925,128,2,19394:0:0:0:0:
109,192,19394,1,0,0:0:0:0:
256,192,19394,128,2,19862:0:0:0:0:
475,192,19628,1,0,0:0:0:0:
329,192,19862,1,0,0:0:0:0:
182,192,20097,1,0,0:0:0:0:
36,192,20331,128,2,20800:0:0:0:0:
109,192,20800,1,0,0:0:0:0:
329,192,21034,1,0,0:0:0:0:
475,192,21269,128,2,21737:0:0:0:0:
182,192,21269,1,0,0:0:0:0:
256,192,21737,1,0,0:0:0:0:
402,192,21972,1,0,0:0:0:0:
329,192,22206,1,0,0:0:0:0:
109,192,22206,128,2,22675:0:0:0:0:
402,192,22675,1,0,0:0:0:0:
256,192,22909,1,0,0:0:0:0:
36,192,23144,1,0,0:0:0:0:
475,192,23144,128,2,23612:0:0:0:0:
329,192,23612,1,0,0:0:0:0:
109,192,23847,1,2,0:0:0:0:
182,192,24081,1,0,0:0:0:0:
256,192,24315,1,2,0:0:0:0:
475,192,24550,1,0,0:0:0:0:
402,192,24784,1,2,0:0:0:0:
329,192,25019,1,0,0:0:0:0:
36,192,25019,128,2,25487:0:0:0:0:
182,192,25253,128,0,25487:0:0:0:0:
475,192,25487,128,2,26425:0:0:0:0:
329,192,25722,128,0,26425:0:0:0:0:
109,192,25956,1,2,0:0:0:0:
256,192,26425,128,2,26894:0:0:0:0:
402,192,26894,1,4,0:0:0:0:
109,192,27128,1,8,0:0:0:0:
402,192,27362,1,0,0:0:0:0:
256,192,27597,1,8,0:0:0:0:
475,192,27831,1,0,0:0:0:0:
329,192,28065,1,8,0:0:0:0:
256,192,28300,1,0,0:0:0:0:
182,192,28534,1,8,0:0:0:0:
256,192,28769,1,0,0:0:0:0:
475,192,28769,128,2,29237:0:0:0:0:
109,192,29003,1,8,0:0:0:0:
329,192,29237,1,0,0:0:0:0:
182,192,29472,1,8,0:0:0:0:
109,192,29589,1,0,0:0:0:0:
402,192,29706,1,2,0:0:0:0:
36,192,29940,1,8,0:0:0:0:
109,192,30175,1,0,0:0:0:0:
329,192,30409,1,8,0:0:0:0:
256,192,30644,1,0,0:0:0:0:
36,192,30644,128,2,31112:0:0:0:0:
402,192,30878,1,8,0:0:0:0:
182,192,31112,1,0,0:0:0:0:
329,192,31347,1,10,0:0:0:0:
109,192,31581,1,0,0:0:0:0:
182,192,31815,1,10,0:0:0:0:
329,192,32050,1,0,0:0:0:0:
182,192,32284,1,10,0:0:0:0:
256,192,32519,1,0,0:0:0:0:
402,192,32519,128,2,32987:0:0:0:0:
109,192,32753,1,10,0:0:0:0:
36,192,32987,1,0,0:0:0:0:
182,192,33222,1,10,0:0:0:0:
256,192,33456,1,0,0:0:0:0:
109,192,33456,128,2,33925:0:0:0:0:
402,192,33690,1,8,0:0:0:0:
475,192,33925,1,0,0:0:0:0:
182,192,34159,1,8,0:0:0:0:
256,192,34394,1,0,0:0:0:0:
402,192,34394,128,2,34862:0:0:0:0:
182,192,34628,1,8,0:0:0:0:
109,192,34862,1,0,0:0:0:0:
329,192,35097,1,8,0:0:0:0:
182,192,35331,1,2,0:0:0:0:
402,192,35565,1,8,0:0:0:0:
256,192,35800,1,0,0:0:0:0:
182,192,36034,1,8,0:0:0:0:
109,192,36269,1,0,0:0:0:0:
329,192,36269,128,2,36737:0:0:0:0:
475,192,36503,1,8,0:0:0:0:
182,192,36737,1,0,0:0:0:0:
109,192,36972,1,8,0:0:0:0:
256,192,37206,1,0,0:0:0:0:
402,192,37206,128,2,37675:0:0:0:0:
182,192,37440,1,8,0:0:0:0:
36,192,37675,1,0,0:0:0:0:
109,192,37909,1,8,0:0:0:0:
329,192,38144,1,0,0:0:0:0:
475,192,38144,128,2,38612:0:0:0:0:
182,192,38612,1,0,0:0:0:0:
402,192,38612,128,2,39315:0:0:0:0:
36,192,39081,1,0,0:0:0:0:
109,192,39315,1,0,0:0:0:0:
329,192,39433,1,0,0:0:0:0:
182,192,39550,1,8,0:0:0:0:
475,192,39667,1,8,0:0:0:0:
402,192,39784,1,2,0:0:0:0:
182,192,40019,1,4,0:0:0:0:
36,192,40019,1,0,0:0:0:0:
329,192,40253,1,0,0:0:0:0:
402,192,40370,1,0,0:0:0:0:
256,192,40487,1,8,0:0:0:0:
109,192,40722,1,0,0:0:0:0:
329,192,40956,1,0,0:0:0:0:
182,192,41073,1,0,0:0:0:0:
36,192,41190,1,0,0:0:0:0:
402,192,41425,1,8,0:0:0:0:
256,192,41659,1,0,0:0:0:0:
109,192,41894,1,0,0:0:0:0:
36,192,41894,128,2,42362:0:0:0:0:
402,192,42128,1,0,0:0:0:0:
329,192,42245,1,0,0:0:0:0:
109,192,42362,1,8,0:0:0:0:
182,192,42479,1,0,0:0:0:0:
256,192,42597,1,0,0:0:0:0:
402,192,42831,1,0,0:0:0:0:
475,192,42948,1,0,0:0:0:0:
329,192,43065,1,0,0:0:0:0:
256,192,43300,1,8,0:0:0:0:
182,192,43534,1,0,0:0:0:0:
109,192,43651,1,0,0:0:0:0:
256,192,43769,1,0,0:0:0:0:
329,192,44003,1,0,0:0:0:0:
402,192,44120,1,0,0:0:0:0:
475,192,44237,1,8,0:0:0:0:
402,192,44472,1,0,0:0:0:0:
329,192,44706,1,2,0:0:0:0:
402,192,44823,1,0,0:0:0:0:
256,192,44940,1,0,0:0:0:0:
182,192,45175,1,8,0:0:0:0:
256,192,45409,1,0,0:0:0:0:
329,192,45644,1,0,0:0:0:0:
109,192,45644,128,2,46112:0:0:0:0:
256,192,45995,1,2,0:0:0:0:
329,192,46112,1,0,0:0:0:0:
402,192,46347,1,2,0:0:0:0:
109,192,46698,1,0,0:0:0:0:
182,192,46815,1,2,0:0:0:0:
256,192,47050,1,0,0:0:0:0:
182,192,47284,1,0,0:0:0:0:
402,192,47519,1,4,0:0:0:0:
256,192,47519,1,0,0:0:0:0:
329,192,47753,1,0,0:0:0:0:
109,192,47987,1,8,0:0:0:0:
402,192,48222,1,0,0:0:0:0:
182,192,48456,1,0,0:0:0:0:
256,192,48690,1,0,0:0:0:0:
109,192,48925,1,8,0:0:0:0:
329,192,49159,1,0,0:0:0:0:
475,192,49394,1,4,0:0:0:0:
36,192,49394,1,0,0:0:0:0:
256,192,49628,1,0,0:0:0:0:
329,192,49745,1,0,0:0:0:0:
182,192,49862,1,8,0:0:0:0:
109,192,49979,1,0,0:0:0:0:
402,192,50097,1,0,0:0:0:0:
256,192,50331,1,2,0:0:0:0:
182,192,50448,1,0,0:0:0:0:
109,192,50565,1,2,0:0:0:0:
36,192,50800,1,8,0:0:0:0:
256,192,50800,128,0,51269:0:0:0:0:
109,192,51034,1,0,0:0:0:0:
182,192,51269,1,0,0:0:0:0:
329,192,51269,1,4,0:0:0:0:
475,192,51503,1,0,0:0:0:0:
402,192,51737,1,0,0:0:0:0:
256,192,51972,1,0,0:0:0:0:
329,192,52089,1,0,0:0:0:0:
402,192,52206,1,0,0:0:0:0:
109,192,52206,1,0,0:0:0:0:
256,192,52440,1,0,0:0:0:0:
182,192,52558,1,0,0:0:0:0:
109,192,52675,1,0,0:0:0:0:
36,192,52909,1,0,0:0:0:0:
475,192,53144,1,0,0:0:0:0:
402,192,53261,1,0,0:0:0:0:
329,192,53378,1,0,0:0:0:0:
109,192,53495,1,0,0:0:0:0:
182,192,53612,1,0,0:0:0:0:
256,192,53729,1,0,0:0:0:0:
329,192,53847,5,0,0:0:0:0:
256,192,54081,1,0,0:0:0:0:
402,192,54081,128,2,54550:0:0:0:0:
182,192,54315,1,0,0:0:0:0:
109,192,54550,1,0,0:0:0:0:
256,192,54550,128,2,55019:0:0:0:0:
182,192,55019,5,0,0:0:0:0:
329,192,55019,1,4,0:0:0:0:
402,192,55253,1,0,0:0:0:0:
109,192,55487,1,8,0:0:0:0:
256,192,55722,1,0,0:0:0:0:
329,192,55956,1,0,0:0:0:0:
475,192,56190,1,0,0:0:0:0:
182,192,56425,1,8,0:0:0:0:
329,192,56659,1,0,0:0:0:0:
182,192,56894,1,0,0:0:0:0:
109,192,57128,1,0,0:0:0:0:
256,192,57362,1,8,0:0:0:0:
402,192,57597,1,0,0:0:0:0:
109,192,57597,128,2,58065:0:0:0:0:
475,192,57831,1,0,0:0:0:0:
329,192,58065,1,0,0:0:0:0:
182,192,58300,1,8,0:0:0:0:
402,192,58300,128,2,58769:0:0:0:0:
36,192,58534,1,0,0:0:0:0:
256,192,58769,1,0,0:0:0:0:
109,192,59003,1,0,0:0:0:0:
182,192,59237,1,8,0:0:0:0:
329,192,59472,1,0,0:0:0:0:
402,192,59706,1,0,0:0:0:0:
475,192,59940,1,0,0:0:0:0:
256,192,60175,1,8,0:0:0:0:
329,192,60409,128,2,60644:0:0:0:0:
109,192,60409,1,0,0:0:0:0:
36,192,60644,1,0,0:0:0:0:
402,192,60878,128,2,61112:0:0:0:0:
182,192,60878,1,0,0:0:0:0:
329,192,61112,1,8,0:0:0:0:
256,192,61347,128,2,61581:0:0:0:0:
475,192,61347,1,0,0:0:0:0:
402,192,61581,1,0,0:0:0:0:
256,192,61815,1,0,0:0:0:0:
109,192,62050,1,8,0:0:0:0:
182,192,62284,1,2,0:0:0:0:
329,192,62519,1,0,0:0:0:0:
475,192,62753,1,0,0:0:0:0:
402,192,62987,1,8,0:0:0:0:
329,192,62987,128,2,63222:0:0:0:0:
182,192,63222,1,0,0:0:0:0:
256,192,63222,128,2,63456:0:0:0:0:
109,192,63456,1,0,0:0:0:0:
36,192,63690,1,0,0:0:0:0:
256,192,63925,1,8,0:0:0:0:
402,192,64159,1,0,0:0:0:0:
475,192,64394,1,0,0:0:0:0:
329,192,64628,1,0,0:0:0:0:
256,192,64862,1,8,0:0:0:0:
402,192,64862,128,2,65097:0:0:0:0:
182,192,65097,1,0,0:0:0:0:
329,192,65097,128,2,65331:0:0:0:0:
109,192,65331,1,0,0:0:0:0:
36,192,65565,1,0,0:0:0:0:
182,192,65800,1,8,0:0:0:0:
256,192,66034,1,0,0:0:0:0:
329,192,66269,1,4,0:0:0:0:
475,192,66503,1,0,0:0:0:0:
329,192,66737,1,8,0:0:0:0:
182,192,66737,1,0,0:0:0:0:
36,192,66972,1,2,0:0:0:0:
402,192,67206,1,0,0:0:0:0:
256,192,67440,1,0,0:0:0:0:
109,192,67675,1,8,0:0:0:0:
329,192,67675,1,0,0:0:0:0:
182,192,67909,1,2,0:0:0:0:
109,192,68144,1,0,0:0:0:0:
182,192,68378,1,0,0:0:0:0:
256,192,68612,1,0,0:0:0:0:
329,192,68612,128,2,69081:0:0:0:0:
182,192,68847,1,6,0:0:0:0:
402,192,69081,128,2,69550:0:0:0:0:
109,192,69081,1,0,0:0:0:0:
256,192,69315,1,0,0:0:0:0:
182,192,69433,1,0,0:0:0:0:
475,192,69550,128,2,70019:0:0:0:0:
109,192,69550,1,8,0:0:0:0:
182,192,69784,1,0,0:0:0:0:
256,192,70019,1,4,0:0:0:0:
36,192,70019,1,0,0:0:0:0:
109,192,70253,1,0,0:0:0:0:
329,192,70487,1,8,0:0:0:0:
182,192,70722,1,0,0:0:0:0:
402,192,70956,1,0,0:0:0:0:
256,192,71190,1,0,0:0:0:0:
402,192,71425,1,8,0:0:0:0:
329,192,71659,1,0,0:0:0:0:
475,192,71894,1,0,0:0:0:0:
256,192,72128,1,0,0:0:0:0:
402,192,72362,1,8,0:0:0:0:
182,192,72597,128,2,73065:0:0:0:0:
36,192,72597,1,0,0:0:0:0:
329,192,72831,1,0,0:0:0:0:
475,192,73065,1,0,0:0:0:0:
329,192,73300,1,8,0:0:0:0:
109,192,73300,128,2,73769:0:0:0:0:
475,192,73534,1,0,0:0:0:0:
256,192,73769,1,0,0:0:0:0:
329,192,74003,1,0,0:0:0:0:
475,192,74237,1,8,0:0:0:0:
402,192,74472,1,0,0:0:0:0:
36,192,74706,1,0,0:0:0:0:
109,192,74940,1,0,0:0:0:0:
402,192,75175,1,8,0:0:0:0:
475,192,75409,1,0,0:0:0:0:
256,192,75644,1,0,0:0:0:0:
402,192,75878,128,2,76112:0:0:0:0:
182,192,75878,1,0,0:0:0:0:
36,192,76112,1,8,0:0:0:0:
256,192,76347,128,2,76581:0:0:0:0:
109,192,76347,1,2,0:0:0:0:
475,192,76581,1,0,0:0:0:0:
329,192,76815,1,0,0:0:0:0:
182,192,77050,1,8,0:0:0:0:
402,192,77284,1,0,0:0:0:0:
256,192,77519,1,0,0:0:0:0:
329,192,77753,1,0,0:0:0:0:
182,192,77987,1,8,0:0:0:0:
36,192,77987,128,2,78222:0:0:0:0:
109,192,78222,128,2,78690:0:0:0:0:
256,192,78456,1,0,0:0:0:0:
329,192,78925,1,8,0:0:0:0:
402,192,79159,1,0,0:0:0:0:
256,192,79394,1,0,0:0:0:0:
109,192,79628,1,0,0:0:0:0:
402,192,79862,1,8,0:0:0:0:
256,192,79862,128,2,80097:0:0:0:0:
182,192,80097,1,0,0:0:0:0:
329,192,80097,128,2,80565:0:0:0:0:
475,192,80331,1,0,0:0:0:0:
402,192,80565,1,0,0:0:0:0:
109,192,80800,1,8,0:0:0:0:
182,192,81034,1,0,0:0:0:0:
329,192,81269,1,4,0:0:0:0:
475,192,81269,1,0,0:0:0:0:
256,192,81503,1,0,0:0:0:0:
36,192,81737,1,8,0:0:0:0:
475,192,81972,1,2,0:0:0:0:
109,192,82206,1,0,0:0:0:0:
329,192,82440,1,0,0:0:0:0:
182,192,82675,1,8,0:0:0:0:
402,192,82909,1,2,0:0:0:0:
329,192,83144,1,0,0:0:0:0:
182,192,83378,1,0,0:0:0:0:
256,192,83495,1,0,0:0:0:0:
329,192,83612,1,10,0:0:0:0:
475,192,83729,1,0,0:0:0:0:
402,192,83847,1,2,0:0:0:0:
329,192,84081,1,0,0:0:0:0:
256,192,84315,1,0,0:0:0:0:
182,192,84433,1,0,0:0:0:0:
329,192,84550,128,2,85019:0:0:0:0:
109,192,84550,1,8,0:0:0:0:
475,192,84667,1,0,0:0:0:0:
402,192,84784,1,0,0:0:0:0:
256,192,85019,128,4,88065:0:0:0:0:
109,192,85019,1,0,0:0:0:0:
36,192,85253,1,0,0:0:0:0:
402,192,85487,1,8,0:0:0:0:
329,192,85722,1,0,0:0:0:0:
182,192,85956,1,0,0:0:0:0:
109,192,86190,1,0,0:0:0:0:
402,192,86425,1,8,0:0:0:0:
475,192,86659,1,0,0:0:0:0:
329,192,86894,1,0,0:0:0:0:
402,192,87128,1,0,0:0:0:0:
182,192,87362,1,8,0:0:0:0:
109,192,87597,1,0,0:0:0:0:
475,192,87831,1,0,0:0:0:0:
402,192,88065,1,0,0:0:0:0:
182,192,88300,1,8,0:0:0:0:
329,192,88534,1,0,0:0:0:0:
256,192,88769,1,0,0:0:0:0:
402,192,89003,1,0,0:0:0:0:
182,192,89237,1,8,0:0:0:0:
475,192,89472,1,0,0:0:0:0:
329,192,89706,1,0,0:0:0:0:
109,192,89940,1,0,0:0:0:0:
256,192,90175,1,8,0:0:0:0:
402,192,90409,1,0,0:0:0:0:
329,192,90644,1,0,0:0:0:0:
182,192,90878,1,0,0:0:0:0:
256,192,91112,1,8,0:0:0:0:
475,192,91347,1,0,0:0:0:0:
402,192,91581,1,0,0:0:0:0:
182,192,91581,128,2,92050:0:0:0:0:
36,192,91815,1,0,0:0:0:0:
329,192,92050,1,8,0:0:0:0:
109,192,92050,128,2,92519:0:0:0:0:
475,192,92284,1,0,0:0:0:0:
182,192,92519,1,0,0:0:0:0:
402,192,92519,1,4,0:0:0:0:
329,192,92753,1,0,0:0:0:0:
402,192,92987,1,8,0:0:0:0:
256,192,93222,1,0,0:0:0:0:
182,192,93456,1,0,0:0:0:0:
36,192,93690,1,0,0:0:0:0:
475,192,93925,1,8,0:0:0:0:
109,192,94159,1,0,0:0:0:0:
402,192,94394,1,0,0:0:0:0:
256,192,94628,1,0,0:0:0:0:
182,192,94862,1,8,0:0:0:0:
475,192,95097,1,0,0:0:0:0:
109,192,95331,1,0,0:0:0:0:
329,192,95331,128,2,95800:0:0:0:0:
36,192,95565,1,0,0:0:0:0:
182,192,95800,1,8,0:0:0:0:
402,192,95800,128,2,96269:0:0:0:0:
256,192,96034,1,0,0:0:0:0:
109,192,96269,1,4,0:0:0:0:
36,192,96269,1,0,0:0:0:0:
402,192,96503,1,0,0:0:0:0:
256,192,96737,1,8,0:0:0:0:
109,192,96972,1,0,0:0:0:0:
182,192,97206,1,0,0:0:0:0:
329,192,97440,1,0,0:0:0:0:
109,192,97675,1,8,0:0:0:0:
256,192,97909,1,0,0:0:0:0:
402,192,98144,1,0,0:0:0:0:
475,192,98144,128,2,98612:0:0:0:0:
182,192,98378,1,0,0:0:0:0:
329,192,98612,128,2,99081:0:0:0:0:
256,192,98612,1,8,0:0:0:0:
402,192,98847,1,0,0:0:0:0:
36,192,99081,1,0,0:0:0:0:
109,192,99081,128,2,99550:0:0:0:0:
182,192,99315,1,0,0:0:0:0:
256,192,99550,128,2,100019:0:0:0:0:
402,192,99550,1,8,0:0:0:0:
329,192,99784,128,0,100019:0:0:0:0:
475,192,99784,1,0,0:0:0:0:
109,192,100487,128,2,107519:0:0:0:0:
402,192,100487,128,4,107519:0:0:0:0:
