osu file format v14

[General]
AudioFilename: Wonderful Wonder World.mp3
AudioLeadIn: 1500
PreviewTime: 54960
Countdown: 0
SampleSet: Soft
StackLeniency: 0.7
Mode: 3
LetterboxInBreaks: 0
SpecialStyle: 0
WidescreenStoryboard: 0

[Editor]
DistanceSpacing: 0.8
BeatDivisor: 4
GridSize: 4
TimelineZoom: 1.3

[Metadata]
Title:Wonderful Wonder World*
TitleUnicode:Wonderful Wonder World*
Artist:Yun*chi
ArtistUnicode:Yun*chi
Creator:-LASU-
Version:EZ
Source:ログ・ホライズン
Tags:Log Horizon ゆんち ending ALEFY PuttyoU Ichigaki
BeatmapID:517203
BeatmapSetID:221039

[Difficulty]
HPDrainRate:7
CircleSize:7
OverallDifficulty:6.5
ApproachRate:5
SliderMultiplier:1.67
SliderTickRate:2

[Events]
//Background and Video events
Video,12079,"Wonderful Wonder World.avi"
0,0,"back.jpg",0,0
//Break Periods
//Storyboard Layer 0 (Background)
//Storyboard Layer 1 (Fail)
//Storyboard Layer 2 (Pass)
//Storyboard Layer 3 (Foreground)
//Storyboard Sound Samples

[TimingPoints]
644,468.75,4,2,0,15,1,0
4394,-100,4,2,0,25,0,0
55019,-100,4,2,0,30,0,1
85019,-100,4,2,0,25,0,0

[HitObjects]
182,192,644,5,0,0:0:0:0:
329,192,1112,1,0,0:0:0:0:
475,192,1581,1,0,0:0:0:0:
402,192,2050,1,0,0:0:0:0:
256,192,2519,1,2,0:0:0:0:
182,192,2753,1,2,0:0:0:0:
109,192,3222,1,2,0:0:0:0:
329,192,3690,1,0,0:0:0:0:
256,192,3925,1,2,0:0:0:0:
402,192,4394,1,4,0:0:0:0:
109,192,4394,1,0,0:0:0:0:
256,192,4862,1,2,0:0:0:0:
109,192,5331,1,0,0:0:0:0:
329,192,5800,1,2,0:0:0:0:
182,192,6269,1,2,0:0:0:0:
475,192,6503,1,2,0:0:0:0:
36,192,6972,1,2,0:0:0:0:
256,192,7440,1,0,0:0:0:0:
109,192,7675,1,2,0:0:0:0:
182,192,8144,1,0,0:0:0:0:
329,192,8144,1,4,0:0:0:0:
402,192,8612,1,2,0:0:0:0:
329,192,9081,1,0,0:0:0:0:
36,192,9550,1,2,0:0:0:0:
109,192,10019,1,0,0:0:0:0:
182,192,10253,1,0,0:0:0:0:
402,192,10487,1,2,0:0:0:0:
329,192,10722,1,0,0:0:0:0:
36,192,10956,1,2,0:0:0:0:
182,192,11190,1,0,0:0:0:0:
475,192,11425,1,2,0:0:0:0:
329,192,11659,1,0,0:0:0:0:
256,192,11894,128,4,13769:0:0:0:0:
182,192,11894,1,2,0:0:0:0:
329,192,13769,1,2,0:0:0:0:
109,192,14237,1,2,0:0:0:0:
402,192,14706,128,2,15175:0:0:0:0:
256,192,15409,1,0,0:0:0:0:
182,192,15644,1,2,0:0:0:0:
329,192,16112,1,0,0:0:0:0:
256,192,16347,1,2,0:0:0:0:
36,192,16815,1,2,0:0:0:0:
402,192,17284,1,2,0:0:0:0:
109,192,17753,1,2,0:0:0:0:
329,192,18222,1,2,0:0:0:0:
475,192,18690,1,0,0:0:0:0:
256,192,18925,128,2,19394:0:0:0:0:
182,192,19394,1,0,0:0:0:0:
329,192,20097,1,0,0:0:0:0:
475,192,20331,128,2,20800:0:0:0:0:
329,192,21034,1,0,0:0:0:0:
182,192,21269,1,0,0:0:0:0:
329,192,21972,1,0,0:0:0:0:
256,192,22206,128,2,22675:0:0:0:0:
109,192,22909,1,0,0:0:0:0:
256,192,23144,1,2,0:0:0:0:
329,192,23612,1,2,0:0:0:0:
475,192,23847,128,2,24315:0:0:0:0:
36,192,24315,128,2,24784:0:0:0:0:
329,192,24784,128,2,25487:0:0:0:0:
256,192,25487,1,0,0:0:0:0:
109,192,25722,128,2,26425:0:0:0:0:
475,192,26894,1,4,0:0:0:0:
402,192,27597,1,0,0:0:0:0:
256,192,27831,1,0,0:0:0:0:
329,192,28065,1,0,0:0:0:0:
182,192,28300,1,0,0:0:0:0:
109,192,28769,1,2,0:0:0:0:
256,192,29003,1,0,0:0:0:0:
402,192,29237,1,0,0:0:0:0:
182,192,29589,1,0,0:0:0:0:
475,192,29706,128,2,30175:0:0:0:0:
329,192,30409,1,0,0:0:0:0:
109,192,30644,1,2,0:0:0:0:
256,192,30878,1,0,0:0:0:0:
182,192,31112,1,0,0:0:0:0:
402,192,31347,128,2,31815:0:0:0:0:
256,192,31815,1,2,0:0:0:0:
329,192,32050,1,0,0:0:0:0:
475,192,32284,128,2,32753:0:0:0:0:
182,192,32753,1,2,0:0:0:0:
36,192,32987,1,0,0:0:0:0:
109,192,33222,128,2,33690:0:0:0:0:
329,192,33690,1,0,0:0:0:0:
182,192,33925,128,2,34394:0:0:0:0:
256,192,34394,1,2,0:0:0:0:
329,192,35097,1,0,0:0:0:0:
475,192,35331,128,2,35800:0:0:0:0:
329,192,36034,1,0,0:0:0:0:
182,192,36269,128,2,36737:0:0:0:0:
256,192,36972,1,0,0:0:0:0:
402,192,37206,1,0,0:0:0:0:
329,192,37206,128,2,37675:0:0:0:0:
109,192,37909,1,0,0:0:0:0:
36,192,38144,1,0,0:0:0:0:
256,192,38378,1,0,0:0:0:0:
182,192,38612,1,0,0:0:0:0:
475,192,38847,128,2,39550:0:0:0:0:
329,192,38847,1,0,0:0:0:0:
402,192,39550,1,0,0:0:0:0:
256,192,39784,1,0,0:0:0:0:
182,192,40019,1,0,0:0:0:0:
329,192,40019,1,4,0:0:0:0:
109,192,40487,1,8,0:0:0:0:
36,192,40956,1,0,0:0:0:0:
329,192,41425,1,8,0:0:0:0:
402,192,41894,1,2,0:0:0:0:
256,192,42362,1,8,0:0:0:0:
182,192,42714,1,0,0:0:0:0:
475,192,42831,1,0,0:0:0:0:
329,192,43065,1,0,0:0:0:0:
109,192,43300,1,8,0:0:0:0:
256,192,43534,1,0,0:0:0:0:
36,192,44237,1,8,0:0:0:0:
182,192,44706,128,2,45175:0:0:0:0:
329,192,45175,1,8,0:0:0:0:
475,192,45644,1,2,0:0:0:0:
109,192,45995,1,2,0:0:0:0:
256,192,46347,1,2,0:0:0:0:
329,192,46815,128,2,47284:0:0:0:0:
182,192,47519,1,0,0:0:0:0:
402,192,47519,1,4,0:0:0:0:
256,192,47987,1,8,0:0:0:0:
475,192,48456,1,0,0:0:0:0:
402,192,48925,1,8,0:0:0:0:
109,192,49394,1,0,0:0:0:0:
329,192,49862,1,8,0:0:0:0:
36,192,50214,1,0,0:0:0:0:
182,192,50331,1,2,0:0:0:0:
329,192,50565,1,2,0:0:0:0:
475,192,50800,1,8,0:0:0:0:
402,192,51034,1,0,0:0:0:0:
256,192,51269,1,4,0:0:0:0:
109,192,51503,1,0,0:0:0:0:
109,192,51972,1,0,0:0:0:0:
182,192,52440,1,0,0:0:0:0:
329,192,52909,1,0,0:0:0:0:
36,192,53378,128,2,53847:0:0:0:0:
182,192,53847,1,0,0:0:0:0:
475,192,54081,1,0,0:0:0:0:
402,192,54315,1,0,0:0:0:0:
256,192,54550,128,2,55019:0:0:0:0:
329,192,54550,1,0,0:0:0:0:
182,192,55019,1,4,0:0:0:0:
36,192,55019,1,0,0:0:0:0:
329,192,55487,1,8,0:0:0:0:
109,192,55956,1,0,0:0:0:0:
402,192,56425,1,8,0:0:0:0:
182,192,56894,1,0,0:0:0:0:
256,192,57362,1,8,0:0:0:0:
402,192,57597,128,2,58065:0:0:0:0:
256,192,58300,1,8,0:0:0:0:
475,192,58534,1,0,0:0:0:0:
36,192,59003,1,0,0:0:0:0:
182,192,59237,1,8,0:0:0:0:
329,192,59706,1,0,0:0:0:0:
182,192,60175,1,8,0:0:0:0:
475,192,60409,1,0,0:0:0:0:
329,192,60878,1,0,0:0:0:0:
109,192,61112,1,8,0:0:0:0:
182,192,61347,128,2,61815:0:0:0:0:
329,192,62050,1,8,0:0:0:0:
402,192,62284,128,2,62753:0:0:0:0:
182,192,62987,1,8,0:0:0:0:
256,192,63222,1,0,0:0:0:0:
109,192,63222,128,2,63690:0:0:0:0:
182,192,63925,1,8,0:0:0:0:
36,192,64159,128,2,64628:0:0:0:0:
402,192,64862,1,8,0:0:0:0:
256,192,65097,1,0,0:0:0:0:
109,192,65565,1,0,0:0:0:0:
182,192,65800,1,8,0:0:0:0:
329,192,66034,1,0,0:0:0:0:
256,192,66503,1,0,0:0:0:0:
475,192,66737,1,8,0:0:0:0:
109,192,67206,1,0,0:0:0:0:
256,192,67675,1,8,0:0:0:0:
402,192,67909,128,2,68612:0:0:0:0:
329,192,68612,1,8,0:0:0:0:
182,192,68847,128,2,69315:0:0:0:0:
36,192,69550,128,10,70019:0:0:0:0:
256,192,69784,1,0,0:0:0:0:
402,192,70019,1,4,0:0:0:0:
475,192,70019,1,0,0:0:0:0:
182,192,70487,1,8,0:0:0:0:
329,192,70956,1,0,0:0:0:0:
256,192,71190,1,0,0:0:0:0:
109,192,71425,1,8,0:0:0:0:
182,192,71659,1,0,0:0:0:0:
329,192,71894,1,0,0:0:0:0:
182,192,72362,1,8,0:0:0:0:
475,192,72597,128,2,73065:0:0:0:0:
256,192,73300,1,8,0:0:0:0:
36,192,73534,1,0,0:0:0:0:
329,192,74003,1,0,0:0:0:0:
109,192,74237,1,8,0:0:0:0:
256,192,74472,1,0,0:0:0:0:
182,192,74706,1,0,0:0:0:0:
329,192,74940,1,0,0:0:0:0:
475,192,75175,1,8,0:0:0:0:
402,192,75409,1,0,0:0:0:0:
256,192,75878,1,0,0:0:0:0:
109,192,76112,1,8,0:0:0:0:
329,192,76347,128,2,76815:0:0:0:0:
182,192,77050,1,8,0:0:0:0:
256,192,77284,128,2,77753:0:0:0:0:
402,192,77987,1,8,0:0:0:0:
109,192,78222,128,2,78690:0:0:0:0:
475,192,78925,1,8,0:0:0:0:
402,192,79159,128,2,79628:0:0:0:0:
36,192,79862,1,8,0:0:0:0:
109,192,80097,128,2,80565:0:0:0:0:
182,192,80800,1,8,0:0:0:0:
36,192,81269,1,4,0:0:0:0:
256,192,81737,1,8,0:0:0:0:
402,192,82206,1,0,0:0:0:0:
329,192,82675,1,8,0:0:0:0:
182,192,82909,1,0,0:0:0:0:
109,192,83612,1,10,0:0:0:0:
256,192,83847,1,2,0:0:0:0:
329,192,84550,1,8,0:0:0:0:
182,192,85019,128,0,88065:0:0:0:0:
36,192,85019,1,4,0:0:0:0:
475,192,85487,1,8,0:0:0:0:
329,192,85956,1,0,0:0:0:0:
475,192,86425,1,8,0:0:0:0:
329,192,86894,1,0,0:0:0:0:
475,192,87362,1,8,0:0:0:0:
329,192,87831,1,0,0:0:0:0:
475,192,88065,1,0,0:0:0:0:
256,192,88300,1,8,0:0:0:0:
36,192,88534,1,0,0:0:0:0:
402,192,88769,1,0,0:0:0:0:
475,192,89237,1,8,0:0:0:0:
329,192,89706,1,0,0:0:0:0:
109,192,90175,1,8,0:0:0:0:
402,192,90644,1,0,0:0:0:0:
182,192,91112,1,8,0:0:0:0:
329,192,91581,1,0,0:0:0:0:
475,192,91815,1,0,0:0:0:0:
109,192,92050,1,0,0:0:0:0:
256,192,92284,1,0,0:0:0:0:
402,192,92519,1,4,0:0:0:0:
36,192,92519,1,0,0:0:0:0:
182,192,92987,1,8,0:0:0:0:
402,192,93456,1,0,0:0:0:0:
256,192,93925,1,8,0:0:0:0:
475,192,94394,1,0,0:0:0:0:
329,192,94862,1,8,0:0:0:0:
109,192,95331,1,0,0:0:0:0:
256,192,95565,1,0,0:0:0:0:
182,192,95800,128,2,96269:0:0:0:0:
329,192,95800,1,8,0:0:0:0:
402,192,96034,1,0,0:0:0:0:
36,192,96269,1,4,0:0:0:0:
329,192,96737,1,8,0:0:0:0:
475,192,97206,1,0,0:0:0:0:
256,192,97675,1,8,0:0:0:0:
329,192,98144,5,0,0:0:0:0:
402,192,98612,1,8,0:0:0:0:
182,192,99081,1,0,0:0:0:0:
402,192,99315,1,0,0:0:0:0:
256,192,99550,128,2,100019:0:0:0:0:
109,192,99550,1,8,0:0:0:0:
402,192,99784,1,0,0:0:0:0:
182,192,100487,128,2,107519:0:0:0:0:
329,192,100487,128,4,107519:0:0:0:0:
