osu file format v12

[General]
AudioFilename: jinlichao.mp3
AudioLeadIn: 1500
PreviewTime: 67544
Countdown: 0
SampleSet: Soft
StackLeniency: 0.5
Mode: 0
LetterboxInBreaks: 0
WidescreenStoryboard: 0

[Editor]
DistanceSpacing: 1
BeatDivisor: 2
GridSize: 4

[Metadata]
Title:Jin Li Chao
TitleUnicode:锦鲤抄
Artist:Yun Zhi Qi & Yin Lin
ArtistUnicode:云の泣 & 银临
Creator:jonathanlfj
Version:Normal
Source:
Tags:慕清明 mu qing ming 灰原穷 hui yuan qiong 弹棉花的GG tan mian hua de GG sherrie__fay
BeatmapID:299238
BeatmapSetID:115080

[Difficulty]
HPDrainRate:3
CircleSize:3
OverallDifficulty:3
ApproachRate:4
SliderMultiplier:0.8
SliderTickRate:1

[Events]
//Background and Video events
0,0,"BG.jpg",0,0
//Break Periods
2,105801,112509
2,194258,199938
//Storyboard Layer 0 (Background)
//Storyboard Layer 1 (Fail)
//Storyboard Layer 2 (Pass)
//Storyboard Layer 3 (Foreground)
//Storyboard Sound Samples
//Background Colour Transformations
3,100,163,162,255

[TimingPoints]
687,342.857142857143,6,2,1,40,1,0
687,-100,6,2,1,40,0,0
16115,-100,6,2,1,50,0,0
17144,-83.3333333333333,6,1,1,70,0,1
17229,-83.3333333333333,6,1,1,70,0,0
33601,-100,6,2,1,40,0,0
50058,-100,6,2,1,50,0,0
66515,-100,6,2,1,40,0,0
67544,-100,6,2,1,50,0,0
68572,-83.3333333333333,6,1,1,70,0,1
105601,-83.3333333333333,6,1,1,70,0,0
122058,-100,6,2,1,40,0,0
138515,-100,6,2,1,50,0,0
154972,-100,6,2,1,40,0,0
156001,-100,6,2,1,50,0,0
157029,-83.3333333333333,6,1,1,70,0,1
194058,-100,6,1,1,60,0,0
202287,-100,6,1,1,65,0,0
210515,-83.3333333333333,6,1,1,70,0,1
231087,-100,6,2,1,40,0,0
237344,-100,6,2,1,10,0,0
241372,-100,6,2,1,5,0,0

[Colours]
Combo1 : 170,152,254
Combo2 : 254,237,139
Combo3 : 113,176,255
Combo4 : 255,164,253

[HitObjects]
96,248,687,2,0,P|132:288|208:296,2,120,4|2|2,0:0|0:0|0:0,0:0:0:0:
100,160,2058,2,0,L|116:68,1,80,2|0,0:0|0:0,0:0:0:0:
196,48,2744,6,0,P|268:48|312:88,2,120,2|2|2,0:0|0:0|0:0,0:0:0:0:
232,128,4115,1,0,0:0:0:0:
312,164,4458,1,2,0:0:0:0:
384,112,4801,6,0,L|472:12,1,120,2|2,0:0|0:0,0:0:0:0:
500,148,5829,2,0,L|492:240,1,80,2|2,0:0|0:0,0:0:0:0:
454,307,6515,1,0,0:0:0:0:
376,348,6858,6,0,P|300:360|256:344,1,120,2|2,0:0|0:0,0:0:0:0:
140,296,7887,2,0,L|108:212,2,80,2|0|2,0:0|0:0|0:0,0:0:0:0:
224,264,8915,6,0,L|240:104,1,160,4|2,0:0|0:0,0:0:0:0:
316,64,9944,1,2,0:0:0:0:
396,104,10287,2,0,P|408:164|396:200,1,80,2|0,0:0|0:0,0:0:0:0:
320,152,10972,6,0,P|252:188|168:160,1,160,2|2,0:0|0:0,0:0:0:0:
116,104,12001,2,0,L|108:16,2,80,2|2|0,0:0|0:0|0:0,0:0:0:0:
48,160,13029,6,0,P|44:236|88:324,1,160,2|2,0:0|0:0,0:0:0:0:
160,336,14058,1,2,0:0:0:0:
228,280,14401,1,2,0:0:0:0:
308,316,14744,2,0,P|352:320|400:308,1,80,0|4,0:0|0:0,0:0:0:0:
356,52,16115,6,0,L|344:172,1,120,8|8,1:3|1:3,0:0:0:0:
236,264,17144,6,0,P|148:284|76:208,1,191.999994140625,4|2,0:0|0:0,0:0:0:0:
172,192,18172,2,0,P|136:120|196:24,1,191.999994140625,8|2,0:0|0:0,0:0:0:0:
232,116,19201,6,0,P|332:104|396:32,1,191.999994140625,2|2,0:2|0:0,0:0:0:0:
488,36,20229,1,8,0:0:0:0:
480,132,20572,2,0,L|472:232,1,95.9999970703126,2|2,0:2|0:0,0:0:0:0:
408,300,21258,6,0,P|328:268|244:320,1,191.999994140625,2|2,0:2|0:0,0:0:0:0:
184,244,22287,2,0,P|251:190|248:91,1,191.999994140625,8|2,0:0|0:0,0:0:0:0:
164,44,23315,6,0,L|56:52,1,95.9999970703126,2|0,0:2|0:0,0:0:0:0:
20,136,24001,1,0,0:0:0:0:
92,200,24344,2,0,P|96:240|44:336,1,143.999995605469,8|8,0:0|0:3,0:0:0:0:
196,344,25372,6,0,L|400:320,1,191.999994140625,4|2,0:0|0:0,0:0:0:0:
428,236,26401,2,0,L|224:212,1,191.999994140625,8|2,0:0|0:0,0:0:0:0:
168,148,27429,6,0,P|112:148|72:132,2,95.9999970703126,2|0|2,0:2|0:0|0:0,0:0:0:0:
260,116,28458,2,0,P|312:112|352:92,1,95.9999970703126,8|2,0:0|0:2,0:0:0:0:
408,16,29144,1,2,0:0:0:0:
488,68,29487,6,0,P|500:172|456:252,1,191.999994140625,2|2,0:2|0:0,0:0:0:0:
372,280,30515,2,0,L|272:284,1,95.9999970703126,8|0,0:0|0:0,0:0:0:0:
204,220,31201,1,2,0:0:0:0:
108,208,31544,6,0,P|144:144|216:124,2,143.999995605469,2|8|8,0:2|0:3|0:0,0:0:0:0:
144,296,32915,2,0,P|180:312|240:308,1,95.9999970703126,2|2,0:2|0:0,0:0:0:0:
300,252,33601,6,0,L|332:88,1,160,4|0,0:1|0:0,0:0:0:0:
420,92,34629,2,0,L|388:256,1,160,8|0,0:0|0:0,0:0:0:0:
348,328,35658,6,0,P|272:336|212:268,1,160,8|0,0:0|0:0,0:0:0:0:
300,252,36687,1,8,0:0:0:0:
128,292,37372,1,0,0:0:0:0:
72,224,37715,6,0,P|72:136|116:80,1,160,2|0,0:0|0:0,0:0:0:0:
198,54,38744,2,0,L|290:78,2,80,8|0|2,0:0|0:0|0:0,0:0:0:0:
180,140,39772,6,0,B|256:160|256:160|316:228,1,160,2|0,0:0|0:0,0:0:0:0:
260,292,40801,2,0,B|184:272|184:272|124:204,1,160,8|2,0:0|0:0,0:0:0:0:
92,132,41829,6,0,P|128:68|216:60,1,160,4|0,0:0|0:0,0:0:0:0:
292,84,42858,1,8,0:0:0:0:
324,164,43201,2,0,L|412:164,1,80,0|0,0:0|0:0,0:0:0:0:
456,236,43887,6,0,P|436:296|340:340,1,160,8|0,0:0|0:0,0:0:0:0:
268,316,44915,1,8,0:0:0:0:
184,164,45601,1,0,0:0:0:0:
228,88,45944,6,0,L|384:52,1,160,2|0,0:0|0:0,0:0:0:0:
460,100,46972,2,0,L|480:196,1,80,8|0,0:0|0:0,0:0:0:0:
388,192,47658,2,0,L|372:284,1,80,2|2,0:0|0:0,0:0:0:0:
124,192,49029,5,10,0:0:0:0:
256,76,49715,1,2,0:0:0:0:
256,164,50058,6,0,P|248:240|184:312,1,160,4|0,0:0|0:0,0:0:0:0:
112,320,51087,1,8,0:0:0:0:
36,276,51429,2,0,L|24:184,1,80,0|0,0:0|0:0,0:0:0:0:
80,128,52115,6,0,P|156:116|192:40,1,160,8|2,0:0|0:0,0:0:0:0:
104,44,53144,1,8,0:0:0:0:
156,212,53829,1,0,0:0:0:0:
240,240,54172,6,0,L|328:228,2,80,2|0|0,0:0|0:0|0:0,0:0:0:0:
224,152,55201,2,0,P|256:92|348:80,1,160,8|2,0:0|0:0,0:0:0:0:
380,156,56229,6,0,P|444:164|492:240,1,160,2|0,0:0|0:0,0:0:0:0:
456,320,57258,1,8,0:0:0:0:
368,336,57601,2,0,P|320:296|308:264,1,80,2|2,0:0|0:0,0:0:0:0:
300,196,58287,6,0,P|216:216|136:196,1,160,4|0,0:0|0:0,0:0:0:0:
116,116,59315,2,0,L|88:284,1,160,8|0,0:0|0:0,0:0:0:0:
160,328,60344,6,0,P|236:336|332:308,1,160,8|2,0:0|0:0,0:0:0:0:
376,252,61372,1,8,0:0:0:0:
308,88,62058,1,2,0:0:0:0:
236,140,62401,6,0,P|140:120|104:68,1,160,2|0,0:0|0:0,0:0:0:0:
36,128,63429,2,0,L|24:212,1,80,8|0,0:0|0:0,0:0:0:0:
76,280,64115,1,2,0:0:0:0:
156,320,64458,6,0,P|228:336|316:304,1,160,2|0,0:0|0:0,0:0:0:0:
308,220,65487,2,0,P|348:152|336:64,1,160,10|2,0:0|0:0,0:0:0:0:
256,52,66515,5,4,0:0:0:0:
196,308,67544,2,0,L|316:308,1,120,8|8,1:3|1:3,0:0:0:0:
432,224,68572,6,0,P|444:148|400:36,1,191.999994140625,4|0,0:0|0:0,0:0:0:0:
324,96,69601,2,0,P|264:84|220:100,2,95.9999970703126,8|0|2,0:0|0:0|0:0,0:0:0:0:
276,180,70629,6,0,P|180:176|136:80,1,191.999994140625,2|0,0:2|0:0,0:0:0:0:
52,148,71658,2,0,L|32:244,1,95.9999970703126,8|0,0:0|0:0,0:0:0:0:
92,316,72344,1,2,0:0:0:0:
184,284,72687,6,0,L|384:272,1,191.999994140625,2|2,0:2|0:0,0:0:0:0:
464,236,73715,2,0,P|468:296|448:336,2,95.9999970703126,8|0|2,0:0|0:0|0:0,0:0:0:0:
388,180,74744,6,0,B|376:132|400:88|400:88|376:40|324:32,1,191.999994140625,2|0,0:2|0:0,0:0:0:0:
260,104,75772,2,0,L|156:112,1,95.9999970703126,8|0,0:0|0:0,0:0:0:0:
76,68,76458,1,2,0:2:0:0:
16,144,76801,6,0,P|40:244|112:300,1,191.999994140625,4|2,0:0|0:0,0:0:0:0:
200,284,77829,2,0,P|236:240|288:220,2,95.9999970703126,8|0|2,0:0|0:0|0:0,0:0:0:0:
292,320,78858,6,0,P|360:284|400:156,1,191.999994140625,2|2,0:2|0:0,0:0:0:0:
380,88,79887,1,8,0:0:0:0:
308,152,80229,2,0,P|280:164|204:152,1,95.9999970703126,0|2,0:0|0:0,0:0:0:0:
256,72,80915,6,0,P|272:164|224:256,1,191.999994140625,2|2,0:2|0:0,0:0:0:0:
136,268,81944,2,0,L|148:364,2,95.9999970703126,8|0|2,0:0|0:0|0:0,0:0:0:0:
44,236,82972,6,0,P|12:176|40:96,2,143.999995605469,2|8|8,0:2|0:3|0:0,0:0:0:0:
108,164,84344,2,0,P|148:160|204:184,1,95.9999970703126,6|2,0:2|0:0,0:0:0:0:
212,276,85029,6,0,P|264:312|392:288,1,191.999994140625,4|2,0:0|0:0,0:0:0:0:
440,216,86058,1,8,0:0:0:0:
476,128,86401,2,0,L|480:32,1,95.9999970703126,0|2,0:0|0:0,0:0:0:0:
384,40,87087,6,0,P|370:136|320:216,1,191.999994140625,2|2,0:2|0:0,0:0:0:0:
232,252,88115,1,8,0:0:0:0:
64,156,88801,1,2,0:0:0:0:
96,64,89144,6,0,P|144:36|260:104,1,191.999994140625,2|2,0:2|0:0,0:0:0:0:
168,128,90172,2,0,L|148:224,2,95.9999970703126,8|0|2,0:0|0:0|0:0,0:0:0:0:
244,188,91201,6,0,P|324:220|416:148,1,191.999994140625,2|2,0:2|0:0,0:0:0:0:
443,78,92229,2,0,P|379:74|315:138,1,143.999995605469,8|8,0:0|0:3,0:0:0:0:
176,116,93258,6,0,P|92:112|44:24,1,191.999994140625,4|2,0:0|0:0,0:0:0:0:
140,28,94287,2,0,P|200:24|240:44,1,95.9999970703126,8|0,0:0|0:0,0:0:0:0:
276,124,94972,1,2,0:0:0:0:
216,200,95315,6,0,L|204:300,1,95.9999970703126,2|2,0:2|0:0,0:0:0:0:
296,264,96001,2,0,L|316:360,1,95.9999970703126,2|8,0:0|0:0,0:0:0:0:
440,212,97029,1,2,0:0:0:0:
464,120,97372,6,0,L|464:24,2,95.9999970703126,2|0|2,0:2|0:0|0:0,0:0:0:0:
372,144,98401,2,0,P|304:140|224:224,1,191.999994140625,8|2,0:0|0:0,0:0:0:0:
136,264,99429,6,0,L|52:204,1,95.9999970703126,2|2,0:2|0:0,0:0:0:0:
56,112,100115,1,0,0:0:0:0:
136,60,100458,2,0,P|220:76|256:168,1,191.999994140625,8|2,0:0|0:0,0:0:0:0:
304,252,101487,6,0,P|349:274|400:276,2,95.9999970703126,2|0|2,0:2|0:0|0:0,0:0:0:0:
208,252,102515,2,0,P|162:274|112:276,2,95.9999970703126,8|0|2,0:0|0:0|0:0,0:0:0:0:
256,168,103544,1,2,0:2:0:0:
256,192,103715,12,4,105601,0:0:0:0:
436,164,113829,6,0,P|444:256|396:340,1,191.999994140625,4|2,0:0|0:0,0:0:0:0:
320,284,114858,2,0,P|220:316|124:292,1,191.999994140625,8|2,0:0|0:0,0:0:0:0:
152,204,115887,6,0,P|92:156|64:44,1,191.999994140625,2|0,0:2|0:0,0:0:0:0:
156,20,116915,1,8,0:0:0:0:
240,68,117258,2,0,P|248:115|236:168,1,95.9999970703126,2|2,0:2|0:0,0:0:0:0:
152,204,117944,6,0,P|248:204|328:264,1,191.999994140625,2|2,0:2|0:0,0:0:0:0:
396,192,118972,2,0,P|348:108|359:9,1,191.999994140625,8|2,0:0|0:0,0:0:0:0:
452,20,120001,6,0,P|488:76|468:168,2,143.999995605469,2|8|8,0:2|0:3|0:0,0:0:0:0:
396,100,121372,2,0,L|288:120,1,95.9999970703126,2|0,0:2|0:0,0:0:0:0:
244,184,122058,6,0,P|276:272|236:332,1,160,4|0,0:1|0:0,0:0:0:0:
188,256,123087,2,0,P|116:304|36:268,1,160,8|0,0:0|0:0,0:0:0:0:
108,216,124115,6,0,L|84:44,1,160,8|0,0:0|0:0,0:0:0:0:
164,16,125144,1,8,0:0:0:0:
288,140,125829,1,8,0:0:0:0:
352,80,126172,6,0,L|436:68,2,80,2|0|0,0:0|0:0|0:0,0:0:0:0:
372,164,127201,2,0,B|380:208|356:240|356:240|320:264|316:308,1,160,8|2,0:0|0:0,0:0:0:0:
404,316,128229,6,0,P|444:264|460:164,1,160,2|0,0:0|0:0,0:0:0:0:
424,92,129258,1,8,0:0:0:0:
336,80,129601,2,0,L|248:100,1,80,2|2,0:0|0:0,0:0:0:0:
224,180,130287,6,0,B|236:260|236:260|192:340,1,160,4|0,0:0|0:0,0:0:0:0:
112,344,131315,1,8,0:0:0:0:
44,288,131658,2,0,L|28:204,1,80,0|0,0:0|0:0,0:0:0:0:
68,128,132344,6,0,P|116:92|220:96,1,160,8|0,0:0|0:0,0:0:0:0:
284,148,133372,1,8,0:0:0:0:
308,324,134058,1,0,0:0:0:0:
220,332,134401,6,0,P|168:272|164:184,1,160,2|0,0:0|0:0,0:0:0:0:
200,116,135429,2,0,L|288:92,1,80,8|0,0:0|0:0,0:0:0:0:
352,140,136115,2,0,L|440:116,1,80,2|2,0:0|0:0,0:0:0:0:
256,320,137487,5,10,0:0:0:0:
256,144,138172,1,2,0:0:0:0:
256,232,138515,6,0,P|196:212|168:124,1,160,4|0,0:0|0:0,0:0:0:0:
224,60,139544,2,0,P|308:72|344:144,1,160,8|0,0:0|0:0,0:0:0:0:
344,220,140572,6,0,P|336:268|236:320,1,160,8|2,0:0|0:0,0:0:0:0:
160,304,141601,1,8,0:0:0:0:
96,244,141944,2,0,L|84:152,1,80,0|2,0:0|0:0,0:0:0:0:
140,96,142629,6,0,P|212:128|304:108,1,160,2|0,0:0|0:0,0:0:0:0:
328,36,143658,2,0,P|368:20|416:28,2,80,8|0|2,0:0|0:0|0:0,0:0:0:0:
380,108,144687,6,0,L|408:268,1,160,2|0,0:0|0:0,0:0:0:0:
344,324,145715,1,8,0:0:0:0:
264,288,146058,2,0,L|248:196,1,80,2|2,0:0|0:0,0:0:0:0:
300,136,146744,6,0,P|220:124|164:184,1,160,4|0,0:0|0:0,0:0:0:0:
144,260,147772,2,0,P|84:204|96:124,1,160,8|0,0:0|0:0,0:0:0:0:
167,87,148801,6,0,P|236:120|252:200,1,160,8|2,0:0|0:0,0:0:0:0:
230,281,149829,2,0,L|202:369,2,80,8|0|2,0:0|0:0|0:0,0:0:0:0:
315,258,150858,6,0,P|384:276|468:224,1,160,2|0,0:0|0:0,0:0:0:0:
484,152,151887,2,0,L|492:68,1,80,8|0,0:0|0:0,0:0:0:0:
424,16,152572,1,2,0:0:0:0:
364,80,152915,6,0,P|280:100|204:68,1,160,2|0,0:0|0:0,0:0:0:0:
136,116,153944,2,0,P|132:196|176:268,1,160,10|2,0:0|0:0,0:0:0:0:
256,288,154972,5,4,0:0:0:0:
196,32,156001,2,0,L|320:32,1,120,8|8,1:3|1:3,0:0:0:0:
440,104,157029,6,0,P|448:188|388:272,1,191.999994140625,4|2,0:0|0:0,0:0:0:0:
292,272,158058,2,0,L|304:372,2,95.9999970703126,8|0|2,0:0|0:0|0:0,0:0:0:0:
200,248,159087,6,0,L|172:52,1,191.999994140625,2|2,0:2|0:0,0:0:0:0:
262,23,160115,2,0,P|314:23|360:44,1,95.9999970703126,8|0,0:0|0:0,0:0:0:0:
411,115,160801,1,2,0:0:0:0:
504,132,161144,6,0,P|440:204|348:188,1,191.999994140625,2|2,0:2|0:0,0:0:0:0:
292,120,162172,2,0,P|264:164|260:212,1,95.9999970703126,8|0,0:0|0:0,0:0:0:0:
320,284,162858,1,2,0:0:0:0:
256,356,163201,6,0,B|160:360|160:360|72:308,1,191.999994140625,2|0,0:2|0:0,0:0:0:0:
48,220,164229,1,8,0:0:0:0:
124,160,164572,2,0,L|132:56,1,95.9999970703126,0|2,0:0|0:2,0:0:0:0:
224,36,165258,6,0,L|208:244,1,191.999994140625,4|2,0:0|0:0,0:0:0:0:
276,296,166287,2,0,P|324:296|372:264,2,95.9999970703126,8|0|2,0:0|0:0|0:0,0:0:0:0:
300,204,167315,6,0,P|348:116|440:108,1,191.999994140625,2|2,0:2|0:0,0:0:0:0:
496,180,168344,2,0,L|504:292,2,95.9999970703126,8|0|2,0:0|0:0|0:0,0:0:0:0:
400,196,169372,6,0,P|344:144|372:28,1,191.999994140625,2|2,0:2|0:0,0:0:0:0:
268,20,170401,2,0,L|164:68,1,95.9999970703126,8|0,0:0|0:0,0:0:0:0:
88,32,171087,1,2,0:0:0:0:
20,100,171429,6,0,P|32:196|72:224,2,143.999995605469,2|8|8,0:2|0:3|0:0,0:0:0:0:
108,136,172801,2,0,P|148:172|160:220,1,95.9999970703126,6|2,0:2|0:0,0:0:0:0:
120,300,173487,6,0,P|180:248|292:272,1,191.999994140625,4|2,0:0|0:0,0:0:0:0:
328,352,174515,1,8,0:0:0:0:
424,332,174858,2,0,L|484:240,1,95.9999970703126,0|2,0:0|0:0,0:0:0:0:
468,156,175544,6,0,P|412:84|312:56,1,191.999994140625,2|2,0:2|0:0,0:0:0:0:
232,100,176572,1,8,0:0:0:0:
160,280,177258,1,0,0:0:0:0:
240,332,177601,6,0,B|336:336|336:336|404:268,1,191.999994140625,2|2,0:2|0:0,0:0:0:0:
404,172,178629,2,0,L|480:96,2,95.9999970703126,8|2|0,0:0|0:0|0:0,0:0:0:0:
308,188,179658,6,0,P|208:144|188:64,1,191.999994140625,2|2,0:2|0:0,0:0:0:0:
96,40,180687,2,0,L|32:180,1,143.999995605469,8|8,0:0|0:3,0:0:0:0:
44,316,181715,6,0,P|132:336|236:276,1,191.999994140625,4|2,0:0|0:0,0:0:0:0:
252,204,182744,2,0,L|360:212,2,95.9999970703126,8|0|2,0:0|0:0|0:0,0:0:0:0:
160,172,183772,6,0,P|140:120|144:72,1,95.9999970703126,2|0,0:2|0:0,0:0:0:0:
236,108,184458,2,0,P|252:64|300:28,1,95.9999970703126,2|8,0:0|0:0,0:0:0:0:
480,40,185487,1,2,0:0:0:0:
412,108,185829,6,0,B|388:152|404:200|404:200|388:252|340:272,1,191.999994140625,2|2,0:2|0:0,0:0:0:0:
248,272,186858,2,0,L|168:188,1,95.9999970703126,8|2,0:0|0:2,0:0:0:0:
88,228,187544,1,2,0:0:0:0:
156,296,187887,6,0,P|248:272|280:176,1,191.999994140625,2|2,0:2|0:0,0:0:0:0:
224,112,188915,2,0,P|220:56|244:12,1,95.9999970703126,8|2,0:0|0:2,0:0:0:0:
312,80,189601,1,2,0:0:0:0:
372,156,189944,6,0,L|440:244,2,95.9999970703126,2|0|2,0:2|0:0|0:0,0:0:0:0:
336,244,190972,2,0,L|360:348,2,95.9999970703126,8|0|2,0:0|0:0|0:0,0:0:0:0:
256,192,192001,1,2,0:2:0:0:
256,192,192172,12,4,194058,0:0:0:0:
256,132,201258,6,0,L|256:272,1,120,8|8,0:0|0:3,0:0:0:0:
148,328,202287,6,0,P|72:336|16:260,1,160,4|2,0:0|0:0,0:0:0:0:
104,252,203315,2,0,P|76:176|124:108,1,160,8|2,0:0|0:0,0:0:0:0:
164,188,204344,6,0,P|248:208|328:172,1,160,2|2,0:2|0:0,0:0:0:0:
356,104,205372,1,8,0:0:0:0:
404,176,205715,2,0,L|420:272,1,80,0|2,0:0|0:0,0:0:0:0:
368,328,206401,6,0,P|300:356|212:340,1,160,2|2,0:2|0:0,0:0:0:0:
156,276,207429,2,0,L|72:316,2,80,8|0|2,0:0|0:0|0:0,0:0:0:0:
220,216,208458,6,0,P|216:144|184:112,2,120,2|8|8,0:2|0:3|0:0,0:0:0:0:
136,188,209829,2,0,P|104:156|96:108,1,80,6|2,0:2|0:0,0:0:0:0:
132,36,210515,6,0,B|180:12|224:32|224:32|268:52|320:32,1,191.999994140625,4|2,0:0|0:0,0:0:0:0:
416,36,211544,2,0,P|448:68|460:120,2,95.9999970703126,8|0|2,0:0|0:0|0:0,0:0:0:0:
364,116,212572,6,0,L|356:312,1,191.999994140625,2|2,0:2|0:0,0:0:0:0:
440,260,213601,2,0,P|348:216|268:264,1,191.999994140625,8|2,0:0|0:0,0:0:0:0:
248,348,214629,6,0,B|152:332|152:332|92:244,1,191.999994140625,2|2,0:2|0:0,0:0:0:0:
102,157,215658,1,8,0:0:0:0:
196,136,216001,2,0,L|220:40,1,95.9999970703126,0|2,0:0|0:0,0:0:0:0:
300,92,216687,6,0,P|388:92|460:20,1,191.999994140625,2|2,0:2|0:0,0:0:0:0:
504,108,217715,2,0,P|492:160|412:216,1,143.999995605469,8|8,0:0|0:3,0:0:0:0:
280,192,218744,6,0,P|176:196|116:260,1,191.999994140625,4|2,0:0|0:0,0:0:0:0:
36,204,219772,2,0,L|28:100,1,95.9999970703126,8|0,0:0|0:0,0:0:0:0:
76,24,220458,1,2,0:0:0:0:
152,80,220801,6,0,P|192:88|264:72,1,95.9999970703126,2|0,0:2|0:0,0:0:0:0:
324,140,221487,2,0,P|344:92|336:36,1,95.9999970703126,2|8,0:0|0:0,0:0:0:0:
196,176,222515,1,2,0:0:0:0:
148,260,222858,6,0,L|48:260,2,95.9999970703126,2|0|2,0:2|0:0|0:0,0:0:0:0:
244,260,223887,2,0,P|328:240|412:152,1,191.999994140625,8|2,0:0|0:0,0:0:0:0:
428,76,224915,5,2,0:2:0:0:
336,44,225258,2,0,P|288:52|232:40,1,95.9999970703126,0|2,0:0|0:0,0:0:0:0:
152,76,225944,2,0,P|164:156|112:268,1,191.999994140625,8|2,0:0|0:0,0:0:0:0:
208,304,226972,6,0,L|120:360,2,95.9999970703126,2|0|2,0:2|0:0|0:0,0:0:0:0:
304,304,228001,2,0,L|392:360,2,95.9999970703126,8|0|2,0:0|0:0|0:0,0:0:0:0:
256,220,229029,6,0,B|244:184|256:148|256:148|268:112|256:76,2,143.999995605469,2|8|8,0:2|0:3|0:0,0:0:0:0:
344,184,230401,2,0,P|392:212|412:248,1,95.9999970703126,2|2,0:2|0:0,0:0:0:0:
328,272,231087,6,0,P|236:308|176:264,1,160,4|0,0:0|0:0,0:0:0:0:
168,196,232115,1,0,0:0:0:0:
80,184,232458,2,0,L|16:332,1,160,0|0,0:0|0:0,0:0:0:0:
256,220,234172,5,0,0:0:0:0:
320,280,234515,2,0,L|412:268,1,80,2|0,0:0|0:0,0:0:0:0:
440,192,235201,6,0,P|432:116|364:68,1,160,2|0,0:0|0:0,0:0:0:0:
292,112,236229,2,0,P|212:116|168:192,1,160,0|2,0:0|0:0,0:0:0:0:
256,192,237258,1,4,0:0:0:0:
256,192,237429,12,0,241372,0:0:0:0:
