osu file format v9

[General]
AudioFilename: maruko.mp3
AudioLeadIn: 0
PreviewTime: -1
Countdown: 0
SampleSet: Normal
StackLeniency: 0.7
Mode: 0
LetterboxInBreaks: 1

[Editor]
DistanceSpacing: 0.8
BeatDivisor: 4
GridSize: 8

[Metadata]
Title:Yume Ippai (TV Size)
Artist:Yumiko Seki
Creator:KaaiYukiChan
Version:Tomodachi
Source:Chibi Maruko Chan
Tags:

[Difficulty]
HPDrainRate:6
CircleSize:4
OverallDifficulty:8
ApproachRate:9
SliderMultiplier:1.4
SliderTickRate:1

[Events]
//Background and Video events
0,0,"background maruko.png"
Video,0,"Chibi Maruko Chan intro.flv"
//Break Periods
2,29258,32307
//Storyboard Layer 0 (Background)
//Storyboard Layer 1 (Fail)
//Storyboard Layer 2 (Pass)
//Storyboard Layer 3 (Foreground)
//Storyboard Sound Samples
//Background Colour Transformations
3,100,163,162,255

[TimingPoints]
1581,427.671428571428,4,1,0,41,1,0
12058,-100,4,1,0,41,0,1
29058,-100,4,1,0,41,0,0
32951,460.403278688517,4,1,0,27,1,0
59539,-100,4,2,0,27,0,0
63798,-100,4,1,0,27,0,0
66215,-100,4,1,0,27,0,0
73736,427.670266224741,4,1,0,41,1,0
73961,-100,4,1,0,41,0,1
87528,-100,4,1,0,41,0,0

[Colours]
Combo1 : 255,255,0
Combo2 : 255,255,255
Combo3 : 192,192,192
Combo4 : 240,5,5
Combo5 : 0,0,0
Combo6 : 128,255,255

[HitObjects]
80,72,1581,1,0
136,72,1794,1,0
184,48,2008,2,0,B|256:96,2,70
184,48,2650,2,2,B|344:32|424:64,1,210
432,56,3505,1,0
464,96,3719,2,0,B|464:144|464:144|432:184,2,70
464,96,4360,2,2,B|368:104|376:272,1,210
296,184,5216,5,0
248,128,5430,1,0
200,176,5643,1,0
248,232,5857,1,8
296,184,6071,1,8
248,232,6285,1,8
200,176,6499,1,8
248,128,6713,2,0,B|144:56|56:128|120:288|312:328,1,420,8|4
256,24,8423,5,0
72,192,8851,1,0
256,360,9279,1,0
408,192,9706,1,0
256,360,10134,1,0
72,192,10562,1,0
256,32,10989,1,0
408,192,11417,1,0
256,192,11845,1,0
256,192,12058,5,0
312,192,12272,1,0
352,152,12486,1,0
336,104,12700,2,0,B|264:104,1,70
192,104,13128,2,0,B|264:104,1,70
264,104,13769,1,8
264,144,13876,1,8
240,176,13983,1,8
176,192,14197,1,0
112,192,14411,2,0,B|40:232|48:320|96:320,1,140
128,320,15266,5,0
200,320,15480,1,0
272,320,15694,1,0
336,328,15907,2,0,B|416:264,1,70
440,232,16335,2,0,B|376:296,2,70
384,200,16977,1,0
440,168,17191,1,8
416,144,17297,1,8
384,120,17404,1,8
416,96,17618,1,0
392,56,17832,2,0,B|248:48,1,140
256,48,18687,6,0,B|192:120,1,70
256,48,19115,2,0,B|320:120,1,70
304,104,19543,2,0,B|240:176,1,70
256,160,19970,2,0,B|192:88,1,70
192,184,20398,1,8
152,192,20505,1,8
112,216,20612,1,8
48,256,20826,1,8
64,328,21040,1,8
128,312,21253,2,2,B|288:304|288:304,1,140
352,320,22109,5,0
400,272,22322,1,0
440,216,22536,1,0
472,160,22750,1,0
464,88,22964,2,0,B|352:88,1,105
256,88,23606,2,0,B|384:88,1,105
361,88,24247,1,8
352,184,24782,5,0
344,272,24996,1,0
256,304,25316,1,4
232,264,25423,1,4
208,216,25530,1,4
256,192,25637,12,0,29058
40,64,32907,5,0
96,120,33066,1,0
152,56,33296,2,0,B|224:96,1,70
168,144,33756,2,0,B|224:72,1,70
210,88,34217,1,0
288,88,34447,1,0
352,48,34677,2,0,B|456:240,1,210
440,296,35713,1,8
400,320,35828,1,8
352,304,35943,1,8
312,240,36288,2,8,B|232:288,3,70
272,344,37209,1,0
200,344,37439,2,0,B|112:344|40:72,1,315,0|2
192,192,38936,5,0
256,64,39396,1,0
72,40,39741,5,0
112,80,39972,1,0
152,32,40202,2,0,B|184:64|192:120|32:192,1,210
40,240,41123,1,0
88,240,41238,1,0
128,240,41353,1,0
168,240,41468,1,0
216,208,41698,1,8
240,272,41928,2,8,B|336:272,1,70
312,344,42619,2,2,B|384:336|432:304|456:224|456:160|448:112,1,280
448,72,44000,2,4,B|368:72,1,70
376,72,44460,5,0
256,144,44921,1,0
48,72,45381,1,0
48,64,45842,5,0
120,64,46072,1,0
192,64,46302,1,0
264,64,46647,2,0,B|360:64,1,70
424,64,47453,5,0
424,64,47683,1,0
448,96,47798,1,0
424,128,47913,1,0
352,216,48374,1,0
440,224,48834,1,0
384,296,49295,2,2,B|264:336,1,105
344,240,50101,2,2,B|216:280,1,105
192,280,50906,1,8
160,248,51021,1,8
144,200,51136,1,8
128,128,51367,2,0,B|208:104|288:136,2,140
24,168,52518,6,0,B|64:80|112:56|192:40,1,210
224,40,53553,1,0
240,88,53669,1,0
224,136,53784,1,0
152,184,54589,2,0,B|232:192,1,70
256,200,55050,1,0
320,144,55280,1,0
400,144,55510,1,0
456,208,55740,1,0
360,216,56086,1,0
360,216,56316,2,0,B|360:384,1,140
280,328,57122,1,0
264,328,57238,1,0
248,328,57353,1,0
240,328,57468,1,0
232,328,57583,1,0
224,328,57698,1,0
216,328,57813,1,0
208,328,57928,1,0
200,320,58043,1,0
192,312,58158,1,0
184,304,58273,1,0
184,296,58389,1,0
184,288,58504,1,0
184,280,58619,1,0
184,272,58733,1,0
184,264,58848,1,0
184,256,58963,1,0
184,256,59078,1,0
256,272,59539,6,0,B|256:208|192:192|168:192|168:192|160:192|160:192,1,140
160,192,60460,1,0
72,144,60805,1,0
128,112,61265,1,0
96,48,61726,2,0,B|176:64|224:96|224:184|296:176,1,245
344,184,62762,1,0
352,224,62877,1,0
344,272,62992,1,0
280,336,63222,5,0
248,304,63337,1,0
224,272,63452,1,0
192,208,63798,2,2,B|56:160,1,140
320,208,64603,2,2,B|456:160,1,140
376,96,65524,1,0
320,208,65984,1,0
448,256,66215,5,0
472,192,66445,2,2,B|408:88|368:72,1,140
312,56,67020,1,8
256,40,67135,1,8
200,56,67251,1,8
256,96,67481,2,2,B|256:192,1,70
256,208,67941,5,0
256,352,68171,2,2,B|256:200,1,140
312,120,68747,1,8
256,136,68862,1,8
200,120,68978,1,8
256,80,69208,2,2,B|256:-8,1,70
256,192,69783,1,0
256,192,70128,12,0,73736
256,192,73949,5,0
312,192,74163,1,0
352,152,74377,1,0
336,104,74591,2,0,B|264:104,1,70
192,104,75019,2,0,B|264:104,1,70
262,104,75446,1,0
264,104,75660,1,8
264,144,75767,1,8
240,176,75874,1,8
176,192,76088,1,0
112,192,76302,2,0,B|40:232|48:320|96:320,1,140
128,320,76943,1,0
128,320,77157,5,0
200,320,77371,1,0
272,320,77585,1,0
336,328,77798,2,0,B|416:264,1,70
440,232,78226,2,0,B|376:296,2,70
384,200,78868,1,0
440,168,79082,1,8
416,144,79188,1,8
384,120,79295,1,8
416,96,79509,1,0
392,56,79723,2,0,B|248:48,1,140
252,48,80364,1,0
256,48,80578,6,0,B|192:120,1,70
256,48,81006,2,0,B|320:120,1,70
304,104,81434,2,0,B|240:176,1,70
256,160,81861,2,0,B|192:88,1,70
192,184,82289,1,8
152,192,82396,1,8
112,216,82503,1,8
48,256,82717,1,8
64,328,82931,1,8
128,312,83144,2,2,B|288:304|288:304,1,140
267,305,83786,1,0
352,320,84000,5,0
400,272,84213,1,0
440,216,84427,1,0
472,160,84641,1,0
464,88,84855,2,0,B|352:88,1,105
256,88,85497,2,0,B|384:88,1,105
361,88,86245,1,8
352,184,86673,5,0
344,272,86887,1,0
256,304,87207,1,4
232,264,87314,1,4
208,216,87421,1,4
