osu file format v5

[General]
AudioFilename: So We Can Smile Tomorrow.mp3
AudioLeadIn: 0
PreviewTime: -1
Countdown: 0
SampleSet: Normal
StackLeniency: 0.7
Mode: 0
LetterboxInBreaks: 1
EditorDistanceSpacing: 0.699999988079071

[Metadata]
Title:So We Can Smile Tomorrow
Artist:Yumi Matsuzawa
Creator:ztrot
Version:Gate
Source:Gate Keepers
Tags:Gate Keepers Yumi Matsuzawa ztrot

[Difficulty]
HPDrainRate:4
CircleSize:4
OverallDifficulty:4
SliderMultiplier:1.3
SliderTickRate:1

[Events]
//Background and Video events
0,0,"wall_gatekeepers_02.jpg"
Video,0,"[aX]_Gate_Keepers_-_02_-_Stand_up_for_Peace_[E4110096]_xvid_xvid.avi"
//Break Periods
2,74224,75135
//Storyboard Layer 0 (Background)
//Storyboard Layer 1 (Fail)
//Storyboard Layer 2 (Pass)
//Storyboard Layer 3 (Foreground)
//Storyboard Sound Samples
//Background Colour Transformations
3,100,163,162,255

[TimingPoints]
1915,410.958904109589,4,1,0,70,1,0
46284,-100,4,1,0,70,0,1
88202,-100,4,1,0,0,0,0

[Colours]
Combo1 : 255,79,255
Combo2 : 119,255,255
Combo3 : 70,70,251

[HitObjects]
136,80,3558,2,4,B|256:168|392:72,1,260
352,264,5202,5,0
256,264,5613,1,8
160,264,6024,1,4
256,112,6846,5,4
208,192,7257,1,8
304,192,7668,1,0
256,272,8079,5,8
208,272,8284,2,2,B|120:272|136:184,2,130
256,272,9312,1,2
256,272,9723,1,14
344,288,10134,5,0
344,192,10545,1,12
344,96,10956,1,0
256,128,11367,5,2
256,176,11572,1,2
168,152,11983,1,2
168,200,12188,1,2
168,288,12599,2,6,B|168:360|256:256,1,130
256,168,13421,6,0,B|256:24,3,130,0|8|0|8
320,96,15065,6,0,B|384:96|408:160,1,97.5
400,208,15682,1,0
400,256,15887,2,0,B|264:336,1,130,0|8
192,320,16709,5,0
192,224,17120,1,8
192,128,17531,1,0
256,192,17942,5,8
258,241,18147,2,0,B|258:281|354:273|354:217,1,130
352,222,18764,1,8
80,192,19997,6,0,B|96:304|264:368,2,260
168,192,22051,1,8
168,96,22462,1,0
80,128,22873,1,8
16,192,23284,6,0,B|136:304|272:256,2,260
16,144,25134,5,0
64,144,25339,1,8
152,144,25750,2,0,B|312:144,1,130,0|8
376,144,26572,2,0,B|408:232|360:296|288:296,1,195
256,368,27599,5,0
256,320,27805,1,8
256,224,28216,2,2,B|144:192|432:104|248:32,1,260
208,112,29449,5,12
160,192,29860,1,2
256,288,30476,1,2
336,240,30887,1,2
336,192,31093,2,10,B|400:152|288:136|384:80,1,130,8|2
256,152,32120,5,0
160,152,32531,1,0
112,152,32736,1,8
80,240,33147,1,0
160,352,33764,6,0,B|272:248,1,130,0|4
72,56,35408,6,0,B|224:56,1,130
200,56,36024,1,8
256,128,36435,6,0,B|256:272,2,130,0|8|0
256,80,37462,1,4
256,352,38695,5,0
256,304,38901,2,0,B|176:280|200:192,1,130,0|8
256,304,39723,2,0,B|336:280|312:192,1,130,0|8
314,204,40339,1,0
314,205,40545,1,4
256,192,41983,12,6,44654
256,272,44962,5,2
256,200,45271,1,0
256,152,45476,1,0
256,104,45682,1,2
256,56,45887,1,2
168,80,46298,5,0
112,152,46709,1,8
168,224,47120,1,0
248,264,47531,1,8
328,224,47942,2,8,B|456:136,1,130
432,152,48558,1,4
256,192,49380,5,0
256,144,49586,2,2,B|208:80|312:80|248:16,2,130
344,120,50819,1,2
344,168,51024,1,6
112,312,52257,5,0
112,264,52462,1,8
112,216,52668,1,0
112,168,52873,2,0,B|336:328,1,260,0|4
416,168,54517,6,0,B|192:16,1,260,0|4
256,192,56161,5,0
256,280,56572,1,8
256,192,56983,1,0
256,280,57394,1,8
168,280,57805,6,0,B|168:168,1,97.5
168,112,58421,1,0
216,112,58627,2,0,B|368:112,1,130,0|12
384,192,59449,5,0
384,240,59654,1,0
384,288,59860,1,8
384,336,60065,1,0
336,336,60271,6,0,B|216:336,1,97.5,0|0
240,264,60887,1,0
240,216,61093,2,0,B|240:64,2,130,0|8|0
168,152,62325,1,2
168,152,62531,1,2
168,56,62942,5,0
128,88,63147,1,0
88,112,63353,2,0,B|32:192|88:296|240:352|272:344,1,325
288,344,64586,1,0
336,344,64791,1,8
336,248,65202,5,2
336,176,65510,1,2
336,176,65819,1,6
144,56,66846,5,4
376,56,67668,1,4
256,208,68490,1,0
256,296,68901,1,8
256,208,69312,1,4
256,24,70134,5,0
256,112,70545,1,8
168,120,70956,2,0,B|64:136|80:328|192:320,1,260,4|0
208,320,71983,5,0
256,320,72188,1,8
256,272,72394,1,0
256,224,72599,1,0
256,176,72805,1,0
256,128,73010,2,0,B|312:152|336:104,2,65,8|0|0
256,32,73832,1,2
256,32,74038,1,2
256,264,76709,5,0
256,80,77531,1,0
400,192,78353,5,0
400,56,78969,1,0
264,56,79586,1,0
264,144,79997,1,4
256,192,80099,12,2,83079
256,112,83490,5,2
256,112,83695,1,10
256,200,84106,1,2
256,288,84517,1,10
256,288,84723,1,2
392,288,85339,1,6
256,192,85545,12,0,88627
