osu file format v5

[General]
AudioFilename: So We Can Smile Tomorrow.mp3
AudioLeadIn: 0
PreviewTime: -1
Countdown: 1
SampleSet: Normal
StackLeniency: 0.5
Mode: 0
LetterboxInBreaks: 1
EditorDistanceSpacing: 0.800000011920929

[Metadata]
Title:So We Can Smile Tomorrow
Artist:Yumi Matsuzawa
Creator:ztrot
Version:GATE OPEN!!!!
Source:Gate Keepers
Tags:Gate Keepers Yumi Matsuzawa ztrot

[Difficulty]
HPDrainRate:7
CircleSize:5
OverallDifficulty:8
SliderMultiplier:1.6
SliderTickRate:1

[Events]
//Background and Video events
0,0,"wall_gatekeepers_02.jpg"
Video,0,"[aX]_Gate_Keepers_-_02_-_Stand_up_for_Peace_[E4110096]_xvid_xvid.avi"
//Break Periods
//Storyboard Layer 0 (Background)
//Storyboard Layer 1 (Fail)
//Storyboard Layer 2 (Pass)
//Storyboard Layer 3 (Foreground)
//Storyboard Sound Samples
//Background Colour Transformations
3,100,163,162,255

[TimingPoints]
1915,410.958904109589,4,1,0,70,1,0
46284,-100,4,1,0,70,0,1
88211,-100,4,1,0,0,0,0

[Colours]
Combo1 : 255,79,255
Combo2 : 119,255,255
Combo3 : 70,70,251

[HitObjects]
320,320,2120,5,0
192,320,2325,1,8
352,264,2531,1,0
160,264,2736,1,0
320,208,2942,1,0
192,208,3147,1,8
256,264,3353,1,0
256,176,3558,2,0,B|256:0,1,160,4|0
256,16,4175,1,4
256,296,5202,5,0
256,168,5613,1,0
344,104,6024,5,4
168,104,6230,1,0
344,232,6435,1,4
168,232,6641,1,4
256,248,6846,5,2
256,216,6949,1,2
256,184,7051,1,0
256,120,7257,1,10
256,120,7360,1,2
256,56,7565,2,2,B|288:0|320:72,1,80
376,64,7976,1,2
376,64,8079,1,10
376,184,8284,5,2
256,256,8695,1,2
256,120,9106,5,2
256,120,9312,1,2
256,256,9723,1,10
144,200,10134,5,2
120,224,10236,1,2
144,248,10339,1,2
208,248,10545,1,10
208,248,10647,2,2,B|296:248,2,80,2|2|2
208,312,11264,1,2
208,312,11367,1,10
288,312,11572,5,2
344,192,11983,5,2
168,192,12188,1,2
256,312,12599,5,2
256,64,13010,1,6
256,256,13627,5,0
256,192,13832,1,8
256,128,14038,1,0
256,128,14141,1,0
184,56,14449,2,0,B|152:88|200:136,2,80,0|8|0
256,56,15065,5,0
256,152,15373,1,0
256,152,15476,1,8
256,216,15682,1,0
256,280,15887,2,0,B|120:272|392:328|192:360,1,160,0|12
200,136,16915,5,0
312,136,17120,1,8
160,192,17325,1,0
352,192,17531,1,0
200,248,17736,1,0
312,248,17942,1,8
256,192,18147,2,0,B|256:16,1,160
256,32,18764,1,8
112,96,19175,5,0
400,96,19586,1,8
256,304,19997,1,0
256,240,20202,5,0
256,176,20408,1,8
256,112,20613,1,0
256,112,20716,1,0
256,112,20819,1,0
256,48,21024,2,0,B|208:40|184:112,2,80,0|8|0
320,48,21641,6,0,B|408:48|408:120,1,120
408,108,22051,1,8
407,171,22257,1,0
408,232,22462,1,0
312,232,22771,1,0
312,232,22873,1,8
248,232,23079,5,0
248,232,23182,1,0
248,232,23284,2,0,B|120:232,1,120
128,232,23695,2,0,B|56:232|40:184,2,80,8|0|0
128,104,24517,1,8
400,104,25134,5,0
400,168,25339,1,8
400,232,25545,1,0
352,280,25750,2,2,B|272:336|176:264,1,160,2|10
280,168,26572,1,6
256,40,26983,5,8
256,104,27188,1,0
256,136,27291,1,0
256,168,27394,1,0
200,208,27599,6,0,B|163:178|203:138,2,80,0|8|0
256,352,28216,5,0
480,192,28627,1,8
256,32,29038,1,0
32,192,29449,1,8
160,192,29860,5,2
344,192,30271,1,8
344,192,30476,1,2
256,64,30887,1,0
256,64,31093,1,10
256,320,31504,5,2
256,192,31915,1,8
256,128,32120,6,0,B|160:128|88:224,1,160
72,240,32736,1,8
112,288,32942,1,0
176,288,33147,2,0,B|312:288,1,120
296,288,33558,1,8
360,288,33764,2,0,B|432:296|480:184,1,160
480,128,34380,2,0,B|480:48|360:48,1,160,8|0
363,48,34894,1,0
363,48,34997,1,0
363,49,35202,1,8
256,48,35408,6,0,B|256:216,1,160
192,208,36024,1,8
192,272,36230,1,0
256,272,36435,2,0,B|408:272,1,120
376,272,36846,1,8
376,208,37051,1,0
256,176,37462,6,0,B|256:88,2,80,0|8|0
200,136,38079,2,0,B|72:136,1,120
80,136,38490,1,8
80,200,38695,5,0
80,232,38798,1,0
80,264,38901,1,0
144,272,39106,2,0,B|176:320|224:256,2,80,0|8|0
176,216,39723,2,2,B|176:48,1,160,2|10
240,56,40339,1,2
112,56,40545,1,2
176,168,40956,5,8
72,312,41367,1,0
264,312,41778,1,4
256,192,41983,12,8,44243
360,192,44654,5,10
152,192,44962,1,2
256,304,45271,5,10
256,80,45476,1,0
256,144,45682,1,2
256,176,45784,1,0
256,208,45887,1,6
384,192,46298,6,0,B|384:88,2,80,0|0|8
384,256,46914,1,0
384,256,47017,1,0
384,256,47120,1,0
352,312,47325,1,0
288,312,47531,1,8
224,312,47736,1,0
224,312,47839,1,0
224,312,47942,1,0
160,312,48147,2,0,B|104:304|112:248,2,80,0|8|0
208,56,49380,5,0
184,80,49483,1,0
208,104,49586,1,0
256,144,49791,1,0
256,144,49997,1,8
304,104,50202,1,0
328,80,50305,1,0
304,56,50408,1,0
256,216,50819,5,2
256,280,51024,1,6
136,328,51435,5,0
136,264,51641,1,8
136,200,51846,1,0
136,136,52051,1,0
136,136,52154,1,0
136,136,52257,5,0
200,136,52462,1,8
256,168,52668,1,0
256,104,52873,1,0
352,96,53079,5,0
328,120,53182,1,0
352,152,53284,1,8
408,192,53490,1,0
408,192,53695,1,0
464,152,53901,1,0
488,128,54004,1,0
464,96,54106,1,8
408,64,54312,5,0
408,64,54517,1,0
352,96,54723,1,0
328,120,54825,1,0
352,152,54928,1,8
408,192,55134,5,0
408,192,55339,1,0
408,256,55545,1,0
376,256,55647,1,0
344,256,55750,1,8
256,336,55956,5,0
256,336,56161,1,4
472,192,56572,1,4
256,48,56983,1,4
40,192,57394,1,4
256,192,57805,6,2,B|256:328,1,120
256,312,58421,1,0
152,256,58627,5,2
360,256,59038,1,6
256,184,59449,5,0
256,120,59654,1,8
256,56,59860,1,8
256,120,60065,5,8
256,120,60271,1,0
192,144,60476,1,0
176,168,60579,1,0
192,192,60682,1,8
256,208,60887,5,0
256,208,61093,1,0
320,192,61298,1,0
336,168,61401,1,0
320,144,61504,1,8
256,120,61709,1,0
256,120,61914,1,0
152,192,62325,5,8
152,256,62531,1,0
256,328,62942,1,0
320,328,63147,1,8
384,328,63353,2,2,B|448:328|488:208|472:104,1,240
256,112,64586,5,0
256,176,64791,1,8
256,240,64997,1,0
256,304,65202,2,0,B|184:368|128:248,1,160
133,259,65819,1,0
256,240,66230,1,0
256,176,66435,1,8
256,32,66846,5,4
88,344,67154,1,0
432,344,67462,1,0
432,344,67668,1,4
80,40,67976,1,0
432,40,68284,1,0
432,40,68490,1,4
88,344,68798,1,0
256,192,69106,1,0
256,192,69312,1,4
64,192,69928,5,0
128,192,70134,1,2
256,192,70545,1,2
256,192,70956,1,2
256,192,71058,12,0,71778
320,64,71983,5,0
192,64,72188,1,8
352,120,72394,1,0
160,120,72599,1,0
320,176,72805,1,0
192,176,73010,1,8
256,120,73216,1,0
256,208,73421,2,0,B|256:384,1,160
256,368,74038,1,4
96,304,74449,5,0
72,280,74551,1,0
96,256,74654,1,8
160,256,74860,1,0
224,256,75065,5,0
288,256,75271,1,0
352,256,75476,1,8
416,256,75682,1,0
432,280,75784,1,0
416,304,75887,1,0
352,320,76093,1,0
352,320,76298,1,8
256,40,76709,5,4
256,344,77120,1,8
40,192,77531,1,4
472,192,77942,1,8
256,192,78353,1,4
256,192,78969,1,4
88,288,79586,5,2
424,288,79997,1,2
256,192,80202,12,0,81641
256,320,81846,5,0
256,256,82051,1,8
256,192,82257,1,0
256,192,82360,1,0
256,128,82565,1,0
256,128,82668,1,0
192,136,82873,5,8
320,136,83079,1,8
416,240,83490,5,4
280,240,83695,1,8
456,192,83901,1,0
248,192,84106,1,4
416,136,84312,1,0
280,136,84517,1,8
352,192,84723,1,4
160,184,85339,5,12
256,192,85442,12,0,88627
