osu file format v14

[General]
AudioFilename: Cuthue.mp3
AudioLeadIn: 0
PreviewTime: 52232
Countdown: 0
SampleSet: Normal
StackLeniency: 0.7
Mode: 1
LetterboxInBreaks: 0
WidescreenStoryboard: 0

[Editor]
Bookmarks: 97098
DistanceSpacing: 1.5
BeatDivisor: 4
GridSize: 32
TimelineZoom: 1.4

[Metadata]
Title:Amai Hanazono(Game Version)
TitleUnicode:甘い花園(ゲームバージョン)
Artist:Yumi Haruna
ArtistUnicode:春奈有美
Creator:PatZar
Version:Muzukashii
Source:Sono Hanabira ni Kuchizuke o
Tags:Genocide iamkwan deceitful ending eroge visual novel short game version Itoshisa no Photograph Anata o Suki na Shiawase Kuchibiru to Kiss de Tsubuyaite その花びらにくちづけを yuri
BeatmapID:629415
BeatmapSetID:269177

[Difficulty]
HPDrainRate:4
CircleSize:3
OverallDifficulty:5
ApproachRate:9
SliderMultiplier:1.4
SliderTickRate:1

[Events]
//Background and Video events
0,0,"Moehue.jpg",0,0
//Break Periods
//Storyboard Layer 0 (Background)
//Storyboard Layer 1 (Fail)
//Storyboard Layer 2 (Pass)
//Storyboard Layer 3 (Foreground)
//Storyboard Sound Samples

[TimingPoints]
670,535.714285714286,4,1,0,50,1,0
52098,-100,4,1,0,50,0,1
69241,-100,4,1,0,50,0,0
89598,-100,4,1,0,45,0,0
92812,-100,4,1,0,35,0,0
94955,-100,4,1,0,25,0,0

[HitObjects]
256,192,670,5,8,0:0:0:0:
256,192,1473,1,0,0:0:0:0:
256,192,2277,1,0,0:0:0:0:
256,192,2812,1,8,0:0:0:0:
256,192,3616,1,0,0:0:0:0:
256,192,4955,1,0,0:0:0:0:
256,192,5759,1,8,0:0:0:0:
256,192,6027,1,8,0:0:0:0:
256,192,6295,1,0,0:0:0:0:
256,192,7098,1,0,0:0:0:0:
256,192,7902,1,0,0:0:0:0:
256,192,8170,1,8,0:0:0:0:
256,192,8437,1,0,0:0:0:0:
256,192,8705,1,8,0:0:0:0:
256,192,9241,1,0,0:0:0:0:
256,192,9777,1,8,0:0:0:0:
256,192,10045,1,0,0:0:0:0:
256,192,10312,1,0,0:0:0:0:
256,192,10848,1,8,0:0:0:0:
256,192,11384,1,0,0:0:0:0:
256,192,11652,1,8,0:0:0:0:
256,192,12187,1,8,0:0:0:0:
256,192,12455,1,0,0:0:0:0:
256,192,12991,1,8,0:0:0:0:
256,192,13527,1,0,0:0:0:0:
256,192,14598,1,0,0:0:0:0:
256,192,14866,1,8,0:0:0:0:
256,192,15134,1,0,0:0:0:0:
256,192,15670,1,0,0:0:0:0:
256,192,16473,1,8,0:0:0:0:
256,192,17812,1,4,0:0:0:0:
256,192,18616,1,0,0:0:0:0:
256,192,18884,1,0,0:0:0:0:
256,192,19152,1,8,0:0:0:0:
256,192,19687,1,0,0:0:0:0:
256,192,19955,1,8,0:0:0:0:
256,192,20491,1,8,0:0:0:0:
256,192,21027,1,8,0:0:0:0:
256,192,21295,1,0,0:0:0:0:
256,192,22098,1,0,0:0:0:0:
256,192,22634,1,8,0:0:0:0:
256,192,22902,1,0,0:0:0:0:
256,192,23705,1,8,0:0:0:0:
256,192,24241,1,0,0:0:0:0:
256,192,24777,1,0,0:0:0:0:
256,192,25045,1,8,0:0:0:0:
256,192,25848,1,0,0:0:0:0:
256,192,26384,1,8,0:0:0:0:
256,192,27187,1,0,0:0:0:0:
256,192,27455,1,0,0:0:0:0:
256,192,27723,1,8,0:0:0:0:
256,192,28259,1,8,0:0:0:0:
256,192,28527,1,0,0:0:0:0:
256,192,29062,1,8,0:0:0:0:
256,192,29598,1,0,0:0:0:0:
256,192,29866,1,8,0:0:0:0:
256,192,30670,1,8,0:0:0:0:
256,192,30937,1,0,0:0:0:0:
256,192,31205,1,8,0:0:0:0:
256,192,31473,1,0,0:0:0:0:
256,192,32009,1,0,0:0:0:0:
256,192,32277,1,8,0:0:0:0:
256,192,32812,1,8,0:0:0:0:
256,192,32946,1,8,0:0:0:0:
256,192,33080,1,8,0:0:0:0:
256,192,33348,1,0,0:0:0:0:
256,192,33616,1,8,0:0:0:0:
256,192,34420,1,8,0:0:0:0:
256,192,34687,1,8,0:0:0:0:
256,192,34955,1,4,0:0:0:0:
256,192,35491,1,0,0:0:0:0:
256,192,35759,1,8,0:0:0:0:
256,192,36295,1,0,0:0:0:0:
256,192,36562,1,8,0:0:0:0:
256,192,36830,1,0,0:0:0:0:
256,192,37098,1,8,0:0:0:0:
256,192,37902,1,8,0:0:0:0:
256,192,38036,1,8,0:0:0:0:
256,192,38170,1,8,0:0:0:0:
256,192,38973,1,0,0:0:0:0:
256,192,39107,1,0,0:0:0:0:
256,192,39241,1,0,0:0:0:0:
256,192,39777,1,8,0:0:0:0:
256,192,40580,1,0,0:0:0:0:
256,192,40848,1,8,0:0:0:0:
256,192,41116,1,0,0:0:0:0:
256,192,41384,1,8,0:0:0:0:
256,192,41920,1,2,0:0:0:0:
256,192,42455,1,2,0:0:0:0:
256,192,42991,1,2,0:0:0:0:
256,192,43527,1,0,0:0:0:0:
256,192,44330,1,0,0:0:0:0:
256,192,44598,1,2,0:0:0:0:
256,192,44866,1,0,0:0:0:0:
256,192,45134,1,2,0:0:0:0:
256,192,45402,1,0,0:0:0:0:
256,192,45536,1,0,0:0:0:0:
256,192,45670,1,0,0:0:0:0:
256,192,46205,1,8,0:0:0:0:
256,192,46473,1,0,0:0:0:0:
256,192,46741,1,8,0:0:0:0:
256,192,47277,1,0,0:0:0:0:
256,192,47812,1,2,0:0:0:0:
256,192,48348,1,0,0:0:0:0:
256,192,48616,1,8,0:0:0:0:
256,192,48884,1,8,0:0:0:0:
256,192,49152,1,0,0:0:0:0:
256,192,49286,1,0,0:0:0:0:
256,192,49420,1,0,0:0:0:0:
256,192,49687,1,0,0:0:0:0:
256,192,49955,1,8,0:0:0:0:
256,192,50491,1,8,0:0:0:0:
256,192,51027,1,8,0:0:0:0:
256,192,51295,1,0,0:0:0:0:
256,192,51428,1,0,0:0:0:0:
256,192,51562,1,0,0:0:0:0:
256,192,51830,1,0,0:0:0:0:
256,192,52098,1,12,0:0:0:0:
256,192,52634,1,0,0:0:0:0:
256,192,52902,1,8,0:0:0:0:
256,192,53170,1,0,0:0:0:0:
256,192,53437,1,8,0:0:0:0:
256,192,53705,1,0,0:0:0:0:
256,192,53973,1,8,0:0:0:0:
256,192,54241,1,0,0:0:0:0:
256,192,54777,1,8,0:0:0:0:
256,192,55312,1,8,0:0:0:0:
256,192,55848,1,0,0:0:0:0:
256,192,56384,1,8,0:0:0:0:
256,192,56920,1,8,0:0:0:0:
256,192,57187,1,0,0:0:0:0:
256,192,57455,1,8,0:0:0:0:
256,192,57723,1,8,0:0:0:0:
256,192,57857,1,8,0:0:0:0:
256,192,57991,1,8,0:0:0:0:
256,192,58259,1,0,0:0:0:0:
256,192,58527,1,8,0:0:0:0:
256,192,59062,1,0,0:0:0:0:
256,192,59330,1,0,0:0:0:0:
256,192,59598,1,8,0:0:0:0:
256,192,59866,1,12,0:0:0:0:
256,192,60402,1,0,0:0:0:0:
256,192,60670,1,8,0:0:0:0:
256,192,60937,1,8,0:0:0:0:
256,192,61071,1,8,0:0:0:0:
256,192,61205,1,8,0:0:0:0:
256,192,61473,1,0,0:0:0:0:
256,192,61741,1,0,0:0:0:0:
256,192,62009,1,8,0:0:0:0:
256,192,62143,1,8,0:0:0:0:
256,192,62277,1,8,0:0:0:0:
256,192,62545,1,8,0:0:0:0:
256,192,62812,1,0,0:0:0:0:
256,192,63348,1,8,0:0:0:0:
256,192,63616,1,0,0:0:0:0:
256,192,64152,1,0,0:0:0:0:
256,192,64420,1,8,0:0:0:0:
256,192,64687,1,0,0:0:0:0:
256,192,64955,1,8,0:0:0:0:
256,192,65491,1,8,0:0:0:0:
256,192,65759,1,8,0:0:0:0:
256,192,65893,1,8,0:0:0:0:
256,192,66027,1,8,0:0:0:0:
256,192,66295,1,0,0:0:0:0:
256,192,66562,1,8,0:0:0:0:
256,192,66830,1,0,0:0:0:0:
256,192,67098,1,12,0:0:0:0:
256,192,67902,1,4,0:0:0:0:
256,192,68705,1,8,0:0:0:0:
256,192,69241,1,4,0:0:0:0:
256,192,69777,1,0,0:0:0:0:
256,192,70045,1,8,0:0:0:0:
256,192,70312,1,8,0:0:0:0:
256,192,70580,1,0,0:0:0:0:
256,192,70848,1,8,0:0:0:0:
256,192,71116,1,0,0:0:0:0:
256,192,71250,1,0,0:0:0:0:
256,192,71384,1,0,0:0:0:0:
256,192,71920,1,8,0:0:0:0:
256,192,72455,1,0,0:0:0:0:
256,192,72723,1,0,0:0:0:0:
256,192,72991,1,8,0:0:0:0:
256,192,73259,1,0,0:0:0:0:
256,192,73393,1,0,0:0:0:0:
256,192,73527,1,0,0:0:0:0:
256,192,74062,1,0,0:0:0:0:
256,192,74330,1,8,0:0:0:0:
256,192,74598,1,0,0:0:0:0:
256,192,75134,1,8,0:0:0:0:
256,192,75268,1,8,0:0:0:0:
256,192,75402,1,8,0:0:0:0:
256,192,75670,1,4,0:0:0:0:
256,192,76473,1,0,0:0:0:0:
256,192,77277,1,0,0:0:0:0:
256,192,77812,1,8,0:0:0:0:
256,192,78616,1,0,0:0:0:0:
256,192,79955,1,0,0:0:0:0:
256,192,80759,1,8,0:0:0:0:
256,192,81027,1,0,0:0:0:0:
256,192,81295,1,0,0:0:0:0:
256,192,82098,1,0,0:0:0:0:
256,192,82902,1,0,0:0:0:0:
256,192,83170,1,8,0:0:0:0:
256,192,83437,1,0,0:0:0:0:
256,192,83705,1,8,0:0:0:0:
256,192,84241,1,0,0:0:0:0:
256,192,85045,1,8,0:0:0:0:
256,192,85848,1,0,0:0:0:0:
256,192,86384,1,0,0:0:0:0:
256,192,87187,1,8,0:0:0:0:
256,192,87991,1,0,0:0:0:0:
256,192,88527,1,8,0:0:0:0:
256,192,89062,1,0,0:0:0:0:
256,192,89598,1,0,0:0:0:0:
256,192,89866,1,8,0:0:0:0:
256,192,90670,1,0,0:0:0:0:
256,192,91205,1,0,0:0:0:0:
256,192,91473,1,8,0:0:0:0:
256,192,92277,1,0,0:0:0:0:
256,192,92812,12,0,97098,0:0:0:0:
