osu file format v13

[General]
AudioFilename: In the Rain.mp3
AudioLeadIn: 0
PreviewTime: 72517
Countdown: 0
SampleSet: Normal
StackLeniency: 0.7
Mode: 0
LetterboxInBreaks: 1
WidescreenStoryboard: 0

[Editor]
DistanceSpacing: 0.7
BeatDivisor: 4
GridSize: 4
TimelineZoom: 1

[Metadata]
Title:In the Rain
TitleUnicode:In the Rain
Artist:Yumi Hara
ArtistUnicode:原 由実
Creator:Betsuto
Version:Insane
Source:コープスパーティー BLOOD DRIVE
Tags:5pb corpse party psvita horror
BeatmapID:517196
BeatmapSetID:221037

[Difficulty]
HPDrainRate:7
CircleSize:4
OverallDifficulty:8
ApproachRate:8
SliderMultiplier:1.9
SliderTickRate:1

[Events]
//Background and Video events
0,0,"BG.jpg",0,0
Video,-150,"In the Rain.avi"
//Break Periods
//Storyboard Layer 0 (Background)
//Storyboard Layer 1 (Fail)
//Storyboard Layer 2 (Pass)
//Storyboard Layer 3 (Foreground)
//Storyboard Sound Samples
//Background Colour Transformations
3,100,163,162,255

[TimingPoints]
8259,503.989920201596,4,1,1,70,1,0
8259,-133.333333333333,4,2,1,30,0,0
24386,-100,4,2,1,70,0,0
40514,-133.333333333333,4,2,1,50,0,0
41270,-133.333333333333,4,2,1,30,0,0
68737,-133.333333333333,4,2,1,50,0,0
69115,-133.333333333333,4,2,1,10,0,0
69241,-100,4,2,1,50,0,0
72769,-100,4,2,1,70,0,1
108552,-100,4,2,1,70,0,0
109056,-100,4,2,1,70,0,1
125184,-133.333333333333,4,2,1,20,0,0
129216,-100,4,2,1,5,0,0

[Colours]
Combo1 : 179,89,0
Combo2 : 0,128,128
Combo3 : 0,128,64
Combo4 : 128,0,0

[HitObjects]
132,132,8259,5,0,0:0:0:0:
164,132,8384,1,2,0:0:0:0:
196,140,8510,1,0,0:0:0:0:
224,156,8636,1,0,0:0:0:0:
252,176,8762,2,0,P|284:224|284:288,1,106.875004076958,2|0,0:0|0:0,0:0:0:0:
287,271,9266,1,0,0:0:0:0:
144,336,9518,2,0,L|156:264,1,71.2500027179719,2|0,0:0|0:0,0:0:0:0:
312,124,10022,6,0,P|360:192|372:252,1,142.500005435944
236,116,10778,2,0,P|256:68|280:52,1,71.2500027179719,2|0,0:0|0:0,0:0:0:0:
270,56,11156,2,0,L|380:48,1,106.875004076958,2|0,0:0|0:0,0:0:0:0:
468,96,11786,1,2,0:0:0:0:
488,188,12038,1,0,0:0:0:0:
432,320,12290,5,0,0:0:0:0:
400,328,12416,1,2,0:0:0:0:
368,328,12542,1,0,0:0:0:0:
336,324,12668,1,0,0:0:0:0:
304,312,12794,2,0,P|264:272|248:212,1,106.875004076958,2|0,0:0|0:0,0:0:0:0:
248,225,13298,2,0,L|256:144,1,71.2500027179719,0|2,0:0|0:0,0:0:0:0:
188,68,13802,1,0,0:0:0:0:
80,88,14054,6,0,P|84:164|132:224,1,142.500005435944
208,324,14810,2,0,L|192:244,1,71.2500027179719,2|0,0:0|0:0,0:0:0:0:
196,220,15188,2,0,L|176:116,1,106.875004076958,2|0,0:0|0:0,0:0:0:0:
16,144,15818,2,0,P|52:160|88:160,1,71.2500027179719,2|0,0:0|0:0,0:0:0:0:
284,104,16322,5,0,1:0:0:0:
312,84,16448,1,2,0:0:0:0:
344,72,16574,1,0,0:0:0:0:
380,68,16700,1,0,0:0:0:0:
416,72,16826,1,2,0:0:0:0:
392,260,17078,1,0,0:0:0:0:
392,260,17204,1,0,0:0:0:0:
392,260,17330,2,0,P|376:212|376:188,1,71.2500027179719,0|2,0:0|0:0,0:0:0:0:
416,72,17834,1,0,0:0:0:0:
480,280,18086,6,0,P|460:320|368:344,1,142.500005435944
352,340,18716,1,2,0:0:0:0:
336,328,18842,2,0,L|260:312,1,71.2500027179719,2|0,0:0|0:0,0:0:0:0:
248,320,19220,1,2,0:0:0:0:
232,328,19346,1,2,0:0:0:0:
124,280,19598,2,0,L|48:288,2,71.2500027179719,0|2|0,0:0|0:0|0:0,0:0:0:0:
244,196,20354,5,0,0:0:0:0:
252,164,20480,1,2,0:0:0:0:
248,132,20606,1,0,0:0:0:0:
232,104,20732,1,0,0:0:0:0:
208,84,20858,2,0,P|160:76|124:88,1,71.2500027179719,2|0,0:0|0:0,0:0:0:0:
84,136,21236,2,0,L|88:84,1,35.625001358986,2|0,0:0|0:0,0:0:0:0:
172,160,21614,1,0,0:0:0:0:
28,216,21866,1,2,0:0:0:0:
208,84,22118,6,0,L|352:92,1,142.500005435944,0|2,0:0|0:0,0:0:0:0:
376,84,22748,1,2,0:0:0:0:
400,76,22874,1,0,0:0:0:0:
256,192,23000,12,0,23882,1:0:0:0:
104,156,24386,5,4,1:0:0:0:
104,156,24512,2,0,P|152:144|196:152,1,95,0|0,1:0|1:0,0:0:0:0:
264,208,24890,2,0,L|368:216,1,95,8|0,0:0|1:0,0:0:0:0:
416,288,25268,2,0,P|448:212|420:144,1,142.5,8|0,0:0|1:0,0:0:0:0:
328,88,25898,1,8,0:0:0:0:
328,88,26024,1,0,0:0:0:0:
328,88,26150,2,0,B|244:48|244:48|148:48,1,190,4|2,1:2|0:0,0:0:0:0:
24,64,26780,2,0,L|72:64,1,47.5,2|8,0:0|0:0,0:0:0:0:
224,168,27158,5,0,1:0:0:0:
224,168,27284,2,0,P|232:216|216:260,1,95,8|0,0:0|0:0,0:0:0:0:
136,288,27662,1,0,1:0:0:0:
308,224,27914,2,0,L|400:200,1,95,8|0,0:0|0:0,0:0:0:0:
480,212,28292,1,8,0:0:0:0:
508,232,28418,5,4,1:0:0:0:
508,232,28544,2,0,L|484:136,1,95,0|0,1:0|1:0,0:0:0:0:
420,80,28922,2,0,P|372:72|324:88,1,95,8|0,0:0|1:0,0:0:0:0:
256,136,29300,2,0,P|192:152|116:128,1,142.5,8|0,0:0|1:0,0:0:0:0:
32,40,29930,5,8,0:0:0:0:
32,40,30056,1,0,0:0:0:0:
32,40,30182,2,0,L|56:184,1,142.5,4|8,1:2|0:0,0:0:0:0:
104,256,30686,1,2,1:2:0:0:
132,276,30812,1,2,0:0:0:0:
164,288,30938,6,0,P|212:292|256:280,1,95,8|0,0:0|1:0,0:0:0:0:
324,220,31316,2,0,L|420:212,1,95,8|0,0:0|0:0,0:0:0:0:
488,152,31694,1,0,1:0:0:0:
488,152,31946,2,0,P|444:124|396:120,1,95,8|8,0:0|0:0,0:0:0:0:
312,136,32324,1,8,0:0:0:0:
276,144,32450,5,4,1:0:0:0:
276,144,32576,2,0,L|176:128,1,95,0|0,1:0|1:0,0:0:0:0:
96,136,32954,2,0,P|52:164|32:204,1,95,8|0,0:0|1:0,0:0:0:0:
36,288,33332,2,0,P|80:340|160:352,1,142.5,8|0,0:0|1:0,0:0:0:0:
264,232,33962,5,8,0:0:0:0:
264,232,34088,1,0,0:0:0:0:
264,232,34214,2,0,B|352:196|352:196|400:200,1,142.5,4|0,1:2|0:0,0:0:0:0:
456,132,34718,1,2,1:2:0:0:
456,132,34844,1,2,0:0:0:0:
456,132,34970,6,0,L|356:124,1,95,8|0,0:0|1:0,0:0:0:0:
276,144,35348,2,0,L|176:136,1,95,8|0,0:0|1:0,0:0:0:0:
108,92,35726,1,0,1:0:0:0:
72,224,35978,2,0,P|104:260|152:272,1,95,8|8,0:0|0:0,0:0:0:0:
236,252,36356,1,8,0:0:0:0:
264,232,36482,6,0,P|328:224|400:256,1,142.5,4|0,1:0|1:0,0:0:0:0:
448,328,36986,2,0,L|440:224,1,95,8|0,0:0|1:0,0:0:0:0:
384,160,37364,2,0,L|376:56,1,95,8|0,0:0|1:0,0:0:0:0:
312,4,37742,1,0,1:0:0:0:
232,148,37994,1,8,0:0:0:0:
88,64,38246,6,0,P|68:140|80:208,1,142.5,4|8,1:2|0:0,0:0:0:0:
128,272,38750,2,0,L|136:328,2,47.5,2|2|8,1:2|1:2|0:0,0:0:0:0:
232,148,39254,1,8,0:3:0:0:
260,128,39380,1,8,0:3:0:0:
288,108,39506,2,0,L|300:60,1,47.5,4|4,0:3|0:3,0:0:0:0:
432,48,39758,2,0,L|420:96,1,47.5,0|0,1:0|1:0,0:0:0:0:
352,180,40010,2,0,L|340:228,2,47.5,0|0|0,1:0|1:0|1:0,0:0:0:0:
432,48,40514,5,4,1:2:0:0:
432,48,41270,1,0,0:0:0:0:
348,40,41522,2,0,L|236:64,2,106.875004076958,0|2|0,0:0|0:0|0:0,0:0:0:0:
492,104,42530,2,0,P|496:172|464:248,1,142.500005435944,2|0,0:0|0:0,0:0:0:0:
388,276,43286,2,0,L|240:284,1,142.500005435944,2|0,0:0|0:0,0:0:0:0:
164,260,44042,2,0,P|140:228|132:196,1,71.2500027179719,2|0,0:0|0:0,0:0:0:0:
160,112,44546,5,0,0:0:0:0:
164,100,44672,1,2,0:0:0:0:
168,88,44798,1,0,0:0:0:0:
164,76,44924,1,0,0:0:0:0:
160,64,45050,1,2,0:0:0:0:
20,104,45302,2,0,L|96:88,2,71.2500027179719,0|0|2,0:0|0:0|0:0,0:0:0:0:
80,192,46058,1,0,0:0:0:0:
256,120,46310,5,0,0:0:0:0:
256,120,46562,2,0,L|328:112,1,71.2500027179719,2|0,0:0|0:0,0:0:0:0:
220,208,47066,1,0,0:0:0:0:
280,96,47318,2,0,L|352:94,1,71.2500027179719,2|0,0:0|0:0,0:0:0:0:
484,136,47822,5,2,0:0:0:0:
360,204,48074,1,0,0:0:0:0:
220,208,48326,1,0,0:0:0:0:
220,208,48452,1,2,0:0:0:0:
220,208,48578,2,0,B|164:220|164:220|136:248|136:248|88:260,1,142.500005435944,2|2,0:0|0:0,0:0:0:0:
160,132,49334,1,0,0:0:0:0:
300,212,49586,2,0,P|276:268|224:288,1,106.875004076958,0|2,0:0|0:0,0:0:0:0:
236,286,50090,2,0,L|156:304,1,71.2500027179719,0|2,0:0|0:0,0:0:0:0:
372,256,50594,6,0,P|444:268|492:328,1,142.500005435944,2|0,0:0|0:0,0:0:0:0:
464,188,51350,2,0,P|438:119|466:48,1,142.500005435944,2|0,0:0|0:0,0:0:0:0:
352,144,52106,2,0,P|332:180|308:200,1,71.2500027179719,2|0,0:0|0:0,0:0:0:0:
292,208,52484,1,2,0:0:0:0:
276,212,52610,5,2,0:0:0:0:
260,212,52736,2,0,L|220:204,1,35.625001358986,2|0,0:0|0:0,0:0:0:0:
208,208,52988,2,0,L|168:200,1,35.625001358986,0|2,0:0|0:0,0:0:0:0:
52,72,53366,2,0,L|128:60,1,71.2500027179719
200,124,53870,2,0,L|124:136,1,71.2500027179719,2|0,0:0|0:0,0:0:0:0:
64,216,54374,5,0,0:0:0:0:
208,208,54626,2,0,L|276:228,1,71.2500027179719,2|0,0:0|0:0,0:0:0:0:
116,288,55130,1,0,0:0:0:0:
240,200,55382,2,0,L|304:236,1,71.2500027179719,2|0,0:0|0:0,0:0:0:0:
368,344,55886,1,0,0:0:0:0:
368,344,56012,1,2,0:0:0:0:
368,344,56138,1,4,0:0:0:0:
396,196,56390,5,0,0:0:0:0:
396,196,56642,2,0,B|388:144|388:144|360:108|360:108|352:56,1,142.500005435944,0|0,1:0|0:0,0:0:0:0:
460,244,57398,2,0,P|404:272|328:236,1,142.500005435944,0|0,0:0|0:0,0:0:0:0:
284,172,58028,2,0,L|332:176,1,35.625001358986,2|2,0:0|0:0,0:0:0:0:
244,268,58405,1,0,0:0:0:0:
156,192,58657,6,0,B|160:120|160:120|200:100|240:124,1,142.500005435944,0|2,0:0|0:0,0:0:0:0:
244,268,59413,2,0,B|240:340|240:340|200:360|160:336,1,142.500005435944,0|0,0:0|0:0,0:0:0:0:
172,342,60043,1,2,0:0:0:0:
172,342,60169,1,2,0:0:0:0:
284,172,60421,5,0,0:0:0:0:
352,92,60673,2,0,L|500:88,1,142.500005435944,0|2,0:0|0:0,0:0:0:0:
472,208,61429,2,0,L|516:204,2,23.7500009059906,2|2|0,0:0|0:0|0:0,0:0:0:0:
448,212,61681,2,0,L|348:216,1,71.2500027179719,0|0,0:0|0:0,0:0:0:0:
376,214,62059,1,2,0:0:0:0:
376,214,62185,1,2,0:0:0:0:
256,296,62437,6,0,L|212:292,2,23.7500009059906,2|2|0,0:0|0:0|0:0,0:0:0:0:
280,300,62689,2,0,L|380:304,1,71.2500027179719
460,336,63193,1,0,0:0:0:0:
300,192,63445,2,0,P|300:136|344:64,1,142.500005435944,2|0,0:0|0:0,0:0:0:0:
452,48,64075,2,0,L|416:60,1,35.625001358986,2|2,0:0|0:0,0:0:0:0:
300,192,64453,5,0,0:0:0:0:
220,56,64705,2,0,L|76:40,1,142.500005435944,2|0,0:0|1:0,0:0:0:0:
180,264,65461,2,0,P|192:208|164:124,1,142.500005435944,2|0,0:0|0:0,0:0:0:0:
52,212,66217,1,0,1:0:0:0:
180,264,66469,5,0,0:0:0:0:
300,192,66721,2,0,P|372:200|436:244,1,142.500005435944,2|0,0:0|1:0,0:0:0:0:
212,184,67477,2,0,L|232:40,1,142.500005435944,2|0,0:0|0:0,0:0:0:0:
231,42,68107,1,2,0:0:0:0:
231,42,68233,1,6,1:2:0:0:
256,324,68737,6,0,L|224:216,1,106.875004076958,4|0,1:0|0:0,0:0:0:0:
212,184,69241,1,0,1:0:0:0:
128,128,69493,1,0,1:0:0:0:
320,72,69745,5,0,1:0:0:0:
223,100,69997,1,0,1:0:0:0:
512,128,70249,5,0,1:0:0:0:
415,100,70501,1,8,1:2:0:0:
415,100,70627,1,0,1:0:0:0:
415,100,70753,2,0,P|368:120|340:156,1,95,12|0,0:0|1:0,0:0:0:0:
336,244,71131,2,0,L|364:288,2,47.5,8|0|0,0:0|1:0|1:0,0:0:0:0:
252,216,71509,1,12,0:0:0:0:
120,144,71761,6,0,L|104:104,2,31.6666666666667,8|8|8,0:3|0:3|0:3,0:0:0:0:
64,196,72013,2,0,L|48:156,2,31.6666666666667,0|0|0,1:0|1:0|1:0,0:0:0:0:
92,268,72265,1,8,0:0:0:0:
196,136,72517,5,0,0:0:0:0:
196,136,72769,2,0,P|260:124|328:160,1,142.5,4|0,1:0|1:0,0:0:0:0:
336,244,73273,2,0,L|432:276,1,95,8|0,0:0|1:0,0:0:0:0:
448,188,73651,2,0,L|392:172,1,47.5,0|0,3:0|3:0,0:0:0:0:
384,84,73903,2,0,L|440:100,1,47.5,8|0,0:0|1:0,0:0:0:0:
426,274,74281,1,8,0:0:0:0:
280,320,74533,5,0,3:0:0:0:
280,320,74659,1,0,1:0:0:0:
280,320,74785,2,0,P|228:328|184:316,1,95,0|0,1:0|3:0,0:0:0:0:
124,264,75163,1,0,1:0:0:0:
104,232,75289,2,0,L|92:136,1,95,8|0,0:0|1:0,0:0:0:0:
152,32,75667,2,0,L|160:96,1,47.5,0|0,3:0|3:0,0:0:0:0:
244,112,75919,2,0,L|236:48,1,47.5,8|0,0:0|1:0,0:0:0:0:
80,56,76297,1,8,0:0:0:0:
208,184,76549,5,0,3:0:0:0:
208,184,76675,1,0,1:0:0:0:
208,184,76801,2,0,P|248:236|240:316,1,142.5,4|0,0:0|1:0,0:0:0:0:
168,356,77305,2,0,L|264:340,1,95,8|0,0:0|1:0,0:0:0:0:
332,276,77683,2,0,L|400:264,1,47.5,0|0,3:0|3:0,0:0:0:0:
472,176,77935,2,0,L|404:188,1,47.5,8|0,0:0|1:0,0:0:0:0:
344,156,78187,1,0,1:0:0:0:
312,144,78313,2,0,L|216:160,1,95,8|0,0:0|3:0,0:0:0:0:
136,128,78691,1,0,1:0:0:0:
104,112,78817,5,0,1:0:0:0:
72,96,78943,2,0,L|56:48,2,47.5,8|0|0,0:0|1:0|1:0,0:0:0:0:
96,188,79321,2,0,P|100:236|92:284,1,95,12|0,0:0|1:0,0:0:0:0:
32,344,79699,2,0,L|120:296,1,95,8|8,0:0|0:0,0:0:0:0:
196,268,80077,1,0,1:0:0:0:
232,268,80203,1,0,3:0:0:0:
264,276,80329,2,0,L|304:252,1,47.5,12|0,0:0|3:0,0:0:0:0:
432,256,80581,2,0,L|392:280,1,47.5,0|0,3:0|3:0,0:0:0:0:
264,276,80833,6,0,P|240:224|248:140,1,142.5,4|0,1:0|1:0,0:0:0:0:
312,60,81337,2,0,L|408:40,1,95,8|0,0:0|1:0,0:0:0:0:
468,104,81715,2,0,L|412:116,1,47.5,0|0,3:0|3:0,0:0:0:0:
348,196,81967,2,0,L|404:184,1,47.5,8|0,0:0|1:0,0:0:0:0:
480,336,82345,1,8,0:0:0:0:
264,276,82597,5,0,3:0:0:0:
264,276,82723,1,0,3:0:0:0:
264,276,82849,2,0,P|216:244|176:236,1,95,0|0,1:0|3:0,0:0:0:0:
88,252,83227,1,0,1:0:0:0:
56,268,83353,2,0,L|76:176,1,95,8|0,0:0|1:0,0:0:0:0:
160,140,83731,2,0,P|156:116|144:92,1,47.5,0|0,3:0|3:0,0:0:0:0:
24,16,83983,2,0,P|28:40|40:64,1,47.5,8|0,0:0|1:0,0:0:0:0:
240,156,84361,2,0,P|291:152|340:128,1,95,8|0,0:0|3:0,0:0:0:0:
392,72,84739,1,0,3:0:0:0:
408,40,84865,6,0,L|400:184,1,142.5,4|0,1:2|1:0,0:0:0:0:
416,268,85369,2,0,P|384:308|344:320,1,95,8|0,0:0|1:0,0:0:0:0:
264,276,85747,1,8,0:0:0:0:
264,276,85873,2,0,L|208:264,1,47.5,0|8,3:0|0:0,0:0:0:0:
128,252,86125,1,0,1:0:0:0:
100,232,86251,1,0,3:0:0:0:
72,212,86377,2,0,P|60:164|72:116,1,95,8|0,0:0|3:0,0:0:0:0:
140,64,86755,1,0,3:0:0:0:
172,52,86881,6,0,L|220:44,1,47.5,0|8,1:0|0:0,0:0:0:0:
288,104,87133,2,0,L|336:96,1,47.5,0|0,3:0|3:0,0:0:0:0:
408,40,87385,1,8,0:0:0:0:
344,176,87637,5,12,0:0:0:0:
344,176,87763,2,0,P|340:228|360:268,1,95,0|8,1:0|0:0,0:0:0:0:
436,304,88141,1,0,1:0:0:0:
264,276,88393,2,0,L|224:248,1,47.5,8|8,0:0|0:0,0:0:0:0:
144,296,88645,2,0,L|116:252,1,47.5,8|8,0:0|0:0,0:0:0:0:
24,276,88897,6,0,P|36:208|92:164,1,142.5,4|0,1:0|1:0,0:0:0:0:
180,164,89401,2,0,L|280:148,1,95,8|0,0:0|1:0,0:0:0:0:
348,96,89779,1,0,3:0:0:0:
368,68,89905,2,0,L|384:24,2,47.5,0|8|0,3:0|0:0|1:0,0:0:0:0:
328,208,90409,2,0,P|328:260|348:300,1,95,8|0,0:0|3:0,0:0:0:0:
416,344,90787,1,0,3:0:0:0:
448,352,90913,6,0,L|352:348,1,95,0|0,1:0|3:0,0:0:0:0:
264,344,91291,1,0,1:0:0:0:
232,352,91417,2,0,P|204:312|204:260,1,95,8|0,0:0|1:0,0:0:0:0:
256,192,91795,2,0,L|248:140,1,47.5,0|0,3:0|3:0,0:0:0:0:
160,80,92047,2,0,L|168:132,1,47.5,8|0,0:0|1:0,0:0:0:0:
328,208,92425,1,8,0:0:0:0:
152,288,92677,5,0,3:0:0:0:
152,288,92803,1,0,1:0:0:0:
152,288,92929,2,0,P|116:216|120:144,1,142.5,4|0,1:2|1:0,0:0:0:0:
160,80,93433,2,0,L|260:72,1,95,8|0,0:0|1:0,0:0:0:0:
344,92,93811,2,0,L|392:88,2,47.5,0|0|8,3:0|3:0|0:0,0:0:0:0:
280,160,94189,2,0,P|264:208|272:260,1,95,0|8,1:0|0:0,0:0:0:0:
340,352,94693,5,0,3:0:0:0:
340,352,94819,1,0,3:0:0:0:
340,352,94945,1,0,1:0:0:0:
340,352,95071,2,0,L|380:324,1,47.5,8|0,0:0|3:0,0:0:0:0:
488,292,95323,1,0,1:0:0:0:
488,292,95449,2,0,L|448:264,1,47.5,12|0,0:0|3:0,0:0:0:0:
388,196,95701,5,0,1:0:0:0:
368,168,95827,2,0,P|364:120|380:76,1,95,8|8,0:0|0:0,0:0:0:0:
456,32,96205,1,0,1:0:0:0:
264,96,96457,1,12,0:0:0:0:
228,104,96583,1,0,3:0:0:0:
192,108,96709,1,0,3:0:0:0:
156,104,96835,1,8,0:0:0:0:
124,92,96961,6,0,B|96:80|80:56|80:56|36:84|44:144,1,142.5,4|0,1:0|1:0,0:0:0:0:
52,216,97465,2,0,P|80:256|124:280,1,95,8|0,0:0|1:0,0:0:0:0:
208,284,97843,2,0,L|256:280,1,47.5,0|0,3:0|3:0,0:0:0:0:
376,344,98095,2,0,L|328:348,1,47.5,8|0,0:0|1:0,0:0:0:0:
168,216,98473,2,0,P|168:172|200:120,1,95,8|0,0:0|3:0,0:0:0:0:
276,96,98851,1,0,3:0:0:0:
312,88,98977,6,0,L|204:80,1,95,0|0,1:0|0:0,0:0:0:0:
124,92,99355,1,0,1:0:0:0:
92,108,99481,2,0,P|72:152|76:200,1,95,8|0,0:0|1:0,0:0:0:0:
116,272,99859,1,0,3:0:0:0:
148,284,99985,2,0,L|196:276,1,47.5,0|8,3:0|0:0,0:0:0:0:
320,300,100237,2,0,L|272:308,1,47.5,0|0,1:0|3:0,0:0:0:0:
148,284,100489,2,0,P|144:224|160:188,1,95,8|0,0:0|3:0,0:0:0:0:
216,128,100867,1,8,0:0:0:0:
248,116,100993,6,0,L|396:108,1,142.5,4|0,1:2|1:0,0:0:0:0:
472,76,101497,2,0,P|476:128|456:168,1,95,8|0,0:0|1:0,0:0:0:0:
384,208,101875,1,0,3:0:0:0:
352,220,102001,2,0,L|304:216,1,47.5,0|8,3:0|0:0,0:0:0:0:
160,164,102253,2,0,L|208:168,1,47.5,0|0,1:0|3:0,0:0:0:0:
352,220,102505,2,0,P|344:272|316:304,1,95,8|0,0:0|3:0,0:0:0:0:
232,320,102883,1,0,3:0:0:0:
200,312,103009,5,0,1:0:0:0:
172,296,103135,1,8,0:0:0:0:
148,272,103261,1,0,3:0:0:0:
136,240,103387,1,0,3:0:0:0:
136,204,103513,2,0,L|136:104,1,95,8|12,0:0|0:0,0:0:0:0:
80,48,103891,2,0,P|124:72|168:68,1,95,0|8,1:0|0:0,0:0:0:0:
252,40,104269,2,0,L|348:40,1,95,0|8,1:0|0:0,0:0:0:0:
432,120,104647,2,0,L|384:120,1,47.5,8|8,0:0|0:0,0:0:0:0:
312,168,104899,1,8,0:0:0:0:
280,192,105025,6,0,P|228:188|168:116,1,142.5,4|0,1:0|1:0,0:0:0:0:
176,40,105529,2,0,L|164:184,1,142.5,8|8,0:0|0:0,0:0:0:0:
168,268,106033,1,0,3:0:0:0:
184,296,106159,1,8,0:0:0:0:
208,316,106285,1,0,3:0:0:0:
236,324,106411,1,0,3:0:0:0:
268,324,106537,2,0,L|368:320,1,95,12|0,0:0|1:0,0:0:0:0:
464,220,107041,6,0,P|468:156|420:88,1,142.5,4|0,1:2|1:0,0:0:0:0:
332,64,107545,2,0,L|328:28,2,31.6666666666667,8|8|8,0:3|0:3|0:3,0:0:0:0:
264,96,107797,2,0,L|260:60,2,31.6666666666667,4|4|4,0:3|0:3|0:3,0:0:0:0:
236,172,108049,2,0,L|240:208,2,31.6666666666667,0|0|0,1:0|1:0|1:0,0:0:0:0:
168,208,108300,2,0,L|172:244,2,31.6666666666667,0|0|0,1:0|1:0|1:0,0:0:0:0:
124,148,108552,1,0,1:0:0:0:
96,136,109056,5,4,1:0:0:0:
96,136,109182,2,0,P|80:192|92:228,1,95,0|0,1:0|1:0,0:0:0:0:
156,284,109560,2,0,L|252:284,1,95,8|0,0:0|1:0,0:0:0:0:
328,312,109938,2,0,P|396:336|460:316,1,142.5,8|0,0:0|1:0,0:0:0:0:
464,132,110568,1,8,0:0:0:0:
464,132,110694,1,0,0:0:0:0:
464,132,110820,6,0,P|396:108|332:128,1,142.5,4|0,1:2|1:0,0:0:0:0:
268,192,111324,2,0,L|220:180,1,47.5,2|2,1:2|0:0,0:0:0:0:
136,196,111576,2,0,P|108:148|108:104,1,95,8|0,0:0|1:0,0:0:0:0:
136,32,111954,2,0,L|76:116,1,95,8|0,0:0|1:0,0:0:0:0:
28,180,112332,2,0,P|32:232|52:268,1,95,0|8,1:0|0:0,0:0:0:0:
128,312,112710,1,0,3:0:0:0:
160,316,112836,1,0,3:0:0:0:
192,320,112962,1,8,0:0:0:0:
224,324,113088,5,4,1:0:0:0:
224,324,113214,2,0,L|320:316,1,95,0|0,1:0|1:0,0:0:0:0:
400,280,113592,2,0,P|412:232|404:188,1,95,8|0,0:0|1:0,0:0:0:0:
320,160,113970,2,0,L|296:16,1,142.5,8|0,0:0|1:0,0:0:0:0:
192,224,114600,1,8,0:0:0:0:
192,224,114726,1,0,3:0:0:0:
192,224,114852,6,0,L|216:368,1,142.5,4|8,1:2|0:0,0:0:0:0:
292,312,115356,1,2,1:2:0:0:
292,312,115482,1,2,0:0:0:0:
292,312,115608,2,0,P|340:304|392:320,1,95,8|0,0:0|1:0,0:0:0:0:
448,372,115986,2,0,L|432:276,1,95,8|0,0:0|3:0,0:0:0:0:
372,216,116364,2,0,P|360:168|372:120,1,95,0|8,1:0|0:0,0:0:0:0:
440,64,116742,2,0,L|488:64,2,47.5,0|8|8,1:0|0:0|0:0,0:0:0:0:
352,36,117120,5,8,0:0:0:0:
320,48,117246,1,8,0:0:0:0:
288,64,117372,1,0,1:0:0:0:
256,80,117498,1,0,1:0:0:0:
224,96,117624,2,0,P|184:120|160:164,1,95,12|0,0:0|1:0,0:0:0:0:
168,248,118002,2,0,P|216:288|296:288,1,142.5,8|0,0:0|1:0,0:0:0:0:
396,112,118632,1,8,0:0:0:0:
396,112,118758,1,0,0:0:0:0:
396,112,118884,6,0,L|348:300,1,190,4|2,1:2|1:2,0:0:0:0:
268,328,119514,1,2,0:0:0:0:
232,336,119640,2,0,P|192:308|172:264,1,95,8|0,0:0|1:0,0:0:0:0:
200,188,120018,2,0,L|200:88,1,95,8|0,0:0|3:0,0:0:0:0:
152,20,120396,1,0,1:0:0:0:
276,152,120648,5,8,0:0:0:0:
284,184,120774,1,0,3:0:0:0:
280,216,120900,1,8,0:0:0:0:
260,248,121026,1,8,0:0:0:0:
228,268,121152,2,0,P|172:268|112:196,1,142.5,4|0,1:0|1:0,0:0:0:0:
136,128,121656,2,0,L|136:28,1,95,8|0,0:0|1:0,0:0:0:0:
56,52,122034,2,0,L|56:152,1,95,8|0,0:0|1:0,0:0:0:0:
28,228,122412,1,0,1:0:0:0:
136,128,122664,5,8,0:0:0:0:
136,128,122916,2,0,L|280:108,1,142.5,4|8,1:2|0:0,0:0:0:0:
360,136,123420,2,0,L|424:128,2,47.5,0|0|12,1:0|1:0|0:0,0:0:0:0:
252,216,123924,5,8,0:3:0:0:
220,224,124050,1,8,0:3:0:0:
184,224,124176,2,0,L|144:200,1,47.5,0|0,1:0|1:0,0:0:0:0:
28,228,124428,2,0,L|68:252,1,47.5,0|0,1:0|1:0,0:0:0:0:
152,296,124680,1,8,0:0:0:0:
184,300,124806,1,8,0:0:0:0:
216,300,124932,1,8,0:0:0:0:
252,296,125058,1,8,0:0:0:0:
288,288,125184,6,0,L|320:264,1,35.625001358986,0|2,0:0|0:0,0:0:0:0:
408,272,125436,2,0,L|416:232,1,35.625001358986
480,172,125688,1,2,0:0:0:0:
256,192,125940,12,0,129216,0:0:0:0:
