osu file format v13

[General]
AudioFilename: TWO+BY+TWO.mp3
AudioLeadIn: 0
PreviewTime: 64220
Countdown: 1
SampleSet: Soft
StackLeniency: 0.7
Mode: 0
LetterboxInBreaks: 1
WidescreenStoryboard: 0

[Editor]
DistanceSpacing: 0.7
BeatDivisor: 4
GridSize: 4
TimelineZoom: 1

[Metadata]
Title:TWO BY TWO
TitleUnicode:TWO BY TWO
Artist:Yumeha Kouda
ArtistUnicode:Yumeha Kouda
Creator:P A N
Version:Insane
Source:Fate/Kaleid Liner プリズマ☆イリヤ ツヴァイ!
Tags:Ending nanaka 10nya -_t_e_n_n_y_a_- asagi
BeatmapID:471580
BeatmapSetID:198813

[Difficulty]
HPDrainRate:7
CircleSize:4
OverallDifficulty:7
ApproachRate:9
SliderMultiplier:2
SliderTickRate:1

[Events]
//Background and Video events
0,0,"bgggg.jpg",0,0
//Break Periods
//Storyboard Layer 0 (Background)
//Storyboard Layer 1 (Fail)
//Storyboard Layer 2 (Pass)
//Storyboard Layer 3 (Foreground)
//Storyboard Sound Samples

[TimingPoints]
779,352.941176470588,4,2,1,70,1,0
779,-100,4,2,2,70,0,0
1308,-133.333333333333,4,2,2,60,0,0
3602,-133.333333333333,4,2,1,60,0,0
3955,-133.333333333333,4,2,2,60,0,0
4308,-133.333333333333,4,2,1,60,0,0
4661,-133.333333333333,4,2,2,60,0,0
9249,-133.333333333333,4,2,1,60,0,0
12073,-100,4,2,1,70,0,0
23720,-100,4,2,2,70,0,0
23896,-100,4,2,1,70,0,0
24426,-100,4,2,2,70,0,0
24778,-100,4,2,1,70,0,0
47367,-133.333333333333,4,2,1,60,0,0
49131,-133.333333333333,4,2,2,60,0,0
50190,-133.333333333333,4,2,1,60,0,0
51778,-133.333333333333,4,2,2,60,0,0
51955,-133.333333333333,4,2,1,60,0,0
52131,-133.333333333333,4,2,2,60,0,0
53014,-133.333333333333,4,2,1,60,0,0
58661,-100,4,2,1,70,0,0
61661,-100,4,2,2,70,0,0
62190,-100,4,2,1,70,0,0
62896,-133.333333333333,4,2,1,60,0,0
63249,-100,4,2,1,70,0,0
63602,-80,4,2,1,75,0,0
63955,-66.6666666666667,4,2,1,80,0,0
64308,-100,4,2,1,70,0,1
66778,-100,4,2,2,70,0,1
67131,-100,4,2,1,70,0,1
68543,-100,4,2,2,70,0,1
68720,-100,4,2,1,70,0,1
75249,-80,4,2,1,75,0,0
75602,-100,4,2,1,70,0,1
86896,-100,4,2,1,70,0,0

[HitObjects]
304,144,779,5,2,0:0:0:0:
284,284,955,1,0,0:0:0:0:
208,152,1131,1,2,0:0:0:0:
356,224,1308,2,0,P|396:176|368:76,1,150.000005722046,2|2,0:0|0:0,0:0:0:0:
260,24,1837,1,2,0:0:0:0:
208,152,2014,2,0,L|224:304,1,150.000005722046,2|2,0:0|0:0,0:0:0:0:
304,144,2543,1,2,0:0:0:0:
168,256,2720,2,0,P|120:240|88:144,1,150.000005722046,2|0,0:0|0:0,0:0:0:0:
147,20,3249,2,0,L|260:24,1,112.500004291535,4|0,0:3|0:0,0:0:0:0:
327,64,3602,5,4,0:0:0:0:
76,56,3955,1,2,0:0:0:0:
328,64,4308,1,0,0:0:0:0:
76,56,4661,1,2,0:0:0:0:
328,148,5014,6,0,P|376:136|408:40,1,150.000005722046,4|2,0:0|0:0,0:0:0:0:
295,11,5543,1,0,0:0:0:0:
248,124,5720,2,0,P|252:192|328:232,1,150.000005722046,2|0,0:0|0:0,0:0:0:0:
432,192,6249,1,0,0:0:0:0:
384,304,6426,6,0,P|352:328|300:320,1,75.0000028610231,4|0,0:0|0:0,0:0:0:0:
160,284,6778,1,8,0:3:0:0:
316,232,6955,1,8,0:3:0:0:
164,176,7131,1,8,0:3:0:0:
232,328,7308,1,4,0:3:0:0:
252,168,7484,1,4,0:3:0:0:
160,284,7661,1,4,0:3:0:0:
200,100,7837,5,4,0:0:0:0:
232,328,8014,1,4,0:3:0:0:
332,148,8190,1,4,0:3:0:0:
160,284,8367,1,4,0:3:0:0:
344,316,8543,1,4,0:3:0:0:
252,168,8720,1,4,0:3:0:0:
160,368,8896,1,4,0:3:0:0:
308,232,9073,1,4,0:3:0:0:
308,232,9161,1,0,0:0:0:0:
308,232,9249,5,6,0:0:0:0:
116,168,9426,1,6,0:0:0:0:
160,368,9602,1,6,0:0:0:0:
160,368,9955,5,6,0:0:0:0:
204,168,10131,1,6,0:0:0:0:
344,316,10308,1,6,0:0:0:0:
344,316,10661,5,6,0:0:0:0:
136,272,10837,1,6,0:0:0:0:
304,220,11014,1,6,0:0:0:0:
160,368,11190,1,6,0:0:0:0:
160,368,11543,5,6,0:0:0:0:
304,220,11720,1,6,0:0:0:0:
99,196,11896,1,0,0:0:0:0:
99,196,11984,1,0,0:0:0:0:
99,196,12073,6,0,P|84:150|101:93,1,100,4|0,0:0|0:0,0:0:0:0:
267,41,12426,1,8,0:0:0:0:
201,210,12602,1,0,0:0:0:0:
363,134,12778,1,2,0:0:0:0:
188,88,12955,1,2,0:0:0:0:
304,220,13131,1,8,0:0:0:0:
365,44,13308,6,0,P|416:55|449:102,1,100,4|0,0:0|0:0,0:0:0:0:
459,276,13661,1,2,0:0:0:0:
363,134,13837,2,0,L|368:238,1,100,8|0,0:0|0:0,0:0:0:0:
445,90,14190,1,2,0:0:0:0:
368,259,14367,1,2,0:0:0:0:
284,96,14543,2,0,P|214:78|150:128,1,150,8|0,0:0|0:0,0:0:0:0:
142,148,14896,5,2,0:0:0:0:
208,8,15073,1,0,0:0:0:0:
234,176,15249,1,8,0:0:0:0:
74,114,15426,1,0,0:0:0:0:
96,282,15602,1,2,0:0:0:0:
234,176,15778,1,2,0:0:0:0:
61,198,15955,1,8,0:0:0:0:
223,262,16131,6,0,P|273:260|312:222,1,100,4|0,0:0|0:0,0:0:0:0:
203,83,16484,1,4,0:0:0:0:
61,198,16661,1,4,0:0:0:0:
61,198,17014,1,4,0:0:0:0:
124,57,17190,1,4,0:0:0:0:
136,266,17367,1,4,0:0:0:0:
52,109,17543,1,4,0:0:0:0:
220,164,17720,5,6,0:0:0:0:
355,57,17896,1,0,0:0:0:0:
287,221,18073,1,8,0:0:0:0:
264,46,18249,1,0,0:0:0:0:
435,101,18426,1,2,0:0:0:0:
398,270,18602,1,2,0:0:0:0:
298,126,18778,1,8,0:0:0:0:
426,17,18955,6,0,P|474:22|512:63,1,100,4|0,0:0|0:0,0:0:0:0:
483,231,19308,1,2,0:0:0:0:
367,102,19484,2,0,L|263:109,1,100,8|0,0:0|0:0,0:0:0:0:
216,249,19837,1,2,0:0:0:0:
158,65,20014,1,2,0:0:0:0:
98,248,20190,2,0,P|71:190|110:97,1,150,8|0,0:0|0:0,0:0:0:0:
158,65,20543,5,6,0:0:0:0:
224,168,20720,1,0,0:0:0:0:
246,16,20896,2,0,L|347:23,1,100,8|0,0:0|0:0,0:0:0:0:
512,102,21249,1,2,0:0:0:0:
329,129,21426,1,2,0:0:0:0:
459,6,21602,1,2,0:0:0:0:
432,180,21778,1,4,0:0:0:0:
256,192,21867,12,0,23190,0:0:0:0:
251,145,23367,6,0,L|260:244,1,100,4|8,0:0|0:0,0:0:0:0:
359,183,23720,1,2,0:0:0:0:
163,119,23896,2,0,L|182:318,1,200,8|0,0:0|0:0,0:0:0:0:
167,344,24337,1,0,0:0:0:0:
136,344,24426,2,0,B|185:318|185:318|286:329,1,150,2|0,0:0|0:0,0:0:0:0:
308,329,24778,6,0,L|416:318,1,100,4|0,0:0|0:0,0:0:0:0:
480,160,25131,2,0,L|472:58,1,100,8|0,0:0|0:0,0:0:0:0:
446,232,25484,1,2,0:0:0:0:
279,181,25661,1,2,0:0:0:0:
397,309,25837,2,0,P|438:329|497:309,1,100,8|0,0:0|0:0,0:0:0:0:
402,165,26190,5,2,0:0:0:0:
308,329,26367,1,0,0:0:0:0:
178,194,26543,1,8,0:0:0:0:
266,35,26720,2,0,L|369:40,1,100,0|2,0:0|0:0,0:0:0:0:
210,110,27073,2,0,L|107:114,1,100,2|8,0:0|0:0,0:0:0:0:
46,24,27426,1,0,0:0:0:0:
24,196,27602,6,0,P|15:246|47:299,1,100,2|0,0:0|0:0,0:0:0:0:
111,115,27955,2,0,P|72:82|10:83,1,100,8|0,0:0|0:0,0:0:0:0:
142,227,28308,2,0,P|189:209|219:155,1,100,2|2,0:0|0:0,0:0:0:0:
160,38,28661,1,8,0:0:0:0:
140,227,28837,1,0,0:0:0:0:
286,103,29014,6,0,L|485:112,1,200,2|8,0:0|0:0,0:0:0:0:
419,27,29543,1,2,0:0:0:0:
385,192,29720,1,2,0:0:0:0:
217,148,29896,1,2,0:0:0:0:
338,30,30073,1,8,0:0:0:0:
288,190,30249,1,0,0:0:0:0:
222,40,30426,5,2,0:0:0:0:
365,109,30602,1,0,0:0:0:0:
217,148,30778,2,0,P|207:212|319:268,1,200,8|2,0:0|0:0,0:0:0:0:
286,106,31308,1,2,0:0:0:0:
172,232,31484,1,8,0:0:0:0:
291,358,31661,6,0,P|344:353|383:320,1,100,0|2,0:0|0:0,0:0:0:0:
288,190,32014,1,0,0:0:0:0:
203,327,32190,1,8,0:0:0:0:
217,148,32367,1,0,0:0:0:0:
271,273,32543,1,2,0:0:0:0:
144,242,32720,1,2,0:0:0:0:
288,190,32896,1,8,0:0:0:0:
203,327,33073,6,0,P|153:348|108:335,1,100,0|2,0:0|0:0,0:0:0:0:
135,155,33426,1,0,0:0:0:0:
288,190,33602,1,8,0:0:0:0:
283,358,33778,1,2,0:0:0:0:
283,358,33867,1,8,0:0:0:0:
283,358,33955,1,8,0:0:0:0:
144,242,34131,1,8,0:0:0:0:
340,277,34308,1,8,0:0:0:0:
170,338,34484,5,6,0:0:0:0:
447,108,34837,1,6,0:0:0:0:
97,22,35190,1,6,0:0:0:0:
77,181,35367,1,4,0:3:0:0:
77,181,35455,1,4,0:3:0:0:
77,181,35543,1,4,0:3:0:0:
177,61,35720,1,10,0:0:0:0:
13,29,35896,1,10,0:0:0:0:
156,146,36073,6,0,P|207:147|253:111,1,100,4|0,0:0|0:0,0:0:0:0:
225,280,36426,2,0,P|215:328|235:373,1,100,8|0,0:0|0:0,0:0:0:0:
76,277,36778,2,0,P|46:239|0:225,1,100,2|2,0:0|0:0,0:0:0:0:
56,375,37131,1,8,0:0:0:0:
150,245,37308,2,0,L|156:146,1,100,0|2,0:0|0:0,0:0:0:0:
158,327,37661,1,0,0:0:0:0:
233,185,37837,1,8,0:0:0:0:
78,197,38014,5,0,0:0:0:0:
226,280,38190,1,2,0:0:0:0:
76,277,38367,1,2,0:0:0:0:
233,185,38543,1,8,0:0:0:0:
158,327,38720,1,0,0:0:0:0:
78,197,38896,6,0,P|64:147|83:93,1,100,2|0,0:0|0:0,0:0:0:0:
230,22,39249,2,0,L|333:28,1,100,8|0,0:0|0:0,0:0:0:0:
470,133,39602,2,0,L|370:138,1,100,2|2,0:0|0:0,0:0:0:0:
229,102,39955,1,8,0:0:0:0:
226,280,40131,1,0,0:0:0:0:
313,190,40308,5,2,0:0:0:0:
155,144,40484,1,0,0:0:0:0:
226,280,40661,1,8,0:0:0:0:
310,109,40837,1,0,0:0:0:0:
425,263,41014,1,2,0:0:0:0:
230,187,41190,1,2,0:0:0:0:
393,121,41367,1,8,0:0:0:0:
345,290,41543,1,0,0:0:0:0:
310,109,41720,6,0,P|250:74|132:135,1,200,2|8,0:0|0:0,0:0:0:0:
226,280,42249,1,0,0:0:0:0:
99,196,42426,2,0,L|-8:198,1,100,2|2,0:0|0:0,0:0:0:0:
230,187,42778,1,8,0:0:0:0:
112,282,42955,2,0,P|117:336|149:368,1,100,0|2,0:0|0:0,0:0:0:0:
306,268,43308,1,2,0:0:0:0:
212,108,43484,6,0,L|110:113,1,100,8|0,0:0|0:0,0:0:0:0:
303,58,43837,1,8,0:0:0:0:
230,187,44014,1,2,0:0:0:0:
225,22,44190,1,8,0:0:0:0:
373,103,44367,1,2,0:0:0:0:
212,108,44543,6,0,P|163:114|100:109,1,100,2|0,0:0|0:0,0:0:0:0:
219,267,44896,2,0,P|225:316|220:379,1,100,8|0,0:0|0:0,0:0:0:0:
379,264,45249,2,0,P|428:258|491:263,1,100,2|2,0:0|0:0,0:0:0:0:
373,103,45602,2,0,P|367:54|372:-9,1,100,8|0,0:0|0:0,0:0:0:0:
212,108,45955,6,0,L|110:113,1,100,4|2,0:0|0:0,0:0:0:0:
278,48,46308,1,2,0:0:0:0:
378,168,46484,2,0,P|392:216|380:264,1,100,4|0,0:0|0:0,0:0:0:0:
243,344,46837,1,2,0:0:0:0:
312,220,47014,1,8,0:0:0:0:
410,343,47190,1,2,0:0:0:0:
246,263,47367,5,4,0:0:0:0:
161,357,47543,1,0,0:0:0:0:
173,224,47720,1,0,0:0:0:0:
243,344,47896,1,2,0:0:0:0:
243,344,48073,1,2,0:0:0:0:
118,285,48249,1,0,0:0:0:0:
246,263,48426,1,8,0:0:0:0:
161,357,48602,6,0,P|107:369|34:307,1,150.000005722046,8|8,0:0|0:0,0:0:0:0:
40,193,49131,1,0,0:0:0:0:
118,285,49308,1,2,0:0:0:0:
118,285,49484,1,2,0:0:0:0:
247,263,49661,1,2,0:0:0:0:
126,202,49837,1,2,0:0:0:0:
161,357,50014,1,2,0:0:0:0:
283,259,50190,5,2,0:0:0:0:
199,166,50367,1,0,0:0:0:0:
342,202,50543,1,0,0:0:0:0:
208,271,50720,1,2,0:0:0:0:
297,134,50896,1,2,0:0:0:0:
360,282,51073,1,0,0:0:0:0:
232,188,51249,1,8,0:0:0:0:
419,226,51426,6,0,P|439:260|437:307,1,75.0000028610231,8|0,0:0|0:0,0:0:0:0:
336,359,51778,2,0,L|254:362,1,75.0000028610231,2|8,0:0|0:0,0:0:0:0:
208,271,52131,1,2,0:0:0:0:
309,215,52308,1,2,0:0:0:0:
394,302,52484,1,2,0:0:0:0:
416,180,52661,1,2,0:0:0:0:
394,302,52837,1,2,0:0:0:0:
507,255,53014,1,4,0:0:0:0:
416,180,53190,5,0,0:0:0:0:
506,101,53367,1,0,0:0:0:0:
416,180,53543,1,8,0:0:0:0:
395,52,53720,2,0,P|357:24|255:59,1,150.000005722046,8|8,0:0|0:0,0:0:0:0:
226,158,54249,6,0,L|230:247,1,75.0000028610231,8|0,0:0|0:0,0:0:0:0:
165,104,54602,1,8,0:0:0:0:
304,160,54778,1,0,0:0:0:0:
264,301,54955,2,0,P|228:312|190:296,2,75.0000028610231,8|8|0,0:0|0:0|0:0,0:0:0:0:
304,160,55484,1,8,0:0:0:0:
353,299,55661,1,0,0:0:0:0:
226,158,55837,5,4,0:0:0:0:
401,100,56014,1,0,0:0:0:0:
240,71,56190,1,8,0:0:0:0:
393,184,56367,2,0,P|437:181|466:158,1,75.0000028610231,0|2,0:0|0:0,0:0:0:0:
322,67,56720,1,2,0:0:0:0:
324,231,56896,1,8,0:0:0:0:
240,71,57073,6,0,P|246:34|274:2,1,75.0000028610231,0|2,0:0|0:0,0:0:0:0:
401,100,57426,1,0,0:0:0:0:
324,231,57602,1,8,0:0:0:0:
196,145,57778,2,0,P|157:137|113:157,1,75.0000028610231,0|2,0:0|0:0,0:0:0:0:
225,267,58131,1,2,0:0:0:0:
327,146,58308,2,0,P|374:158|408:238,1,112.500004291535,8|0,0:0|0:0,0:0:0:0:
408,250,58661,5,6,0:0:0:0:
211,357,58837,1,6,0:0:0:0:
211,357,59190,5,6,0:0:0:0:
196,145,59366,1,6,0:0:0:0:
196,145,59720,5,6,0:0:0:0:
390,30,59896,1,6,0:0:0:0:
390,30,60249,5,6,0:0:0:0:
408,250,60426,1,6,0:0:0:0:
408,250,60778,5,6,0:0:0:0:
390,30,60955,1,6,0:0:0:0:
497,175,61131,1,6,0:0:0:0:
301,70,61308,2,0,P|269:122|308:251,1,200,6|2,0:0|0:0,0:0:0:0:
435,124,61837,1,2,0:0:0:0:
485,296,62014,1,2,0:0:0:0:
354,159,62190,1,2,0:0:0:0:
497,175,62367,1,2,0:0:0:0:
408,250,62543,1,8,0:0:0:0:
435,124,62720,1,2,0:0:0:0:
485,296,62896,6,0,P|465:324|386:335,1,112.500004291535,8|0,0:0|0:0,0:0:0:0:
324,292,63249,6,0,P|310:239|355:158,1,150,8|0,0:0|0:0,0:0:0:0:
435,124,63602,6,0,P|373:158|274:106,1,187.5,8|0,0:0|0:0,0:0:0:0:
233,39,63955,6,0,P|149:30|114:158,1,225.000008583069,8|0,0:0|0:0,0:0:0:0:
164,200,64308,6,0,B|195:212|195:212|265:205,1,100,4|0,0:0|0:0,0:0:0:0:
325,292,64661,2,0,L|112:310,1,200,8|2,0:0|0:0,0:0:0:0:
48,177,65190,1,2,0:0:0:0:
161,73,65367,1,8,0:0:0:0:
176,225,65543,1,0,0:0:0:0:
17,159,65720,6,0,P|47:89|165:75,1,200,2|8,0:0|0:0,0:0:0:0:
290,248,66249,2,0,B|323:294|323:294|471:281,1,200,8|0,0:0|0:0,0:0:0:0:
365,200,66778,1,2,0:0:0:0:
309,317,66955,1,2,0:0:0:0:
288,165,67131,6,0,P|317:125|368:119,1,100,2|0,0:0|0:0,0:0:0:0:
290,248,67484,2,0,P|240:239|208:194,1,100,8|0,0:0|0:0,0:0:0:0:
185,56,67837,1,2,0:0:0:0:
133,236,68014,1,2,0:0:0:0:
288,166,68190,1,8,0:0:0:0:
116,108,68367,1,0,0:0:0:0:
311,87,68543,5,2,0:0:0:0:
214,256,68720,1,2,0:0:0:0:
185,56,68896,1,8,0:0:0:0:
47,188,69073,2,0,P|30:249|122:334,1,200,4|2,0:0|0:0,0:0:0:0:
304,299,69602,1,8,0:0:0:0:
133,236,69778,1,2,0:0:0:0:
256,368,69955,6,0,P|323:382|387:281,1,200,4|8,0:0|0:0,0:0:0:0:
323,142,70484,1,0,0:0:0:0:
304,299,70661,1,2,0:0:0:0:
243,155,70837,1,2,0:0:0:0:
428,215,71014,1,8,0:0:0:0:
389,35,71190,1,0,0:0:0:0:
295,218,71367,6,0,P|239:238|163:134,1,200,2|8,0:0|0:0,0:0:0:0:
277,48,71896,1,0,0:0:0:0:
405,128,72073,1,2,0:0:0:0:
294,218,72249,1,2,0:0:0:0:
347,80,72426,1,8,0:0:0:0:
488,158,72602,1,0,0:0:0:0:
398,291,72778,6,0,P|352:309|304:299,1,100,4|0,0:0|0:0,0:0:0:0:
243,155,73131,1,8,0:0:0:0:
373,47,73308,1,2,0:0:0:0:
373,47,73396,1,8,0:0:0:0:
373,47,73484,2,0,L|477:55,1,100,8|2,0:0|0:0,0:0:0:0:
263,72,73837,2,0,L|146:81,1,100,8|0,0:0|0:0,0:0:0:0:
3,123,74190,5,4,0:0:0:0:
160,181,74367,1,8,0:0:0:0:
64,43,74543,1,8,0:0:0:0:
61,209,74720,1,2,0:0:0:0:
163,79,74896,1,8,0:0:0:0:
203,279,75073,1,0,0:0:0:0:
203,279,75161,1,0,0:0:0:0:
203,279,75249,2,0,P|142:291|60:198,1,187.5,4|0,0:0|0:0,0:0:0:0:
86,126,75602,6,0,P|96:76|79:27,1,100,4|0,0:0|0:0,0:0:0:0:
229,133,75955,2,0,P|273:108|300:64,1,100,8|0,0:0|0:0,0:0:0:0:
289,244,76308,2,0,P|336:262|387:254,1,100,2|2,0:0|0:0,0:0:0:0:
413,236,76573,1,0,0:0:0:0:
432,206,76661,1,8,0:0:0:0:
230,133,76837,1,0,0:0:0:0:
436,122,77014,6,0,P|491:142|485:272,1,200,2|8,0:0|0:0,0:0:0:0:
292,341,77543,2,0,B|234:365|234:365|86:340,1,200,2|8,0:0|0:0,0:0:0:0:
228,243,78073,2,0,L|366:172,1,150,8|0,0:0|0:0,0:0:0:0:
436,122,78426,6,0,P|454:173|435:228,1,100,2|0,0:0|0:0,0:0:0:0:
254,139,78778,2,0,P|236:88|255:33,1,100,8|0,0:0|0:0,0:0:0:0:
272,20,79043,1,0,0:0:0:0:
306,13,79131,6,0,L|412:17,1,100,8|0,0:0|0:0,0:0:0:0:
436,92,79396,2,0,L|334:89,1,100,8|0,0:0|0:0,0:0:0:0:
328,166,79661,1,8,0:0:0:0:
404,300,79837,6,0,L|510:294,1,100,4|0,0:0|0:0,0:0:0:0:
329,255,80190,1,8,0:0:0:0:
480,200,80367,1,2,0:0:0:0:
330,335,80543,2,0,P|286:329|251:278,1,100,0|2,0:0|0:0,0:0:0:0:
272,104,80896,2,0,P|328:84|408:146,1,150,8|0,0:0|0:0,0:0:0:0:
410,162,81249,5,4,0:0:0:0:
291,16,81426,1,0,0:0:0:0:
252,198,81602,1,8,0:0:0:0:
291,16,81778,2,0,L|185:22,1,100,2|0,0:0|0:0,0:0:0:0:
191,131,82131,1,2,0:0:0:0:
369,62,82308,1,8,0:0:0:0:
252,198,82484,6,0,P|205:220|148:206,1,100
11,86,82837,1,2,0:0:0:0:
191,131,83014,1,8,0:0:0:0:
149,319,83190,2,0,P|88:297|64:166,1,200,2|2,0:0|0:0,0:0:0:0:
167,35,83720,1,8,0:0:0:0:
159,213,83896,1,0,0:0:0:0:
276,84,84073,6,0,P|312:112|326:180,1,100,4|0,0:0|0:0,0:0:0:0:
248,323,84426,2,0,L|149:318,1,100,8|0,0:0|0:0,0:0:0:0:
350,268,84778,2,0,L|453:264,1,100,8|2,0:0|0:0,0:0:0:0:
251,296,85131,2,0,L|83:287,1,150,8|0,0:0|0:0,0:0:0:0:
45,229,85484,6,0,P|34:178|44:127,1,100,12|0,0:0|0:0,0:0:0:0:
148,3,85837,2,0,P|137:54|147:105,1,100,12|0,0:0|0:0,0:0:0:0:
272,205,86190,2,0,L|478:195,1,200
370,116,86720,1,0,0:0:0:0:
251,296,86896,5,6,0:0:0:0:
202,77,87073,1,6,0:0:0:0:
45,228,87249,1,6,0:0:0:0:
45,228,87602,5,6,0:0:0:0:
272,205,87778,1,6,0:0:0:0:
143,16,87954,1,6,0:0:0:0:
144,17,88308,5,6,0:0:0:0:
272,205,88484,1,6,0:0:0:0:
394,17,88661,1,6,0:0:0:0:
144,17,88837,1,6,0:0:0:0:
