osu file format v14

[General]
AudioFilename: Hello Alone.mp3
AudioLeadIn: 0
PreviewTime: 56633
Countdown: 0
SampleSet: Soft
StackLeniency: 0.7
Mode: 0
LetterboxInBreaks: 0
WidescreenStoryboard: 0

[Editor]
DistanceSpacing: 1.3
BeatDivisor: 4
GridSize: 4
TimelineZoom: 0.9

[Metadata]
Title:Hello Alone
TitleUnicode:Hello Alone
Artist:Yukinoshita Yukino (CV.Hayami Saori) & Yuigahama Yui (CV.Touyama Nao)
ArtistUnicode:雪ノ下雪乃(CV.早見沙織)&由比ヶ浜結衣(CV.東山奈央)
Creator:Del05
Version:Hard
Source:やはり俺の青春ラブコメはまちがっている
Tags:oregairu ending ed yahari ore no seishun love come wa machigatteiru my teen romantic comedy snafu tv size
BeatmapID:788965
BeatmapSetID:358798

[Difficulty]
HPDrainRate:6
CircleSize:3.5
OverallDifficulty:6
ApproachRate:7.5
SliderMultiplier:1.5
SliderTickRate:1

[Events]
//Background and Video events
Video,-100,"Ed.avi"
0,0,"BG.jpg",0,0
//Break Periods
//Storyboard Layer 0 (Background)
//Storyboard Layer 1 (Fail)
//Storyboard Layer 2 (Pass)
//Storyboard Layer 3 (Foreground)
//Storyboard Sound Samples

[TimingPoints]
1185,413.793103448276,4,2,1,55,1,0
1185,-100,4,2,1,55,0,0
7805,-125,4,2,1,55,0,0
21047,-111.111111111111,4,2,1,55,0,0
28081,-100,4,2,1,55,0,0
57047,-100,4,2,1,30,0,0
57460,-90.9090909090909,4,2,1,55,0,1
67391,-90.9090909090909,4,2,1,55,0,0
70702,-90.9090909090909,4,2,1,55,0,1
83943,-90.9090909090909,4,2,1,55,0,0

[HitObjects]
148,220,1185,6,0,P|104:168|100:72,2,150
228,276,2219,1,0,0:0:0:0:
288,200,2426,1,0,0:0:0:0:
344,280,2633,6,0,P|400:252|432:152,1,150
428,76,3253,2,0,L|344:28,1,75
264,36,3667,2,0,L|240:128,1,75
120,100,4081,1,0,0:0:0:0:
64,180,4288,1,0,0:0:0:0:
64,180,4391,1,0,0:0:0:0:
64,180,4495,6,0,P|84:256|112:284,2,112.5
124,104,5322,2,0,L|208:136,1,75
256,208,5736,1,0,0:0:0:0:
336,152,5943,1,0,0:0:0:0:
336,152,6047,1,0,0:0:0:0:
336,152,6150,6,0,P|376:112|468:140,1,150
464,228,6771,2,0,L|508:232,2,37.5
368,220,7185,1,0,0:0:0:0:
272,236,7391,2,0,L|260:192,2,37.5
228,304,7805,6,0,L|100:272,1,120
36,252,8426,2,0,L|56:124,1,120
188,84,9047,2,0,P|212:112|248:128,1,60
308,128,9460,6,0,L|280:252,1,120
344,292,10081,2,0,L|200:288,1,120
60,228,10702,1,0,0:0:0:0:
60,228,10909,1,0,0:0:0:0:
40,152,11116,6,0,P|64:128|124:116,2,90
28,228,11943,1,0,0:0:0:0:
80,288,12150,1,0,0:0:0:0:
80,288,12253,1,0,0:0:0:0:
80,288,12357,2,0,L|168:296,1,60
204,248,12771,6,0,P|184:208|184:136,2,90
240,316,13598,1,0,0:0:0:0:
308,280,13805,1,0,0:0:0:0:
356,220,14012,2,0,L|360:144,1,60
312,96,14426,6,0,L|412:80,2,90
236,108,15253,1,0,0:0:0:0:
176,160,15460,2,0,L|148:128,2,30
112,208,15874,1,0,0:0:0:0:
128,284,16081,6,0,L|260:308,1,120
324,300,16702,2,0,L|340:160,1,120
332,120,17322,2,0,L|320:48,1,60
248,40,17736,6,0,P|172:72|112:88,1,120
64,56,18357,2,0,L|64:184,1,120
76,252,18978,2,0,L|28:268,2,30
152,228,19391,6,0,P|172:284|156:324,2,90
104,168,20219,1,0,0:0:0:0:
148,104,20426,1,0,0:0:0:0:
212,64,20633,2,0,L|192:16,2,30
260,136,21047,6,0,P|272:192|264:276,1,134.999995880127,6|8,0:0|0:0,0:0:0:0:
248,356,21667,2,0,L|96:328,1,134.999995880127,6|2,0:0|0:0,0:0:0:0:
56,264,22288,1,8,0:0:0:0:
64,176,22495,6,0,P|84:124|164:84,1,134.999995880127,6|2,0:0|0:0,0:0:0:0:
232,120,23116,2,0,L|216:160,2,33.7499989700318,8|8|8,0:0|0:0|0:0,0:0:0:0:
296,60,23529,1,2,0:0:0:0:
340,136,23736,1,2,0:0:0:0:
404,76,23943,2,8,L|416:12,2,33.7499989700318
448,152,24357,6,0,L|408:308,1,134.999995880127,6|8,0:0|0:0,0:0:0:0:
344,336,24978,2,0,L|204:296,1,134.999995880127,6|2,0:0|0:0,0:0:0:0:
168,224,25598,1,8,0:0:0:0:
84,248,25805,6,0,P|32:176|44:116,1,134.999995880127,6|2,0:0|0:0,0:0:0:0:
104,80,26426,2,0,L|64:36,2,33.7499989700318,8|8|8,0:0|0:0|0:0,0:0:0:0:
176,132,26840,1,6,0:0:0:0:
248,80,27047,1,6,0:0:0:0:
308,144,27253,2,8,L|288:196,2,33.7499989700318
72,316,28081,6,0,L|52:200,1,112.5,6|2,0:0|0:0,0:0:0:0:
32,160,28495,1,8,0:0:0:0:
128,168,28702,1,2,0:0:0:0:
172,80,28909,2,0,L|256:96,1,75,8|0,0:0|0:0,0:0:0:0:
336,128,29322,6,0,L|360:56,2,75,2|2|8,0:0|0:0|0:0,0:0:0:0:
280,208,29943,2,0,P|228:240|132:220,1,150,2|2,0:0|0:0,0:0:0:0:
76,156,30564,1,8,0:0:0:0:
60,60,30771,1,0,0:0:0:0:
60,60,30978,6,0,P|101:71|216:68,1,150,2|8,0:0|0:0,0:0:0:0:
236,164,31598,1,0,0:0:0:0:
368,116,31805,1,2,0:0:0:0:
376,212,32012,1,2,0:0:0:0:
340,304,32219,2,0,L|248:312,1,75,8|0,0:0|0:0,0:0:0:0:
176,268,32633,6,0,L|156:344,2,75,2|2|8,0:0|0:0|0:0,0:0:0:0:
220,180,33253,2,0,P|152:176|96:112,1,150,2|2,0:0|0:0,0:0:0:0:
192,92,33874,2,0,L|272:80,1,75,8|0,0:0|0:0,0:0:0:0:
364,80,34288,6,0,L|364:256,1,150,0|12,0:0|0:0,0:0:0:0:
312,312,34909,1,0,0:0:0:0:
216,296,35116,2,0,L|204:212,1,75
108,204,35529,2,0,L|116:112,1,75
200,80,35943,6,0,P|200:128|224:144,1,75
300,196,36357,1,0,0:0:0:0:
300,196,36564,2,0,P|364:168|448:208,1,150
428,292,37185,1,0,0:0:0:0:
336,324,37391,1,0,0:0:0:0:
260,264,37598,6,0,P|196:244|92:268,1,150
40,192,38219,1,0,0:0:0:0:
96,112,38426,2,0,L|176:84,1,75
260,64,38840,2,0,L|216:16,2,37.5
348,108,39253,6,0,L|360:200,1,75
280,244,39667,1,0,0:0:0:0:
280,244,39874,2,0,P|220:204|144:240,1,150
68,180,40495,2,0,L|36:216,2,37.5
112,92,40909,6,0,P|168:108|264:80,1,150
316,8,41529,2,0,L|312:168,1,150
336,252,42150,1,0,0:0:0:0:
336,252,42357,6,0,L|164:260,1,150
108,200,42978,1,0,0:0:0:0:
52,120,43185,2,0,L|8:144,2,37.5
144,84,43598,1,0,0:0:0:0:
236,112,43805,2,0,L|280:64,2,37.5
188,200,44219,6,0,L|344:224,1,150
404,292,44840,2,0,L|424:116,1,150
364,64,45460,1,0,0:0:0:0:
364,64,45667,6,0,L|192:60,1,150
124,104,46288,1,0,0:0:0:0:
88,196,46495,2,0,L|32:184,2,37.5
168,256,46909,1,0,0:0:0:0:
248,204,47116,2,0,L|252:136,2,37.5
300,284,47529,6,0,L|392:296,1,75
456,236,47943,2,0,L|464:136,1,75
400,84,48357,1,0,0:0:0:0:
332,156,48564,1,0,0:0:0:0:
264,88,48771,1,0,0:0:0:0:
264,88,48978,6,0,L|88:88,1,150
60,168,49598,2,0,L|72:264,1,75
144,304,50012,2,0,L|224:300,1,75
312,268,50426,1,0,0:0:0:0:
248,192,50633,1,0,0:0:0:0:
248,192,50840,6,0,L|248:88,1,75
324,56,51253,1,0,0:0:0:0:
308,152,51460,1,0,0:0:0:0:
388,144,51667,2,0,P|440:120|472:136,2,75
360,240,52288,6,0,P|300:264|208:228,1,150
192,148,52909,2,0,L|200:64,1,75
104,44,53322,2,0,L|108:144,1,75
96,216,53736,2,0,L|44:220,2,37.5
188,244,54150,6,0,L|264:108,1,150
192,184,54771,2,0,L|344:232,1,150
432,248,55391,1,0,0:0:0:0:
444,152,55598,6,0,P|392:116|288:88,1,150
236,152,56219,1,0,0:0:0:0:
168,80,56426,1,0,0:0:0:0:
92,144,56633,5,0,0:0:0:0:
144,320,57460,6,0,L|100:224,1,82.5000025177003,2|2,0:0|0:0,0:0:0:0:
100,136,57874,2,0,P|152:104|220:132,1,123.75000377655,8|2,0:0|0:0,0:0:0:0:
220,128,58288,2,0,L|320:64,1,82.5000025177003,2|2,0:0|0:0,0:0:0:0:
396,88,58702,2,0,L|316:160,1,82.5000025177003,8|0,0:0|0:0,0:0:0:0:
144,320,59116,6,0,L|100:224,1,82.5000025177003,2|2,0:0|0:0,0:0:0:0:
100,136,59530,2,0,P|152:104|220:132,1,123.75000377655,8|2,0:0|0:0,0:0:0:0:
244,160,59943,1,0,0:0:0:0:
296,64,60150,1,0,0:0:0:0:
396,88,60358,2,0,L|316:160,1,82.5000025177003,8|0,0:0|0:0,0:0:0:0:
144,320,60771,6,0,L|100:224,1,82.5000025177003,2|2,0:0|0:0,0:0:0:0:
100,136,61185,2,0,P|152:104|220:132,1,123.75000377655,8|2,0:0|0:0,0:0:0:0:
220,128,61599,2,0,L|320:64,1,82.5000025177003,2|2,0:0|0:0,0:0:0:0:
360,164,62012,1,0,0:0:0:0:
336,268,62219,1,0,0:0:0:0:
