osu file format v14

[General]
AudioFilename: 01 Swordland osu.mp3
AudioLeadIn: 0
PreviewTime: 17555
Countdown: 1
SampleSet: Soft
StackLeniency: 0.8
Mode: 0
LetterboxInBreaks: 1
WidescreenStoryboard: 1

[Editor]
DistanceSpacing: 1
BeatDivisor: 4
GridSize: 4
TimelineZoom: 1

[Metadata]
Title:Swordland
TitleUnicode:Swordland
Artist:Yuki kajiura
ArtistUnicode:Yuki kajiura
Creator:Zeffeng
Version:Hard
Source:Sword art online
Tags:Sword art online swordland soundtrack SAO
BeatmapID:482977
BeatmapSetID:204534

[Difficulty]
HPDrainRate:6
CircleSize:4.5
OverallDifficulty:6.5
ApproachRate:7.5
SliderMultiplier:1.5
SliderTickRate:2

[Events]
//Background and Video events
0,0,"wallpaper-2106834.jpg",0,0
//Break Periods
2,64027,75320
2,83383,90088
//Storyboard Layer 0 (Background)
//Storyboard Layer 1 (Fail)
//Storyboard Layer 2 (Pass)
//Storyboard Layer 3 (Foreground)
//Storyboard Sound Samples

[TimingPoints]
2299,461.538461538462,4,2,0,100,1,0

[HitObjects]
256,184,2299,5,0,0:0:0:0:
308,140,2529,1,0,0:0:0:0:
284,288,2991,1,0,0:0:0:0:
236,336,3222,2,0,B|152:264|152:356|36:304,1,187.5
116,152,4145,2,0,B|260:148|260:148|312:200,1,187.5
392,208,5068,2,0,B|468:228|472:284|452:312,1,112.5
368,308,5760,1,0,0:0:0:0:
280,312,5991,6,0,B|84:384|48:188|48:188,1,300,0|0,0:0|0:0,0:0:0:0:
196,204,7375,2,0,B|320:300|320:300|464:136,1,375
420,80,8991,1,0,0:0:0:0:
364,120,9222,1,0,0:0:0:0:
364,260,9683,2,0,L|136:260,1,225
84,140,10837,1,0,0:0:0:0:
140,52,11183,1,0,0:0:0:0:
224,64,11529,2,0,B|324:28|324:28|408:84,1,187.5
404,168,12452,1,0,0:0:0:0:
408,308,12914,2,0,B|316:340|316:340|316:340,1,75
324,228,13491,2,0,L|72:260,1,225
100,208,14760,5,0,0:0:0:0:
96,104,15222,2,0,P|240:56|300:100,1,225
240,176,16260,1,0,0:0:0:0:
216,280,16606,2,0,L|460:140,1,262.5
392,116,17760,1,0,0:0:0:0:
208,160,18222,2,0,L|328:272,1,150
380,248,18914,1,0,0:0:0:0:
376,332,19606,2,0,P|248:324|252:260,1,225
256,136,20760,2,0,B|112:128|68:120|96:192,1,187.5
300,148,22145,5,0,0:0:0:0:
252,200,22375,1,0,0:0:0:0:
312,248,22606,2,0,L|432:116,1,150
290,145,23760,2,0,L|140:144,1,150
220,144,24452,2,0,L|220:332,1,187.5
380,248,25722,1,0,0:0:0:0:
380,248,25952,1,0,0:0:0:0:
304,324,26299,2,0,L|76:324,1,225
168,128,27683,1,0,0:0:0:0:
104,160,27914,1,0,0:0:0:0:
28,168,28145,2,0,P|12:52|100:40,1,225
168,144,29299,6,0,L|332:156,1,150
432,224,30106,1,0,0:0:0:0:
216,108,30914,2,0,B|48:100|28:112|32:180,1,225
44,296,32068,2,0,B|148:256|148:256|240:292,1,187.5
380,308,33222,1,0,0:0:0:0:
376,168,33683,1,0,0:0:0:0:
272,188,34145,2,0,L|80:44,1,225
336,36,35529,2,0,L|52:36,1,262.5
132,196,36914,5,0,0:0:0:0:
200,204,37145,1,0,0:0:0:0:
136,192,37375,2,0,B|220:360|220:360|288:264,1,300
288,220,38760,1,0,0:0:0:0:
244,168,38991,1,0,0:0:0:0:
288,220,39222,2,0,B|376:192|376:84|248:84,1,225
168,80,40491,1,0,0:0:0:0:
168,152,40837,1,0,0:0:0:0:
236,228,41068,2,0,B|352:392|352:392|352:392,1,187.5
104,296,42452,1,0,0:0:0:0:
176,292,42683,1,0,0:0:0:0:
104,296,42914,2,0,L|104:108|104:116,1,187.5
312,252,44299,5,0,0:0:0:0:
280,192,44529,1,0,0:0:0:0:
312,252,44760,2,0,L|500:20,1,262.5
424,64,45914,1,0,0:0:0:0:
304,132,46375,1,0,0:0:0:0:
232,56,46722,2,0,B|112:52|112:52|224:172|224:172|92:172,1,412.5
360,116,48452,2,0,B|272:136|272:136|272:136,7,75
256,192,50645,12,0,53529,0:0:0:0:
256,192,53991,6,0,P|372:148|248:272,1,525
228,164,56299,1,0,0:0:0:0:
232,232,56529,2,0,L|412:220,1,150
396,288,57337,1,0,0:0:0:0:
396,184,57683,2,0,L|196:60,1,225
217,73,58606,1,0,0:0:0:0:
288,192,59068,1,0,0:0:0:0:
332,72,59529,2,0,B|436:72|436:72|348:172|348:172|500:172,1,375
256,192,61952,12,0,63827,0:0:0:0:
48,160,76145,6,0,L|268:160,1,187.5
204,204,77068,2,0,L|272:304,1,112.5
288,84,77991,2,0,L|336:288,1,187.5
388,168,79029,2,0,L|176:264,1,225
256,192,80068,12,0,83183,0:0:0:0:
256,196,90913,5,0,0:0:0:0:
372,144,91837,2,0,P|452:112|376:40,1,225
336,76,92760,2,0,L|228:168,1,112.5
158,93,93683,2,0,P|98:189|226:141,1,337.5
292,56,95529,2,0,L|520:56,1,225
432,156,96568,1,0,0:0:0:0:
296,184,97260,1,0,0:0:0:0:
220,68,97952,1,0,0:0:0:0:
228,160,98299,6,0,L|56:28,1,187.5
128,164,99568,2,0,B|128:284|128:284|168:312,1,150
4,292,100491,1,0,0:0:0:0:
264,260,101183,1,0,0:0:0:0:
264,156,101645,1,0,0:0:0:0:
336,156,101991,2,0,L|544:156,1,187.5
392,216,102914,2,0,L|212:328,1,187.5
380,264,103837,2,0,P|344:148|252:212,1,262.5
120,188,104991,1,0,0:0:0:0:
256,116,105683,2,0,B|320:84|320:84|356:92|504:136,1,262.5
396,236,106952,5,0,0:0:0:0:
324,236,107183,1,0,0:0:0:0:
396,236,107414,2,0,P|424:128|552:188,1,262.5
376,168,108914,1,0,0:0:0:0:
316,132,109145,1,0,0:0:0:0:
312,204,109375,2,0,L|508:204,1,187.5
440,84,110645,1,0,0:0:0:0:
364,80,110875,1,0,0:0:0:0:
436,80,111222,2,0,L|196:228,1,262.5
244,96,112606,5,0,0:0:0:0:
184,60,112837,1,0,0:0:0:0:
244,96,113068,2,0,L|244:352,1,225
412,296,114452,1,0,0:0:0:0:
328,232,114799,1,0,0:0:0:0:
412,296,115145,2,0,L|412:16,1,262.5
256,24,116529,1,0,0:0:0:0:
196,64,116760,2,0,B|208:160|288:144|408:32,1,262.5
492,28,118145,5,0,0:0:0:0:
404,136,118606,2,0,L|80:200,1,300
352,32,120452,2,0,L|60:128,1,300
100,260,121837,5,0,0:0:0:0:
100,188,122068,1,0,0:0:0:0:
100,260,122298,2,0,B|248:204|248:204|252:332,1,262.5
368,248,123683,1,0,0:0:0:0:
416,196,123914,1,0,0:0:0:0:
360,240,124145,2,0,B|308:172|448:104|340:48,1,187.5
172,48,125414,1,0,0:0:0:0:
152,152,125760,1,0,0:0:0:0:
208,112,125991,2,0,B|324:276|324:276|324:276,1,187.5
68,296,127375,1,0,0:0:0:0:
36,232,127606,1,0,0:0:0:0:
76,288,127837,2,0,L|248:168|248:168,1,187.5
96,80,129106,5,0,0:0:0:0:
164,88,129337,1,0,0:0:0:0:
96,80,129568,2,0,L|300:280,1,262.5
364,196,130837,1,0,0:0:0:0:
368,56,131298,1,0,0:0:0:0:
264,80,131645,2,0,B|312:172|312:172|80:120|80:120|104:184,1,375
300,204,133606,2,0,B|212:224|212:224|212:224,6,75
360,116,135452,5,0,0:0:0:0:
120,160,136145,1,0,0:0:0:0:
336,340,137068,1,0,0:0:0:0:
312,272,137299,1,0,0:0:0:0:
400,84,137991,1,0,0:0:0:0:
128,148,138914,1,0,0:0:0:0:
196,168,139145,1,0,0:0:0:0:
120,340,139952,1,0,0:0:0:0:
332,216,140760,1,0,0:0:0:0:
60,156,141683,1,0,0:0:0:0:
124,128,141914,1,0,0:0:0:0:
368,148,142722,5,0,0:0:0:0:
132,216,143529,1,0,0:0:0:0:
396,308,144452,1,0,0:0:0:0:
348,256,144683,1,0,0:0:0:0:
148,112,145491,1,0,0:0:0:0:
428,104,146414,1,0,0:0:0:0:
360,120,146645,1,0,0:0:0:0:
172,212,147337,1,0,0:0:0:0:
400,300,148145,1,0,0:0:0:0:
176,132,149068,1,0,0:0:0:0:
240,104,149299,1,0,0:0:0:0:
356,280,149991,5,0,0:0:0:0:
88,200,150914,1,0,0:0:0:0:
340,80,151837,1,0,0:0:0:0:
288,128,152068,1,0,0:0:0:0:
372,320,152760,1,0,0:0:0:0:
116,208,153683,1,0,0:0:0:0:
424,40,154837,1,0,0:0:0:0:
380,96,155068,1,0,0:0:0:0:
208,68,155645,1,0,0:0:0:0:
100,288,156452,1,0,0:0:0:0:
380,300,157375,1,0,0:0:0:0:
244,52,158299,1,0,0:0:0:0:
244,120,158529,1,0,0:0:0:0:
124,292,159222,5,0,0:0:0:0:
172,240,159452,1,0,0:0:0:0:
376,184,160145,1,0,0:0:0:0:
308,184,160375,1,0,0:0:0:0:
136,60,161068,1,0,0:0:0:0:
188,108,161299,1,0,0:0:0:0:
68,280,161991,1,0,0:0:0:0:
124,240,162222,1,0,0:0:0:0:
332,264,162914,1,0,0:0:0:0:
276,220,163145,1,0,0:0:0:0:
32,208,163952,1,0,0:0:0:0:
104,208,164183,1,0,0:0:0:0:
208,208,164529,1,0,0:0:0:0:
