osu file format v9

[General]
AudioFilename: aiii.mp3
AudioLeadIn: 0
PreviewTime: -1
Countdown: 0
SampleSet: Soft
StackLeniency: 0.6
Mode: 0
LetterboxInBreaks: 1

[Editor]
DistanceSpacing: 1
BeatDivisor: 4
GridSize: 8

[Metadata]
Title:LOVE&JOY
Artist:Yuki Kimura
Creator:mooai
Version:Normal
Source:
Tags:gowww kimura yuki

[Difficulty]
HPDrainRate:3
CircleSize:4
OverallDifficulty:3
ApproachRate:4
SliderMultiplier:0.80000000596046
SliderTickRate:0.5

[Events]
//Background and Video events
0,0,"bg.jpg"
//Break Periods
2,46764,56343
//Storyboard Layer 0 (Background)
//Storyboard Layer 1 (Fail)
//Storyboard Layer 2 (Pass)
//Storyboard Layer 3 (Foreground)
//Storyboard Sound Samples
//Background Colour Transformations
3,100,163,162,255

[TimingPoints]
13270,346.820809248555,4,2,1,85,1,0
15957,-100,4,1,1,40,0,0
16651,-100,4,2,1,85,0,0
18038,-100,4,1,1,40,0,0
19426,-100,4,2,1,86,0,0
20119,-100,4,1,1,40,0,0
20813,-100,4,2,1,85,0,0
22894,-100,4,1,1,50,0,0
23241,-100,4,1,1,60,0,0
23501,-100,4,1,1,80,0,0
24281,-100,4,1,1,80,0,1
26709,-100,4,2,1,96,0,1
26969,-100,4,1,1,81,0,1
29483,-100,4,2,1,96,0,1
29830,-100,4,1,1,80,0,1
33992,-100,4,2,1,100,0,1
35379,-100,4,1,1,80,0,1
37807,-100,4,2,1,95,0,1
38067,-100,4,1,1,80,0,1
40582,-100,4,2,1,95,0,1
40928,-100,4,1,1,80,0,1
42316,-100,4,2,1,95,0,1
43270,-100,4,1,1,80,0,1
45090,-100,4,2,1,100,0,1
46651,-100,4,1,1,80,0,0
60697,-100,4,2,1,95,0,0
61044,-100,4,1,1,80,0,0
61391,-100,4,2,1,95,0,0
61738,-100,4,1,1,80,0,0
66246,-100,4,2,1,95,0,0
66593,-100,4,1,1,80,0,0
66940,-100,4,2,1,95,0,0
67287,-100,4,1,1,80,0,0
75611,-100,4,1,1,80,0,1
80119,-100,4,2,1,95,0,1
80466,-100,4,1,1,80,0,1
80813,-100,4,2,1,95,0,1
81160,-100,4,1,1,80,0,1
85322,-100,4,2,1,100,0,1
86709,-100,4,1,1,80,0,1
89180,-100,4,2,1,94,0,1
89483,-100,4,1,1,80,0,1
91911,-100,4,2,1,95,0,1
92258,-100,4,1,1,80,0,1
96420,-100,4,2,1,100,0,1
97980,-100,4,1,1,80,0,0

[Colours]
Combo1 : 255,134,255
Combo2 : 255,153,104

[HitObjects]
224,128,13270,6,0,B|264:96|304:136,1,80.000000596046
296,256,13963,2,0,B|256:288|216:248,1,80.000000596046
320,160,14657,6,0,B|360:200|312:240,1,80.000000596046
200,232,15350,2,0,B|160:192|208:152,1,80.000000596046
248,104,16044,5,0
328,80,16391,1,0
400,120,16738,2,0,B|440:152|408:200,1,80.000000596046
336,176,17431,2,0,B|320:224|360:256,1,80.000000596046
416,304,18125,1,0
352,360,18472,1,0
272,360,18819,5,0
272,360,19165,1,0
272,360,19512,2,0,B|192:360,1,80.000000596046
216,280,20206,1,0
216,280,20553,1,0
216,280,20900,2,0,B|296:280,1,80.000000596046
272,200,21593,2,0,B|184:200,1,80.000000596046
216,120,22287,2,0,B|304:120,1,80.000000596046
256,192,22980,5,4
216,264,23327,1,4
296,264,23674,1,4
176,160,24368,6,0,B|112:96,1,80.000000596046,0|8
184,56,25061,2,0,B|248:120,1,80.000000596046,0|8
200,184,25755,1,0
256,128,26102,1,8
312,184,26449,2,0,B|376:256,1,80.000000596046,0|4
296,288,27142,5,0
216,288,27489,1,8
216,208,27836,2,0,B|296:208,1,80.000000596046,0|8
296,288,28530,1,0
216,288,28876,1,8
256,216,29223,2,0,B|256:160,2,40.000000298023,0|0|4
256,136,29917,5,0
192,88,30264,1,8
256,40,30611,1,0
320,88,30957,1,8
256,136,31304,2,0,B|192:192,1,80.000000596046,2|10
256,136,31998,2,0,B|320:192,1,80.000000596046,2|10
336,264,32691,5,4
176,264,33385,1,4
256,120,34079,5,4
256,200,34426,1,4
256,280,34772,1,4
256,360,35119,1,4
224,288,35466,6,0,B|208:208,1,80.000000596046,4|8
288,208,36160,2,0,B|304:128,1,80.000000596046,0|8
296,48,36853,1,0
216,48,37200,1,8
208,128,37547,2,0,B|224:208,1,80.000000596046,0|4
240,288,38241,5,0
288,224,38587,1,8
336,288,38934,2,0,B|384:224,1,80.000000596046,0|8
336,160,39628,1,0
288,224,39975,1,8
240,288,40322,2,0,B|208:328,2,40.000000298023,0|0|4
168,320,41015,6,0,B|80:320,1,80.000000596046,0|8
128,248,41709,2,0,B|32:248,1,80.000000596046,0|8
88,176,42402,1,4
168,176,42749,1,4
248,176,43096,1,4
328,176,43443,2,0,B|368:176,2,40.000000298023,8|0|12
256,320,44483,5,4
216,168,45177,1,4
216,88,45524,1,4
296,88,45871,1,4
296,168,46217,1,4
256,240,46564,1,4
224,16,57663,6,0,B|192:64|232:96,1,80.000000596046,0|0
296,56,58356,2,0,B|328:104|288:136,1,80.000000596046,0|0
224,168,59050,1,8
288,216,59397,1,8
224,264,59743,1,8
384,264,60437,6,0,B|416:216|376:184,1,80.000000596046,0|4
304,192,61130,2,0,B|272:232|312:272,1,80.000000596046,0|4
360,320,61824,1,0
424,272,62171,1,0
392,200,62518,1,0
328,248,62865,1,0
264,296,63212,6,0,B|192:352,1,80.000000596046,0|8
144,296,63905,2,0,B|208:248,1,80.000000596046,0|8
272,200,64599,1,0
336,152,64946,1,0
272,104,65293,1,8
272,264,65986,6,0,B|280:304|240:336,1,80.000000596046,0|4
168,304,66680,2,0,B|160:264|200:232,1,80.000000596046,0|4
264,184,67374,1,0
336,216,67720,1,0
368,288,68067,1,0
312,352,68414,1,4
232,352,68761,6,0,B|208:304|264:280,1,80.000000596046,2|2
328,264,69454,2,0,B|320:216|264:200,1,80.000000596046,2|2
200,216,70148,1,0
144,280,70495,1,0
184,352,70842,2,0,B|232:360|256:320,1,80.000000596046,2|2
296,256,71535,1,0
296,256,71882,1,0
360,208,72229,1,2
296,160,72576,1,2
240,104,72923,6,0,B|240:200,1,80.000000596046,0|2
168,152,73616,2,0,B|168:248,1,80.000000596046,0|2
96,272,74310,1,4
96,192,74657,1,4
96,112,75004,1,4
256,112,75697,6,0,B|312:48,1,80.000000596046,0|8
392,56,76391,2,0,B|448:120,1,80.000000596046,0|8
448,200,77085,1,0
368,200,77431,1,8
288,200,77778,2,0,B|232:200,2,40.000000298023,0|8|8
288,120,78472,5,0
288,40,78819,1,8
216,80,79165,1,0
216,160,79512,1,8
144,200,79859,2,0,B|144:120,1,80.000000596046,0|4
72,160,80553,6,0,B|72:248,1,80.000000596046,0|4
72,320,81246,1,0
136,272,81593,1,8
200,320,81940,1,0
264,272,82287,1,8
264,192,82634,2,0,B|208:112,1,80.000000596046,2|10
264,192,83327,2,0,B|312:128,1,80.000000596046,2|10
264,64,84021,5,4
264,224,84715,1,4
264,384,85408,1,4
264,304,85755,1,4
264,224,86102,1,4
264,144,86449,1,4
296,216,86796,6,0,B|320:256|296:304,1,80.000000596046,4|8
224,296,87489,2,0,B|200:256|224:216,1,80.000000596046,0|8
256,152,88183,1,0
256,152,88530,1,8
256,72,88876,2,0,B|256:24,2,40.000000298023,0|0|4
336,112,89570,5,0
320,192,89917,1,8
256,248,90264,1,0
192,192,90611,1,8
176,112,90957,2,0,B|256:112,1,80.000000596046,0|8
256,192,91651,2,0,B|256:248,2,40.000000298023,0|0|4
256,272,92345,6,0,B|168:272,1,80.000000596046,0|2
256,272,93038,2,0,B|344:272,1,80.000000596046,0|2
256,272,93732,2,0,B|184:320,1,80.000000596046,0|2
256,272,94426,2,0,B|328:320,1,80.000000596046,0|2
256,368,95119,5,4
256,208,95813,1,4
216,56,96506,2,0,B|160:56,2,40.000000298023,4|4|4
296,56,97200,2,0,B|352:56,2,40.000000298023,4|4|4
256,128,97894,1,4
